#TITLE:It's Love (Core Remix);
#SUBTITLE:;
#ARTIST:Kill!k;
#TITLETRANSLIT:;
#SUBTITLETRANSLIT:;
#ARTISTTRANSLIT:;
#CREDIT:;
#BANNER:../speedcore rejects ban.png;
#BACKGROUND:../speedcore rejects bg.png;
#LYRICSPATH:;
#CDTITLE:;
#MUSIC:It's Love (Core Remix).ogg;
#OFFSET:0.009;
#SAMPLESTART:98.320;
#SAMPLELENGTH:12.000;
#SELECTABLE:YES;
#BPMS:0.000=260.003;
#STOPS:;
#BGCHANGES:;
// cache tags:
#FIRSTBEAT:32.000;
#LASTBEAT:561.000;
#SONGFILENAME:Songs/Speedcore Rejects/It's Love (Core Remix) - [Aoreo]/It's Love (Core Remix).sm;
#HASMUSIC:1;
#HASBANNER:1;
#MUSICLENGTH:129.731;
// end cache tags

//---------------dance-single - J. Nero----------------
#NOTES:
     dance-single:
     J. Nero:
     Challenge:
     18:
     1.000,1.000,0.170,0.208,1.000,981.000,22.000,27.000,77.000,0.000:
0000
0000
0000
0000
,
0000
0000
0000
0000
,
0000
0000
0000
0000
,
0000
0000
0000
0000
,
0000
0000
0000
0000
,
0000
0000
0000
0000
,
0000
0000
0000
0000
,
0000
0000
0000
0000
,
2002
0000
3003
0001
0100
0000
0010
0000
,
1000
0100
0000
0000
1000
0000
0000
0001
,
0200
0000
0301
0000
0000
1000
0000
0000
,
0001
0000
0010
0100
1000
0000
0000
0000
,
2002
0000
3003
0001
0100
0000
0010
0000
,
1000
0100
0000
0000
0010
0000
0010
0001
,
2000
3000
0010
0100
0010
0000
1000
0000
,
0002
1003
0100
1000
0001
0000
0000
0000
,
2002
0000
3003
1000
0100
0000
0010
0000
,
0001
0100
0000
0000
0010
0000
0000
0100
,
0002
0000
1003
0000
0000
0010
0000
0000
,
0100
0000
0001
0010
0100
0000
0000
0000
,
2002
0000
3003
1000
0010
0000
0100
0000
,
0001
1000
0000
0000
0100
0000
0100
1000
,
0002
0000
0103
0010
0100
0000
0001
0000
,
2000
3100
0010
0100
0010
0000
0000
0000
,
2002
0000
0000
0000
,
0000
0000
3003
0000
,
0000
0000
0000
0000
,
0000
0000
0000
0000
,
0001
0100
0001
0010
,
0100
0000
1000
0000
0001
0000
1000
0010
,
0100
0001
0100
0010
,
1000
0000
0000
0000
0100
0000
0000
0000
0010
0000
0001
1000
0001
0000
1000
0010
,
1000
0010
0100
0001
,
0010
0001
1000
0010
,
0100
0001
0010
0100
,
1000
0000
0001
0100
0001
0000
1000
0001
1000
0000
0010
1000
0010
0000
0100
0001
,
0100
0001
1000
0100
,
1000
0000
0010
0000
0100
0000
0001
0010
,
0100
1000
0001
0100
,
0001
0000
0000
0000
1000
0000
0000
0000
0010
0000
0100
0001
0100
0000
0001
1000
,
0001
0100
0010
1000
,
0100
0010
0001
1000
,
0100
1000
0001
0100
,
0010
0000
1000
0010
1000
0000
0001
0100
0001
0000
1000
0001
1000
0000
0010
1000
,
0010
1000
0001
1000
0010
0100
0001
1000
,
0100
0000
0010
0000
0001
0000
1000
0000
0010
0000
0100
0001
0100
0000
0001
0000
,
0010
0000
0100
0000
1000
0000
0001
0000
1000
0000
0010
0000
0100
0000
0001
1000
,
0001
0000
1000
0100
1000
0000
0001
0100
0001
0000
1000
0000
0010
1000
0001
0000
,
0100
0000
0001
0000
1000
0000
0100
0000
1000
0000
0001
0000
0100
0001
1000
0000
,
0001
0010
0100
1000
0001
0100
0001
1000
,
0010
0100
0010
0000
1000
0000
0001
0000
0010
0100
0010
0000
0100
0000
1000
0000
,
0001
0100
0001
0000
1000
0000
0100
0000
1000
0001
1000
0000
0010
0000
0100
0000
,
0001
0010
0100
1000
0001
1000
0100
1000
,
0010
0000
0100
0000
0001
0000
1000
0000
0001
0000
0100
0000
0001
0100
0001
0000
,
1000
0100
0010
0000
0001
0000
0100
0000
0010
0000
1000
0000
0001
0000
1000
0100
,
1000
0000
0001
0100
0001
0000
1000
0010
1000
0000
0010
0000
0100
0001
1000
0000
,
0001
0000
1000
0000
0100
0000
0010
0000
0001
0000
1000
0000
0001
0100
0010
0000
,
0100
0010
1000
0001
0010
0100
1000
0001
,
0100
0010
0100
0000
0010
0000
1000
0000
0100
0010
0100
0000
0010
0000
0001
0000
,
1000
0001
1000
0000
0010
0000
0100
0000
0001
0100
0001
0000
1000
0000
0001
0000
,
1000
0100
1000
0001
0010
0100
1000
0001
1000
0100
0010
0001
0010
0100
1000
0001
,
1000
0001
0100
0001
0100
0010
1000
0010
0100
0001
1000
0001
0100
0010
1000
0001
,
1000
0001
0010
0001
1000
0100
0010
0001
1000
0100
1000
0001
0010
0100
1000
0001
,
1000
0001
0100
0001
1000
0010
0100
0010
1000
0001
0100
0001
0100
0010
1000
0001
,
1000
0001
0010
0001
1000
0100
0010
0001
1000
0100
0010
0001
1000
0100
1000
0001
,
1000
0001
0100
0001
0100
0010
1000
0010
1000
0001
0100
0001
1000
0010
0100
0010
,
1000
0001
1000
0001
0010
0001
1000
0100
0010
0001
1000
0100
0010
0100
1000
0001
,
1000
0001
0100
0010
0100
0001
1000
0010
0100
0001
1000
0010
0100
0001
1000
0001
,
4000
0000
0000
0000
3001
0100
0001
1000
0010
0100
0001
1000
0001
0000
0000
0000
,
1000
0100
1000
0100
0010
0000
0010
0000
,
0001
0400
0310
0400
0301
1000
0100
0010
,
0100
1000
0001
0100
0001
0000
0001
0000
,
1000
0100
1000
0001
0010
0100
1000
0010
,
0100
0001
1000
0100
0010
0001
0100
0010
,
1000
0001
0010
0100
1000
0001
1000
0010
,
0100
0001
0010
0100
1000
0000
1000
0000
,
0004
0000
0003
0000
1000
0100
1000
0001
0010
0100
1000
0001
1000
0000
0000
0000
,
0001
0100
0001
0100
0010
0000
0010
0000
,
1000
0400
1300
0004
0103
0010
0100
0010
,
1000
0001
0010
0100
1000
0000
1000
0000
,
0001
0100
0001
0010
0100
1000
0001
1000
,
0100
1000
0010
0100
0010
0100
0001
0010
,
0100
1000
0001
1000
0100
0010
0100
1000
,
0004
0000
0003
1000
0400
0000
0300
0000
,
1000
0000
0001
0000
1000
0100
0010
0000
0100
0000
1000
0000
0001
0100
0001
0000
,
0100
0010
0100
0000
0001
0000
0010
0000
0100
0000
1000
0000
0004
0000
0000
0003
,
1000
0000
0001
0000
0010
0100
1000
0000
0001
0000
0100
0000
0010
0100
0010
0000
,
1000
0100
0010
0001
1000
0100
0010
0001
,
1000
0000
0001
0000
0100
0001
1000
0000
0001
0000
0010
0000
0100
1000
0100
0000
,
1000
0001
1000
0000
0010
0000
0100
0000
0001
0000
0010
0000
0400
0000
0000
0300
,
1000
0000
0100
0000
1000
0000
0001
0000
0100
0001
0100
0001
1000
0000
0010
0000
,
1000
0001
0010
0100
1000
0010
0100
0001
1000
0100
0010
0001
,
1000
0000
1001
0000
0000
1001
0000
0001
,
0010
0100
0000
0000
2200
0000
3300
0000
,
2000
0000
0000
0000
,
3000
0000
0000
0000
,
0002
0000
0000
0000
,
0003
0000
0000
0000
,
0200
0000
0000
0000
,
0300
0000
0000
0000
,
0002
0000
0000
0000
,
2003
0000
0000
0000
,
3001
0100
0001
1000
0010
0100
0001
0100
0010
1000
0001
1000
0001
0100
0010
1000
,
0001
0100
0001
1000
0010
0100
0010
1000
0001
0100
0001
1000
0010
0100
0010
1000
,
0001
1000
0001
0010
0100
1000
0001
0010
0100
1000
0001
0010
0001
1000
0100
0010
,
0001
1000
0100
1000
0001
0010
0100
1000
0001
0000
0100
0010
0100
0000
0001
0000
,
1000
0010
0100
0010
1000
0001
0100
0001
1000
0010
0100
0001
0100
0001
1000
0010
,
0100
0001
1000
0001
0100
0010
1000
0001
4000
0000
0000
0000
0000
0000
0000
0000
,
3001
0010
0001
1000
0100
0010
0001
1000
0100
1000
0001
0010
0100
1000
0001
1000
,
0001
0010
0100
1000
0100
1000
0001
0010
0001
0000
0400
0300
0010
0000
4000
3000
,
0001
0100
0001
1000
0010
0100
0010
1000
0001
0100
0001
0100
0010
1000
0010
0100
,
0001
1000
0001
1000
0010
0100
0001
0100
0010
1000
0001
0100
0001
1000
0010
1000
,
0001
1000
0100
1000
0001
0010
0100
1000
0001
0010
0001
1000
0100
0010
0100
1000
,
0001
0010
0100
1000
0001
1000
0100
0010
0001
0000
1000
0010
1000
0000
0001
0000
,
0100
0001
0100
0010
1000
0010
0100
0001
0100
0010
1000
0001
0100
0010
1000
0001
,
1000
0001
0100
0010
0100
0010
1000
0001
4000
0000
0000
0000
0000
0000
0000
0000
,
3001
0010
0001
1000
0100
0010
0100
1000
0001
0010
0100
1000
0001
0010
0001
1000
,
0100
0010
0001
1000
0100
0010
0100
1000
0001
0000
4000
0000
3010
0000
0400
0000
,
0301
0100
0001
1000
,
0001
0010
0100
1000
,
0010
1000
0100
0010
,
0001
0000
1000
0010
0100
0000
0001
0000
,
0010
0000
0000
0000
0100
0000
0000
0000
1000
0000
0000
0000
0001
0010
0001
0010
,
0100
1000
0004
0000
,
1003
0010
1000
0010
0100
0001
1000
0010
0100
0010
1000
0001
0100
0001
0100
0010
,
1000
0001
0100
0010
0100
0001
1000
0001
4000
3000
0040
0030
0100
0001
1000
0000
,
0001
0010
0001
1000
0100
0010
0001
1000
0001
0010
0100
1000
0001
0010
0001
1000
,
0001
1000
0010
0100
0001
0100
0010
1000
0001
1000
0010
0100
0001
0100
0010
1000
,
0001
1000
0001
0010
0001
1000
0100
0010
0001
1000
0100
0010
0001
1000
0100
1000
,
0004
0043
0430
4300
3004
0403
0340
4030
,
3001
0100
0001
1000
0010
0100
0001
1000
0001
1000
0010
0100
0001
1000
0001
1000
,
0040
0000
0030
0000
0100
0000
0001
0000
4000
0000
3001
0100
0001
1000
0010
0100
,
M001
0000
M000
M000
M000
0000
00M0
00M0
00M0
0000
00M0
00M0
00M0
0000
00M0
00M0
,
00M0
0000
00M0
00M0
00M0
0000
00M0
0000
00M0
0000
00M0
0000
00M0
0000
0M00
0000
,
0M00
0M00
0M00
0M00
0M00
0M00
0M00
0M00
0M00
0M00
0M00
0M00
0M00
0M00
0M00
0M00
0M00
0M00
0M00
0M00
0M00
0M00
0M00
0M00
,
00M0
00M0
00M0
00M0
00M0
00M0
00M0
00M0
00M0
00M0
00M0
00M0
00M0
00M0
00M0
00M0
00M0
00M0
00M0
00M0
00M0
00M0
00M0
00M0
00M0
00M0
00M0
00M0
00M0
00M0
00M0
00M0
,
2002
0000
0000
0000
,
0000
0000
0000
0000
,
0000
0000
0000
0000
,
0000
0000
0000
3003
,
2002
3003
0000
0000
;
