#TITLE:Classical Insanity;
#SUBTITLE:;
#ARTIST:DM Ashura;
#TITLETRANSLIT:;
#SUBTITLETRANSLIT:;
#ARTISTTRANSLIT:;
#CREDIT:;
#BANNER:Classical Insanity-bn.jpg;
#BACKGROUND:Classical Insanity-bg.jpg;
#LYRICSPATH:;
#CDTITLE:Catchrothy22cd.png;
#MUSIC:Classical Insanity.mp3;
#OFFSET:0.900;
#SAMPLESTART:34.193;
#SAMPLELENGTH:12.000;
#SELECTABLE:YES;
#BPMS:0.000=175.000;
#STOPS:;
#BGCHANGES:;
// cache tags:
#FIRSTBEAT:3.000;
#LASTBEAT:359.000;
#SONGFILENAME:Songs/IzzySM Keyboard Mega Pack/ClassicalInsanity/Classical Insanity.sm;
#HASMUSIC:1;
#HASBANNER:1;
#MUSICLENGTH:124.896;
// end cache tags

//---------------dance-single - ----------------
#NOTES:
     dance-single:
     :
     Hard:
     10:
     0.843,1.000,0.985,0.024,0.000,599.000,123.000,3.000,0.000,12.000:  // measure 1
0000
0000
0000
0000
0000
0000
1001
0100
,  // measure 2
0010
0001
1000
0010
0100
0001
0010
0100
,  // measure 3
1000
0001
0100
0010
1000
0100
0110
1000
,  // measure 4
0010
0100
0001
1000
0100
0010
0001
0100
,  // measure 5
0010
1000
0001
0010
0100
1000
0110
1000
,  // measure 6
0100
0010
0001
0010
0100
1000
0110
0100
,  // measure 7
0001
0100
0010
1000
0001
0100
1001
0010
,  // measure 8
0100
1000
0110
0010
0001
1000
0110
0100
,  // measure 9
1001
0100
0011
1000
1100
0010
1001
0100
,  // measure 10
0010
0001
0010
0100
1000
0010
0100
0001
,  // measure 11
1000
0010
0100
0001
1001
0110
0010
0001
,  // measure 12
0010
0100
1000
0100
0010
0001
0100
0010
,  // measure 13
1000
0001
0100
0010
1001
0110
0010
0001
,  // measure 14
0010
0100
1000
0010
0100
0001
1000
0010
,  // measure 15
0100
0001
1000
0100
0110
1001
0010
0100
,  // measure 16
1000
0010
0100
0001
1100
0011
1000
0100
,  // measure 17
0010
0001
0010
0100
1001
0110
1100
0000
,  // measure 18
0000
1100
0100
0110
0010
0011
0010
0110
,  // measure 19
0100
1100
0100
0110
0010
0011
1001
0000
,  // measure 20
0000
0011
1000
0110
0001
1100
0100
1010
,  // measure 21
0001
0110
1000
0101
0010
0110
1001
0110
,  // measure 22
1100
0011
0110
1001
0110
1100
0110
0000
,  // measure 23
1001
0000
0000
0000
1000
0100
1000
0000
,  // measure 24
0100
0010
0100
0000
0001
0010
0100
1000
,  // measure 25
0100
0010
0001
0000
1000
0010
0100
0001
,  // measure 26
0100
0010
1000
0100
0010
0001
0010
0100
,  // measure 27
1000
0100
0010
0000
1000
0100
1000
0000
,  // measure 28
0100
0010
0100
0000
0001
0010
0001
0010
,  // measure 29
0100
1000
0100
0000
0001
0100
0010
1000
,  // measure 30
0100
0010
0001
1000
0010
0100
0001
0010
,  // measure 31
0100
1000
0010
0000
1001
0000
1100
0000
,  // measure 32
1000
0100
1000
0000
1100
0000
0110
0000
,  // measure 33
0001
0010
0001
0000
0110
0000
1001
0000
,  // measure 34
0100
1000
0100
0000
0110
0010
1001
0000
,  // measure 35
1000
0010
1000
0000
0110
0010
0011
0000
,  // measure 36
1000
0010
1000
0000
0110
0010
0011
0000
,  // measure 37
0100
0010
0100
0000
1100
0100
0011
0010
,  // measure 38
0110
1000
0110
0001
1010
0100
1010
0001
,  // measure 39
0110
1000
0011
0100
1100
0000
1110
0000
,  // measure 40
0111
1110
0000
1101
,  // measure 41
1011
0000
1101
0000
0000
0000
1000
0100
,  // measure 42
0010
0001
0010
0100
1000
0010
0100
0001
,  // measure 43
0100
0010
1000
0100
0010
0001
1110
0000
,  // measure 44
0111
1110
0000
0111
,  // measure 45
1110
0000
0111
0000
0000
0000
0001
0010
,  // measure 46
0100
1000
0100
0010
0001
0100
0010
1000
,  // measure 47
0010
0100
0001
0100
0020
0000
0000
0000
,  // measure 48
0000
0000
0000
0000
,  // measure 49
0000
0000
1030
0100
0001
0010
0100
1000
,  // measure 50
0100
0010
0001
0010
0100
1000
0001
0100
,  // measure 51
0010
1000
0100
0001
0010
0100
0010
0001
,  // measure 52
0010
0100
1000
0010
0100
0001
0100
0010
,  // measure 53
1000
0010
0100
0001
0100
0010
1000
0001
,  // measure 54
0010
0100
1000
0100
0010
0001
1000
0100
,  // measure 55
0010
1000
0010
0100
0001
0100
0010
1000
,  // measure 56
0100
0010
0001
0010
0100
1000
1001
0000
,  // measure 57
0000
1100
0000
0011
,  // measure 58
0000
0000
0000
0000
1000
0100
0010
0001
,  // measure 59
0010
0100
1001
0000
0110
0000
1001
0000
,  // measure 60
0000
0000
0000
0000
1000
0100
0010
0000
,  // measure 61
0000
0000
1001
0000
0000
0001
0010
0100
,  // measure 62
0000
0000
0110
0000
1000
0100
0010
0000
,  // measure 63
0001
0010
0100
0000
1000
0010
0100
0000
,  // measure 64
0000
0000
0000
0000
0000
0000
1001
0100
,  // measure 65
0010
0001
0010
0100
1000
0100
1100
0100
,  // measure 66
0110
0010
0011
0010
0110
0100
1001
0100
,  // measure 67
1000
0010
0100
0001
1000
0010
0011
0010
,  // measure 68
0110
0100
1100
0100
0110
0100
1001
0100
,  // measure 69
0010
0001
0010
0100
1000
0100
0110
1000
,  // measure 70
0110
0001
1100
0100
0011
0100
0110
1000
,  // measure 71
0100
0010
0001
0010
0100
1000
0110
0100
,  // measure 72
1100
0100
0110
0010
0011
0010
0110
1000
,  // measure 73
0100
1000
0100
0010
0100
0010
0001
0010
,  // measure 74
0100
0010
0100
1000
0100
1000
0100
0010
,  // measure 75
0100
0010
0001
0010
0100
1000
0100
0010
,  // measure 76
0001
0100
0010
1000
0001
0100
0010
1000
,  // measure 77
0010
0100
0001
0010
0100
1000
0100
0010
,  // measure 78
0001
1000
0010
0100
0001
1000
0100
0010
,  // measure 79
0001
0100
0010
1000
0010
0100
0001
1000
,  // measure 80
0100
0010
0001
0100
0010
1000
0110
1000
,  // measure 81
0010
0100
0010
0001
0010
0001
0100
0010
,  // measure 82
0100
1000
0100
0010
0001
0010
0100
1000
,  // measure 83
0100
0010
0001
0010
0100
1000
0010
0100
,  // measure 84
0001
0100
0010
1000
0100
0010
0101
0010
,  // measure 85
0100
1000
0010
0100
0001
0100
1010
0100
,  // measure 86
0010
0001
1000
0010
0100
0001
1010
0100
,  // measure 87
0011
0100
1010
0001
0110
1000
0011
0100
,  // measure 88
1100
0010
0110
0100
1001
0100
0011
0000
,  // measure 89
0000
0000
0000
0110
0000
0000
2002
0000
,  // measure 90
0000
0000
0000
3003
;

//---------------dance-single - ----------------
#NOTES:
     dance-single:
     :
     Challenge:
     11:
     1.000,1.000,1.000,0.016,1.000,963.000,134.000,2.000,0.000,0.000:  // measure 1
0000
0000
0000
0000
0000
0000
0000
0000
0000
0000
0000
0000
1001
0010
0100
0010
,  // measure 2
0001
1000
0100
0010
0001
1000
0010
0100
0001
1000
0010
0100
0001
1000
0100
0010
,  // measure 3
0001
0010
0100
1000
0010
0100
0001
0100
0010
1000
0100
0010
1001
0100
0010
0100
,  // measure 4
1000
0001
0010
0100
1000
0001
0100
0010
1000
0001
0100
0010
1000
0001
0010
0100
,  // measure 5
1000
0100
0010
0001
0100
0010
1000
0010
0100
0001
0010
0100
1001
0100
0010
0001
,  // measure 6
0010
0100
1000
0010
0100
0001
0100
0010
1000
0100
0010
0100
1001
0100
0010
0001
,  // measure 7
1000
0010
0100
0001
0100
0010
1000
0100
0010
0001
0010
0100
1001
0010
0100
1000
,  // measure 8
0100
0010
0001
0010
1001
0100
1000
0010
0100
0001
1000
0010
1001
0100
0010
0100
,  // measure 9
1001
0010
0100
0010
1001
0100
0010
0100
1001
0010
0100
0010
1001
0010
0100
1000
,  // measure 10
0100
0010
0001
0100
0010
1000
0010
0100
0001
1000
0100
0010
0001
1000
0010
0100
,  // measure 11
0001
0010
0100
1000
0001
0100
0010
1000
1100
0000
0110
0000
0010
0001
0010
0100
,  // measure 12
1000
0010
0100
0001
0100
0010
1000
0001
0010
0100
1000
0001
0100
0010
1000
0100
,  // measure 13
0010
0001
1000
0010
0100
0001
0010
0100
0011
0000
0110
0000
1000
0010
0100
0001
,  // measure 14
0100
0010
1000
0100
0010
0001
0010
0100
1000
0001
0100
0010
1000
0001
0010
0100
,  // measure 15
1000
0010
0100
0001
0100
0010
1000
0100
1001
0000
0110
0000
0001
0100
0010
1000
,  // measure 16
0010
0100
0001
0010
0100
1000
0100
0010
1001
0000
0110
0000
0001
1000
0100
0010
,  // measure 17
0001
0100
0010
1000
0010
0100
0001
0010
1001
0000
0110
0000
1001
0000
0000
0000
,  // measure 18
0000
1100
0100
0110
0010
0011
0010
0110
,  // measure 19
0100
1100
1000
1100
0100
0110
1001
0000
,  // measure 20
0000
1100
0100
0110
0010
0011
0010
0110
,  // measure 21
0100
1100
1000
1100
0100
0110
1001
0100
,  // measure 22
1001
0010
1001
0100
1001
0010
1001
0000
,  // measure 23
0110
0000
0000
0000
0000
0000
0000
0000
1000
0100
0010
0001
0010
0000
0000
0000
,  // measure 24
0001
0010
0100
1000
0100
0000
0000
0000
1000
0010
0100
0001
0100
0010
1000
0100
,  // measure 25
0010
0001
0010
0100
1000
0000
0000
0000
1000
0000
0100
0000
0110
0000
1100
0000
,  // measure 26
0011
1010
0101
0110
1001
1010
0101
0011
,  // measure 27
1100
0000
0110
0000
1001
0000
0000
0000
0001
0010
0100
1000
0100
0000
0000
0000
,  // measure 28
1000
0100
0010
0001
0010
0000
0000
0000
1000
0010
0100
0001
0100
0010
1000
0100
,  // measure 29
0010
0001
0010
0100
1000
0010
0000
0000
1000
0000
0100
0000
0110
0000
1100
0000
,  // measure 30
0110
0011
1010
0101
1001
0110
1100
0011
,  // measure 31
0110
1001
1100
0000
0000
0000
1001
0000
,  // measure 32
0000
1000
1100
0000
0000
0100
0110
0000
,  // measure 33
0000
0000
0001
0010
0011
0000
0000
0000
0000
0000
0000
0000
1001
0000
0000
0000
,  // measure 34
0000
0000
1000
0100
1001
0000
0000
0000
0000
0000
0000
0000
1000
0000
0100
0000
,  // measure 35
0010
0001
1001
0000
0000
0000
1001
0000
,  // measure 36
0000
0000
1000
0100
1010
0000
0000
0000
0000
0000
0001
0000
0011
0000
0000
0000
,  // measure 37
0000
0000
1000
0010
1001
0000
0000
0000
0000
0000
0000
0000
1000
0100
0010
0001
,  // measure 38
1000
0010
0100
0001
0010
0100
1000
0001
0100
0010
1000
0100
0010
0001
1000
0001
,  // measure 39
0100
0010
1000
0010
0100
0001
0100
0010
1000
0000
0000
0000
1001
0000
0000
0000
,  // measure 40
0110
1001
0000
1010
,  // measure 41
0101
0000
1010
0000
0000
0000
1000
0100
,  // measure 42
0010
0001
0010
0100
1000
0010
0100
0001
,  // measure 43
0100
0010
1000
0001
0010
0100
1001
0000
,  // measure 44
0110
1001
0000
0011
,  // measure 45
1100
0000
0011
0000
0000
0000
1000
0010
,  // measure 46
0100
0001
0100
0010
1000
0100
0010
0001
,  // measure 47
0010
0100
1000
0000
1001
0000
0000
0000
,  // measure 48
0000
0000
0000
0000
0000
0000
1000
0100
0010
0001
0010
0100
,  // measure 49
1000
0000
0000
0000
0100
0000
0000
0000
0010
0000
0000
0000
0001
0000
0000
0000
0010
0000
0100
0000
0000
1000
0000
0000
0001
0000
0000
0100
0000
0000
0010
0000
0000
1000
0000
0000
0100
0000
0000
0010
0000
0000
0001
0000
0000
1000
0000
0000
,  // measure 50
0010
0100
0001
1000
0010
0100
0001
1000
0100
0010
0001
0010
0100
1000
0001
1000
,  // measure 51
0100
0010
0001
1000
0010
0100
0001
0100
0010
1000
0100
0010
0001
1000
0010
0100
,  // measure 52
0001
0100
0010
1000
0001
1000
0100
0010
0001
1000
0001
0010
0100
1000
0010
0100
,  // measure 53
0001
0100
0010
1000
0001
0100
0010
1000
0001
0100
0010
1000
0100
0010
0001
1000
,  // measure 54
0010
0100
0001
1000
0100
0010
0001
1000
0010
0100
0001
1000
0100
0010
0001
1000
,  // measure 55
0010
0100
0001
0010
0100
1000
0010
0100
0001
1000
0100
0010
0001
1000
0010
0100
,  // measure 56
1000
0100
0010
0001
0010
0100
1000
0100
0010
0001
0010
0100
1000
0100
0010
0001
0010
0100
1000
0100
0010
0001
0010
0100
1001
0000
0000
0000
0000
0000
0000
0000
,  // measure 57
0000
1100
0000
0011
,  // measure 58
0000
0000
0000
0000
1000
0100
0010
0001
,  // measure 59
0010
0100
1001
0000
0110
0000
1001
0000
,  // measure 60
0000
0000
0000
0000
1000
0100
0010
0000
,  // measure 61
0000
0000
1001
0000
0000
0001
0010
0100
,  // measure 62
0000
0000
0110
0000
1000
0100
0010
0000
,  // measure 63
0001
0010
0100
0000
1000
0010
0100
0000
,  // measure 64
0000
0000
0000
0000
0000
0000
0000
0000
0000
0000
0000
0000
1001
0000
1000
0100
,  // measure 65
1000
0000
1000
0100
1000
0100
0010
0000
0100
0000
0001
0000
0011
0000
0010
0000
,  // measure 66
0110
0000
0100
0000
1100
0000
0100
0000
0110
0000
0010
0000
1001
0000
0100
0010
,  // measure 67
0100
0000
0100
0010
0100
0010
1000
0000
0001
0000
0010
0000
1100
0000
0100
0000
,  // measure 68
0110
0000
0010
0000
0011
0000
0010
0000
0110
0000
0100
0000
0011
0000
0001
0010
,  // measure 69
0001
0000
0001
0010
0001
0010
0100
0000
0010
0000
1000
0000
1100
0000
0100
0000
,  // measure 70
0110
0000
0010
0000
0011
0000
0010
0000
0110
0000
0100
0000
1001
0000
0010
0100
,  // measure 71
0010
0000
0010
0100
0010
0100
0001
0000
1000
0000
0100
0000
0011
0000
0010
0000
,  // measure 72
0110
0000
0100
0000
1100
0000
0100
0000
0110
0000
0010
0000
1000
0100
0010
0001
,  // measure 73
1000
0100
0010
0001
1000
0010
0100
0001
1000
0010
0100
0001
0010
0100
1000
0001
,  // measure 74
0010
0100
1000
0001
0100
0010
1000
0001
0100
0010
1000
0100
0010
0001
1000
0100
,  // measure 75
1000
0100
0010
0100
0010
0100
0001
0100
0001
0100
0001
0010
0001
0010
0001
1000
,  // measure 76
0001
1000
0010
1000
0010
1000
0001
1000
0001
0010
0100
0010
0100
1000
0100
0010
,  // measure 77
0001
1000
0010
0100
0001
0100
0010
1000
0001
0010
0100
1000
0100
0010
0001
1000
,  // measure 78
0010
0100
0001
0100
0010
1000
0100
0010
0001
0010
0100
1000
0001
0100
0010
1000
,  // measure 79
0001
1000
0001
0100
0010
1000
0001
0100
0010
1000
0100
0010
0001
1000
0010
0100
,  // measure 80
0001
1000
0010
0100
0001
0100
0010
1000
0100
0010
0001
0010
0100
1000
0010
0100
,  // measure 81
0001
0100
0010
1000
0001
1000
0100
0010
0001
1000
0001
0010
0100
1000
0100
0010
,  // measure 82
0001
1000
0010
0100
0001
0100
0010
1000
0010
0100
0010
1000
0001
0100
0010
1000
,  // measure 83
0100
0010
0001
1000
0010
0100
0001
1000
0001
0010
0100
1000
0100
0010
0001
1000
,  // measure 84
0010
0100
0001
1000
0010
0100
0001
0010
0100
1000
0100
0010
1001
0010
0100
1000
,  // measure 85
0100
0010
0001
0010
0100
1000
0100
0010
0001
0010
0100
1000
1001
1000
0010
0100
,  // measure 86
0001
1000
0010
0100
0001
1000
0010
0100
0001
1000
0010
0100
1001
0100
0010
0100
,  // measure 87
1001
0010
0100
0010
1001
0100
0010
0100
1001
0010
0100
0010
1001
0100
0010
0100
,  // measure 88
1001
0010
0100
0010
1001
0100
0010
0100
1001
0010
0100
0010
1001
0000
0000
0000
,  // measure 89
0000
1001
0000
2002
,  // measure 90
0000
0000
0000
3003
;
