#TITLE:Super Mario Bros 2;
#SUBTITLE:;
#ARTIST:Nintendo;
#TITLETRANSLIT:;
#SUBTITLETRANSLIT:;
#ARTISTTRANSLIT:;
#CREDIT:;
#BANNER:Super Mario Bros 2-bn.png;
#BACKGROUND:Super Mario Bros 2-bg.png;
#LYRICSPATH:;
#CDTITLE:!phenomegaTitle.png;
#MUSIC:Super Mario Bros 2 Theme.mp3;
#OFFSET:-0.280;
#SAMPLESTART:60.000;
#SAMPLELENGTH:11.980;
#SELECTABLE:YES;
#BPMS:0.000=200.000;
#STOPS:;
#BGCHANGES:;
// cache tags:
#FIRSTBEAT:0.000;
#LASTBEAT:293.000;
#SONGFILENAME:Songs/mike songs/Super Mario Bros 2/Super Mario Bros 2.sm;
#HASMUSIC:1;
#HASBANNER:1;
#MUSICLENGTH:88.197;
// end cache tags

//---------------dance-single - ----------------
#NOTES:
     dance-single:
     :
     Hard:
     11:
     1.000,1.000,1.000,0.510,1.000,444.000,146.000,45.000,0.000,0.000:
1000
0100
0000
1000
0100
0000
1000
0010
0000
1000
0010
0000
,
0000
1000
0000
0000
0002
0000
0003
0000
0000
0000
1000
0000
,
1000
0010
0000
0020
0000
0000
1030
0100
0000
1000
0100
0010
,
0001
1000
0000
0002
0000
0000
0000
0000
0000
0003
1000
0000
,
1000
0010
0000
0020
0000
0000
1030
0100
0000
1000
0100
0010
,
0001
1000
0000
0002
0000
0000
0000
0000
0000
0103
0010
0000
,
0100
0010
0000
2000
0000
0000
3001
0100
0000
0100
0001
0000
,
0100
0001
0000
2000
0000
0000
3001
0100
0000
0100
0010
0000
,
0010
1000
0000
0020
0000
0000
1030
0100
0000
2000
0000
0000
,
0000
3000
0000
0000
,
0011
0000
0000
0000
1001
0000
0000
1100
0000
0110
0000
0000
,
0000
0000
0000
0000
0011
0000
1001
1001
0000
0110
0110
0000
,
1001
1001
0000
0110
0110
0000
1001
0000
0000
1010
0000
0000
,
0001
1000
0001
1000
0001
1000
0001
1000
0001
1000
0001
0000
1010
0000
0000
0000
,
0011
0011
0000
0011
0011
0000
1010
0000
0000
1100
0000
0000
,
1001
1001
0000
0110
0110
0000
1001
1001
0000
0110
0000
0000
,
1000
0001
1000
0001
1000
0001
1000
0001
1000
0001
1000
0000
0000
0000
0000
0000
,
0022
0033
0220
0330
2200
3300
0220
0330
0022
0033
0000
0000
,
0011
0000
0000
0000
1001
0000
0000
1100
0000
0110
0000
0000
,
0000
0000
0000
0000
0011
0000
1001
1001
0000
0110
0110
0000
,
1001
1001
0000
0110
0110
0000
1001
0000
0000
1010
0000
0000
,
0001
1000
0001
1000
0001
1000
0001
1000
0001
1000
0001
0000
1010
0000
0000
0000
,
0011
0011
0000
0011
0011
0000
1010
0000
0000
1100
0000
0000
,
1001
1001
0000
1001
1001
0000
1001
1001
0000
0110
0000
0000
,
0000
0000
0000
1100
1100
0000
0011
0011
0000
1001
0000
0000
,
0000
0110
0000
1000
,
0001
1000
0000
0001
1000
0000
0010
0100
0000
0001
0000
0000
,
0000
1000
0000
0000
0100
0000
0000
1000
0000
0000
0001
0100
,
0010
1000
0000
0001
1000
0000
1000
0001
0000
1000
0000
0000
,
0000
0000
0000
1000
0001
0000
0000
0100
0000
0000
0000
0000
,
0010
0000
0000
0000
1000
0000
0000
0001
0000
0100
0000
0000
,
0000
0001
0000
0000
1000
0000
0000
0001
0000
0000
0110
0000
,
1000
0001
0000
1000
0110
0000
1000
0001
0000
1000
0110
0000
,
1000
0001
0000
1000
0110
0000
1000
0001
0000
0001
1000
0000
,
1000
0010
0000
0020
0000
0000
1030
0100
0000
1000
0100
0010
,
0001
1000
0000
0002
0000
0000
0000
0000
0000
0003
1000
0000
,
1000
0010
0000
0020
0000
0000
1030
0100
0000
1000
0100
0010
,
0001
1000
0000
0002
0000
0000
0000
0000
0000
0103
0010
0000
,
0100
0010
0000
2000
0000
0000
3001
0100
0000
0100
0001
0000
,
0100
0001
0000
2000
0000
0000
3001
0100
0000
0100
0010
0000
,
0010
1000
0000
0020
0000
0000
1030
0100
0000
2000
0000
0000
,
0000
3000
0000
0000
,
0011
0000
0000
0000
1001
0000
0000
1100
0000
0110
0000
0000
,
0000
0000
0000
0000
0011
0000
1001
1001
0000
0110
0110
0000
,
1001
1001
0000
0110
0110
0000
1001
0000
0000
1010
0000
0000
,
0001
1000
0001
1000
0001
1000
0001
1000
0001
1000
0001
0000
1010
0000
0000
0000
,
0011
0011
0000
0011
0011
0000
1010
0000
0000
1100
0000
0000
,
1001
1001
0000
0110
0110
0000
1001
1001
0000
0110
0000
0000
,
1000
0001
1000
0001
1000
0001
1000
0001
1000
0001
1000
0000
0000
0000
0000
0000
,
0022
0033
0220
0330
2200
3300
0220
0330
0022
0033
0000
0000
,
0011
0000
0000
0000
1001
0000
0000
1100
0000
0110
0000
0000
,
0000
0000
0000
0000
0011
0000
1001
1001
0000
0110
0110
0000
,
1001
1001
0000
0110
0110
0000
1001
0000
0000
1010
0000
0000
,
0001
1000
0001
1000
0001
1000
0001
1000
0001
1000
0001
0000
1010
0000
0000
0000
,
0011
0011
0000
0011
0011
0000
1010
0000
0000
1100
0000
0000
,
1001
1001
0000
1001
1001
0000
1001
1001
0000
0110
0000
0000
,
0000
0000
0000
1100
1100
0000
0011
0011
0000
1001
0000
0000
,
0000
0110
0000
1000
,
0001
1000
0000
0001
1000
0000
0010
0100
0000
0001
0000
0000
,
0000
1000
0000
0000
0100
0000
0000
1000
0000
0000
0001
0100
,
0010
1000
0000
0001
1000
0000
1000
0001
0000
1000
0000
0000
,
0000
0000
0000
1000
0001
0000
0000
0100
0000
0000
0000
0000
,
0010
0000
0000
0000
1000
0000
0000
0001
0000
0100
0000
0000
,
0000
0001
0000
0000
1000
0000
0000
0001
0000
0000
0110
0000
,
1000
0001
0000
1000
0110
0000
1000
0001
0000
1000
0110
0000
,
1000
0001
0000
1000
0110
0000
1000
0001
0000
0001
1000
0000
,
1000
0010
0000
0020
0000
0000
1030
0100
0000
1000
0100
0010
,
0001
1000
0000
0002
0000
0000
0000
0000
0000
0003
1000
0000
,
1000
0010
0000
0020
0000
0000
1030
0100
0000
1000
0100
0010
,
0001
1000
0000
0002
0000
0000
0000
0000
0000
0103
0010
0000
,
0100
0010
0000
2000
0000
0000
3001
0100
0000
0100
0001
0000
,
0100
0001
0000
2000
0000
0000
3001
0100
0000
0100
0010
0000
,
0010
1000
0000
0020
0000
0000
1030
0100
0000
2000
0000
0000
,
0000
3000
0000
0000
;
