#TITLE:Life Light;
#SUBTITLE:;
#ARTIST:Ask;
#TITLETRANSLIT:;
#SUBTITLETRANSLIT:;
#ARTISTTRANSLIT:;
#CREDIT:;
#BANNER:Life Light-bn.png;
#BACKGROUND:Life Light-bg.png;
#LYRICSPATH:;
#CDTITLE:KOMBO.png;
#MUSIC:ASK - Life Light.mp3;
#OFFSET:-11.451;
#SAMPLESTART:122.523;
#SAMPLELENGTH:17.279;
#SELECTABLE:YES;
#BPMS:0.000=95.000,32.000=190.000,128.000=47.500,144.000=95.000,175.000=190.001;
#STOPS:;
#BGCHANGES:;
// cache tags:
#FIRSTBEAT:0.000;
#LASTBEAT:305.500;
#SONGFILENAME:Songs/Definitive Keyboard Megapack/Life Light [KOMBO]/Life Light.sm;
#HASMUSIC:1;
#HASBANNER:1;
#MUSICLENGTH:147.443;
// end cache tags

//---------------dance-single - KOMBO----------------
#NOTES:
     dance-single:
     KOMBO:
     Hard:
     13:
     1.000,1.000,0.990,1.000,1.000,897.000,146.000,179.000,0.000,29.000:
1001
0100
1100
0000
0001
0001
1001
0000
,
1001
0000
0010
0000
0200
0300
0000
0000
1010
0000
0000
0000
0001
0000
0000
0000
,
1001
0100
1100
0000
0001
0001
1001
0000
,
1001
0000
0010
0000
0200
0300
0000
0000
1010
0000
0000
0000
0002
0000
0000
0000
,
1003
0100
1100
0000
0001
0001
1001
0000
,
1001
0000
0010
0000
0200
0300
0000
0000
1010
0000
0000
0000
0001
0000
0000
0000
,
0020
0000
0100
0000
2030
0001
0001
0000
,
3020
1000
0000
2030
,
3001
0100
0001
0100
0001
0100
0001
0100
,
0010
1000
0010
1000
0010
1000
0010
1000
,
0100
0010
0100
0010
0100
0010
0100
0010
,
0100
0010
0100
0010
0001
0100
1000
0001
,
1000
0010
1000
0010
1000
0010
1000
0010
,
0100
0001
0100
0001
0100
0001
0100
0001
,
0010
0100
0010
0100
0010
0100
0010
0100
,
0020
0000
0000
0000
0000
0000
0000
0000
0000
0000
0000
0000
0000
0000
0000
0000
0000
0000
0000
0000
0000
0000
0000
0000
0000
0000
0000
0000
0000
0000
0000
0000
0000
0000
0000
0000
0000
0000
0000
0000
0000
0000
0000
0000
0000
0000
0000
0000
0000
0000
0000
0000
0000
0000
0000
0000
0000
0000
0000
0000
0000
0000
0000
0000
0000
0000
0000
0000
0000
0000
0000
0000
0000
0000
0000
0000
0000
0000
0000
0000
0000
0000
0000
0000
0000
0000
0000
0000
0000
0000
0000
0000
0000
0000
0000
0000
2032
0000
0000
0000
0000
0000
0000
0000
0000
0000
0000
0000
0000
0000
0000
0000
0000
0000
0000
0000
0000
0000
0000
0000
0000
0000
0000
0000
0000
0000
0000
0000
0000
0000
0000
0000
0000
0000
0000
0000
0000
0000
0000
0000
0000
0000
0000
3003
2002
0000
0000
0000
0000
0000
0000
0000
0000
0000
0000
0000
0000
0000
0000
0000
0000
0000
0000
0000
0000
0000
0000
0000
0000
0000
0000
0000
0000
0000
0000
0000
0000
0000
0000
0000
0000
0000
0000
0000
0000
0000
0000
0000
0000
0000
0000
3003
,
1001
0100
0010
0100
0001
1000
0100
0010
,
0001
0010
0100
1000
0100
0001
1000
0001
,
0100
0010
0100
0001
0010
0001
0100
0010
,
0200
0001
2300
0001
3200
1000
0320
1000
,
1031
0010
0100
0010
1000
0001
0010
0100
,
1000
0100
0010
0001
0010
1000
0001
1000
,
0010
0100
0010
1000
0100
1000
0010
0100
,
0020
1000
0032
1000
0023
0001
0230
0001
,
1301
0100
0010
0100
0001
1000
0100
0010
,
0001
0010
0100
1000
0100
0001
1000
0001
,
0100
0010
0100
0001
0010
0001
0100
0010
,
0200
0001
2300
0001
3200
1000
0320
1000
,
1031
0010
0100
0001
1000
0010
1000
0001
0100
0001
0010
1000
0010
0100
0001
0100
,
1010
0100
0001
1000
0010
0100
0001
1000
0100
1000
0010
0001
0010
1000
0100
1000
,
0110
0001
0010
0100
1000
0100
1000
0100
0011
1000
0001
1000
0001
0010
0100
1000
,
0011
0100
0011
0000
0011
0100
0011
0000
1100
0000
0110
0001
1100
0000
0110
0000
,
0200
0010
1000
0010
1000
0010
1000
0002
0320
0003
1000
0001
0100
1000
0001
1000
2030
0100
0010
0100
0010
0100
0010
0200
3002
0300
1000
0100
1023
0001
0230
0001
,
2300
0010
0100
0010
0100
0010
0001
0020
0000
0031
0010
0001
3210
1000
0010
1000
0320
0001
0100
0001
0100
0001
0100
0002
2030
0003
0010
0100
0020
0000
0031
0010
,
3001
1000
0001
1000
0020
0030
1000
0001
1000
0001
0020
0030
1000
0001
1000
0001
0020
0030
1000
0001
1000
0020
0000
0030
1000
0001
1000
0020
0030
1000
0001
1000
,
0010
0100
0010
0100
0010
0100
0010
0200
0000
1300
0010
1000
0001
0010
0001
0100
0010
0100
0010
0100
0010
0100
0010
0200
0000
0301
0010
0100
1000
0000
0100
0010
,
1001
0100
0010
0001
0010
0100
0001
0020
0000
0031
0100
0010
0001
1000
0100
1000
,
0001
0010
0100
1000
0100
0010
1000
0200
0000
0310
0100
0010
0100
0001
0010
0001
,
1000
0100
0010
0001
0010
0100
0001
0020
0000
1030
0100
1000
0010
0001
0010
0100
,
0001
0010
0100
1000
0100
0010
1000
0200
0000
0310
0100
1000
0020
0000
1000
0100
,
1031
0010
0100
1000
0200
0300
1000
0100
0010
0001
0020
0030
0200
0010
1000
0010
,
1301
0000
0100
0010
0100
1000
0200
0300
0010
0100
0010
2000
3200
0010
0001
0010
,
1301
0100
0010
0100
0001
1000
0001
0010
0100
1000
0100
0010
0001
1000
0100
1000
0011
0100
0010
1000
0001
1000
0001
1000
0001
0010
0100
0010
0001
1000
0100
0010
,
1100
0001
0010
0100
0010
0001
0100
0010
1001
0100
0010
0001
1000
0001
1000
0100
0000
0000
0011
0000
1100
0000
0011
0000
1100
0000
0000
0000
0000
0000
0000
0000
,
2002
3003
0000
0000
0001
0000
0001
0000
0020
0000
0000
0000
0130
0000
0000
0000
2001
0000
0000
0000
3010
0000
0000
0000
0200
0000
0001
0000
0310
0000
0000
0000
,
0021
0000
0230
0000
1300
0001
0020
0000
2031
0000
3020
0000
2030
0001
3010
0000
,
2002
3003
0101
0000
2010
0001
3100
0000
0210
0000
1300
0000
0002
0100
1003
0000
,
2010
0000
3002
0000
0103
0010
2000
0000
3210
0000
2300
0000
3201
0010
1301
0000
,
2002
3003
0110
0000
1002
0000
0103
0000
0120
0000
0031
0000
2000
0001
3010
0000
,
0102
0000
2003
0000
3010
1000
0002
0000
0123
0000
0032
0000
0023
1000
0031
0000
,
2002
3003
0110
0000
0200
0010
1300
0000
1002
0000
0103
0000
0020
0001
0130
0000
,
1200
0000
0320
0000
0031
1000
0200
0000
1302
0000
0213
0000
0302
0010
0103
0000
,
0220
0330
0002
0100
2013
0000
3002
0000
2003
0000
3200
0000
0302
0010
1003
0000
,
1200
0000
0302
0000
2003
0010
3200
0000
2310
0000
3100
0000
2000
0010
3200
0000
,
2302
3003
0020
0000
0230
0001
0310
0000
2010
0000
3002
0000
0203
1000
0320
0000
,
0001
0000
1000
0000
0230
0001
0320
0000
2031
0000
3020
0000
0001
0100
2030
3000
,
2002
3003
2010
0000
3210
1000
0302
0000
1203
0000
0302
0000
2003
0001
3020
0000
,
0132
0000
2003
0000
0001
0100
3002
0000
0123
0000
0032
0000
0023
1000
0031
0000
,
2002
3003
1001
0000
1010
0100
0010
0100
0010
0001
0010
0001
0010
0100
0010
0100
,
1000
0100
1000
0100
1000
0010
1000
0010
0100
0001
0100
0001
1100
0001
0110
1000
,
0011
0000
1000
0000
0101
0000
1000
0000
0011
0000
0100
0000
0010
0000
0100
0000
2002
3003
0010
0000
0100
0000
0001
0000
0010
0000
0001
0000
0100
0000
0010
0000
,
2002
3003
0010
0000
0100
0000
1000
0000
0010
0000
0001
0000
0010
0000
0100
0000
2002
3003
0100
0000
0001
0000
1000
0000
0001
0000
0010
0000
0100
0000
1000
0000
,
2002
3003
0010
0000
1000
0000
0100
0000
0010
0000
0001
0000
0010
0000
0100
0000
2002
3003
0001
0000
0010
0000
0100
0000
0010
0000
1000
0000
0001
0000
0100
0000
,
2002
3003
0010
0000
0100
0000
0001
0000
1000
0000
0100
0000
1000
0000
0010
0000
2002
3003
0000
0000
0110
0000
0001
0000
2020
3030
0100
0000
1010
0000
0000
0000
,
2002
3003
0000
0000
1001
0000
0000
0000
1001
0000
0010
0000
0100
0000
0010
0000
2002
3003
0100
0000
0001
0000
1000
0000
0100
0000
0010
0000
0001
0000
0100
0000
,
2002
3003
0100
0000
0001
0000
1000
0000
0001
0000
0100
0000
0001
0000
0100
0000
2002
3003
0010
0000
0100
0000
1000
0000
0100
0000
0010
0000
0001
0000
0010
0000
,
2002
3003
0010
0000
1000
0000
0010
0000
0001
0000
0100
0000
0001
0000
0010
0000
2002
3003
0100
0000
0001
0000
1000
0000
0100
0000
0010
0000
0100
0000
0010
0000
,
2002
3003
0010
0000
1000
0000
0001
0000
0110
0000
0000
0000
0101
0000
0000
0000
0110
0000
0000
0000
1010
0000
0000
0000
1001
0000
0100
0000
0011
0000
0000
0000
,
1100
0011
1100
0011
1100
0000
0101
0000
0010
0000
1100
0000
0001
0000
0110
0000
,
1000
0101
0010
1001
0100
1010
0001
1100
,
0010
1001
0100
1010
0100
0011
1000
0101
,
0010
0000
1001
0000
0100
0000
0011
0000
1000
0000
0110
0000
0101
0010
0101
0000
,
1001
0000
1001
0000
1001
0100
0010
0100
0001
0010
0001
1000
0010
1000
0100
0010
,
0001
1000
0100
1000
0101
0010
0100
0010
0001
0010
0100
0010
0100
0010
1000
0100
,
0010
0100
1000
0000
1001
0100
0010
0001
0010
0100
0001
0100
0011
0100
0010
0100
,
1000
0010
0100
0001
1100
0001
0100
0010
0101
1000
0001
1000
0101
0010
0100
0010
,
1001
0100
0010
0100
2002
0000
3003
0000
0000
0000
0000
0000
0000
0000
0000
0000
;

//---------------dance-single - ----------------
#NOTES:
     dance-single:
     :
     Challenge:
     14:
     1.000,1.000,1.000,1.000,1.000,925.000,167.000,223.000,0.000,29.000:

1001
0100
1100
0000
0001
0001
1001
0000
,
1001
0000
0010
0000
0200
0300
0000
0000
1010
0000
0000
0000
0001
0000
0000
0000
,
1001
0100
1100
0000
0001
0001
1001
0000
,
1001
0000
0010
0000
0200
0300
0000
0000
1010
0000
0000
0000
0002
0000
0000
0000
,
1003
0100
1100
0000
0001
0001
1001
0000
,
1001
0000
0010
0000
0200
0300
0000
0000
1010
0000
0000
0000
0001
0000
0000
0000
,
0020
0000
0100
0000
2030
0001
0001
0000
,
3020
1000
0000
2030
,
3001
0100
0001
0100
0001
0100
0001
0100
,
0010
1000
0010
1000
0010
1000
0010
1000
,
0100
0010
0100
0010
0100
0010
0100
0010
,
0100
0010
0100
0010
0001
0100
1000
0001
,
1000
0010
1000
0010
1000
0010
1000
0010
,
0100
0001
0100
0001
0100
0001
0100
0001
,
0010
0100
0010
0100
0010
0100
0010
0100
,
0020
0000
0000
0000
0000
0000
0000
0000
0000
0000
0000
0000
0000
0000
0000
0000
0000
0000
0000
0000
0000
0000
0000
0000
0000
0000
0000
0000
0000
0000
0000
0000
0000
0000
0000
0000
0000
0000
0000
0000
0000
0000
0000
0000
0000
0000
0000
0000
0000
0000
0000
0000
0000
0000
0000
0000
0000
0000
0000
0000
0000
0000
0000
0000
0000
0000
0000
0000
0000
0000
0000
0000
0000
0000
0000
0000
0000
0000
0000
0000
0000
0000
0000
0000
0000
0000
0000
0000
0000
0000
0000
0000
0000
0000
0000
0000
2032
0000
0000
0000
0000
0000
0000
0000
0000
0000
0000
0000
0000
0000
0000
0000
0000
0000
0000
0000
0000
0000
0000
0000
0000
0000
0000
0000
0000
0000
0000
0000
0000
0000
0000
0000
0000
0000
0000
0000
0000
0000
0000
0000
0000
0000
0000
3003
2002
0000
0000
0000
0000
0000
0000
0000
0000
0000
0000
0000
0000
0000
0000
0000
0000
0000
0000
0000
0000
0000
0000
0000
0000
0000
0000
0000
0000
0000
0000
0000
0000
0000
0000
0000
0000
0000
0000
0000
0000
0000
0000
0000
0000
0000
0000
3003
,
1001
0100
0010
0100
0001
1000
0100
0010
,
0001
0010
0100
1000
0100
0001
1000
0001
,
0100
0010
0100
0001
0010
0001
0100
0010
,
0200
0001
2300
0001
3200
1000
0320
1000
,
1031
0010
0100
0010
1000
0001
0010
0100
,
1000
0100
0010
0001
0010
1000
0001
1000
,
0010
0100
0010
1000
0100
1000
0010
0100
,
0020
1000
0032
1000
0023
0001
0230
0001
,
1301
0100
0010
0100
0001
1000
0100
0010
,
0001
0010
0100
1000
0100
0001
1000
0001
,
0100
0010
0100
0001
0010
0001
0100
0010
,
0200
0001
2300
0001
3200
1000
0320
1000
,
1031
0010
0100
0001
1000
0010
1000
0001
0100
0001
0010
1000
0010
0100
0001
0100
,
1010
0100
0001
1000
0010
0100
0001
1000
0100
1000
0010
0001
0010
1000
0100
1000
,
0110
0001
0010
0100
1000
0100
1000
0100
0011
1000
0001
1000
0001
0010
0100
1000
,
0011
0100
0011
0000
0011
0100
0011
0000
1100
0000
0110
0001
1100
0000
0110
0000
,
0200
0010
1000
0010
1000
0010
1000
0002
0320
0003
1000
0001
0100
1000
0001
1000
2030
0100
0010
0100
0010
0100
0010
0200
3002
0300
1000
0100
1023
0001
0230
0001
,
2300
0010
0100
0010
0100
0010
0001
0020
0000
0031
0010
0001
3210
1000
0010
1000
0320
0001
0100
0001
0100
0001
0100
0002
2030
0003
0010
0100
0020
0000
0031
0010
,
3001
1000
0001
1000
0020
0030
1000
0001
1000
0001
0020
0030
1000
0001
1000
0001
0020
0030
1000
0001
1000
0020
0000
0030
1000
0001
1000
0020
0030
1000
0001
1000
,
0010
0100
0010
0100
0010
0100
0010
0200
0000
1300
0010
1000
0001
0010
0001
0100
0010
0100
0010
0100
0010
0100
0010
0200
0000
0301
0010
0100
1000
0000
0100
0010
,
1001
0100
0010
0001
0010
0100
0001
0020
0000
0031
0100
0010
0001
1000
0100
1000
,
0001
0010
0100
1000
0100
0010
1000
0200
0000
0310
0100
0010
0100
0001
0010
0001
,
1000
0100
0010
0001
0010
0100
0001
0020
0000
1030
0100
1000
0010
0001
0010
0100
,
0001
0010
0100
1000
0100
0010
1000
0200
0000
0310
0100
1000
0020
0000
1000
0100
,
1031
0010
0100
1000
0200
0300
1000
0100
0010
0001
0020
0030
0200
0010
1000
0010
,
1301
0000
0100
0010
0100
1000
0200
0300
0010
0100
0010
2000
3200
0010
0001
0010
,
1301
0100
0010
0100
0001
1000
0001
0010
0100
1000
0100
0010
0001
1000
0100
1000
0011
0100
0010
1000
0001
1000
0001
1000
0001
0010
0100
0010
0001
1000
0100
0010
,
1100
0001
0010
0100
0010
0001
0100
0010
1001
0100
0010
0001
1000
0001
1000
0100
0000
0000
0011
0000
1100
0000
0011
0000
1100
0000
0000
0000
0000
0000
0000
0000
,
2002
3003
0000
0000
0001
0000
0001
0000
0020
0000
0000
0000
0130
0000
0000
0000
2001
0000
0000
0000
3010
0000
0000
0000
0200
0000
0001
0000
0310
0000
0000
0000
,
0021
0000
0230
0000
1300
0001
0020
0000
2031
0000
3020
0000
2030
0001
3010
0000
,
2002
3003
0101
0000
2010
0001
3100
0000
0210
0000
1300
0000
0002
0100
1003
0000
,
2010
0000
3002
0000
0103
0010
2000
0000
3210
0000
2300
0000
3201
0010
1301
0000
,
2002
3003
0110
0000
1002
0000
0103
0000
0120
0000
0031
0000
2000
0001
3010
0000
,
0102
0000
2003
0000
3010
1000
0002
0000
0123
0000
0032
0000
0023
1000
0031
0000
,
2002
3003
0110
0000
0200
0010
1300
0000
1002
0000
0103
0000
0020
0001
0130
0000
,
1200
0000
0320
0000
0031
1000
0200
0000
1302
0000
0213
0000
0302
0010
0103
0000
,
0220
0330
0002
0100
2013
0000
3002
0000
2003
0000
3200
0000
0302
0010
1003
0000
,
1200
0000
0302
0000
2003
0010
3200
0000
2310
0000
3100
0000
2000
0010
3200
0000
,
2302
3003
0020
0000
0230
0001
0310
0000
2010
0000
3002
0000
0203
1000
0320
0000
,
0001
0000
1000
0000
0230
0001
0320
0000
2031
0000
3020
0000
0001
0100
2030
3000
,
2002
3003
2010
0000
3210
1000
0302
0000
1203
0000
0302
0000
2003
0001
3020
0000
,
0132
0000
2003
0000
0001
0100
3002
0000
0123
0000
0032
0000
0023
1000
0031
0000
,
2002
3003
1001
0000
1010
0100
0010
0100
0010
0001
0010
0001
0010
0100
0010
0100
,
1000
0100
1000
0100
1000
0010
1000
0010
0100
0001
0100
0001
1100
0001
0110
1000
,
0011
0000
1000
0000
0101
0000
1000
0000
0011
0000
0100
0000
0010
0000
0100
0000
2002
3003
0010
0000
0100
0000
0001
0000
1010
0000
0001
0000
1100
0000
0010
0000
,
2002
3003
0010
0000
0101
0000
1000
0000
0010
0000
0001
0000
1010
0000
0100
0000
2002
3003
0100
0000
0011
0000
1000
0000
0101
0000
0010
0000
0100
0000
1000
0000
,
2002
3003
0010
0000
1000
0000
0100
0000
1010
0000
0001
0000
0010
0000
0100
0000
2002
3003
0001
0000
0010
0000
0100
0000
0011
0000
1000
0000
0011
0000
0100
0000
,
2002
3003
0010
0000
1100
0000
0001
0000
1000
0000
0100
0000
1001
0000
0010
0000
2002
3003
0000
0000
0110
0000
0001
0000
2020
3030
0100
0000
1001
0000
0000
0000
,
2002
3003
0000
0000
1001
0000
0000
0000
1001
0000
0010
0000
0100
0000
0010
0000
2002
3003
0100
0000
0001
0000
1000
0000
0101
0000
0010
0000
1001
0000
0100
0000
,
2002
3003
0100
0000
0011
0000
1000
0000
0001
0000
0100
0000
0011
0000
0100
0000
2002
3003
0010
0000
0101
0000
0010
0000
1001
0000
0100
0000
0010
0000
0100
0000
,
2002
3003
0010
0000
1000
0000
0010
0000
1001
0000
0100
0000
0001
0000
0010
0000
2002
3003
0100
0000
0001
0000
1000
0000
0101
0000
0010
0000
1100
0000
0010
0000
,
2002
3003
0010
0000
1100
0000
0001
0000
0110
0000
0000
0000
0101
0000
0000
0000
0110
0000
0000
0000
1010
0000
0000
0000
1001
0000
0100
0000
0011
0000
0000
0000
,
1100
0000
0011
0000
1100
0000
0011
0000
1100
0000
0010
0000
0202
0303
1000
0000
0010
0000
0001
0000
2200
3300
0010
0000
0001
0000
1000
0000
0220
0330
0001
0000
,
1000
0000
0010
0000
0202
0303
1000
0000
0010
0000
0100
0000
2002
3003
0010
0000
0100
0000
0001
0000
2020
3030
0100
0000
0001
0000
0010
0000
2200
3300
0001
0000
,
0100
0000
0010
0000
2002
3003
0010
0000
0100
0000
0001
0000
2020
3030
0001
0000
1000
0000
0100
0000
0022
0033
0100
0000
1000
0000
0010
0000
0202
0303
1000
0000
,
0010
0000
0100
0000
2002
3003
0010
0000
0100
0000
1000
0000
0022
0033
0100
0000
0010
0000
1000
0000
0220
0330
1000
0000
0101
0000
0010
0000
0101
0000
0000
0000
,
1001
0000
0000
0000
1001
0000
0000
0000
1001
0000
0100
0000
0020
0030
0100
0000
0001
0000
0010
0000
0002
0003
1000
0000
0010
0000
1000
0000
0200
0300
0010
0000
,
0001
0000
1000
0000
0200
0300
1000
0000
0101
0000
0010
0000
0200
0300
0010
0000
0001
0000
0010
0000
0200
0300
0010
0000
0100
0000
0010
0000
2000
3000
0100
0000
,
0010
0000
0100
0000
2000
3000
0000
0000
1001
0000
0100
0000
0020
0030
0001
0000
0010
0000
0100
0000
0002
0003
0100
0000
0011
0000
0100
0000
0020
0030
0100
0000
,
1000
0000
0010
0000
0200
0300
0001
0000
1100
0000
0001
0000
0200
0300
0010
0000
0101
0000
1000
0000
0002
0003
1000
0000
0101
0000
0010
0000
0200
0300
0010
0000
,
1001
0000
0100
0000
0020
0030
0100
0000
2002
0000
0000
0000
3003
0000
0000
0000
0000
0000
0000
0000
0000
0000
0000
0000
0000
0000
0000
0000
0000
0000
0000
0000
;
