#TITLE:Tokyo Style Speedcore;
#SUBTITLE:(Fenix Style);
#ARTIST:M1DY;
#TITLETRANSLIT:;
#SUBTITLETRANSLIT:;
#ARTISTTRANSLIT:;
#CREDIT:;
#BANNER:Tokyo Style Speedcore-bn.PNG;
#BACKGROUND:Tokyo Style Speedcore-bg.JPG;
#LYRICSPATH:;
#CDTITLE:Fenix.bmp;
#MUSIC:Techno - m1dy - Tokyo Style Speedcore [BPM400 speedcore] GABBER HARDCORE.mp3;
#OFFSET:-0.390;
#SAMPLESTART:37.890;
#SAMPLELENGTH:15.000;
#SELECTABLE:YES;
#BPMS:0.000=226.001,162.750=200.001,163.000=180.001,163.250=160.001,163.500=140.001,163.750=120.001,164.000=100.001,164.250=226.001;
#STOPS:164.250=1.240
,184.250=0.200
,383.500=0.100
;
#BGCHANGES:;
// cache tags:
#FIRSTBEAT:0.000;
#LASTBEAT:472.000;
#SONGFILENAME:Songs/new again/Tokyo Style Speedcore(Fenix Style)/Tokyo Style Speedcore(Fenix Style).sm;
#HASMUSIC:1;
#HASBANNER:1;
#MUSICLENGTH:128.931;
// end cache tags

//---------------dance-single - ----------------
#NOTES:
     dance-single:
     :
     Challenge:
     14:
     1.000,1.000,1.000,0.419,0.438,899.000,425.000,54.000,68.000,4.000:
1000
0011
1000
0000
1000
0000
0100
0000
0001
0000
0010
0000
0100
0000
1000
0000
,
0001
0000
0010
0000
1000
0000
0010
0000
0001
0000
0100
0000
1000
0000
0010
1001
,
0100
1000
0010
0001
0100
1000
0010
0001
,
0010
0000
1000
0000
0100
0000
0001
0000
0000
0110
0000
0110
0010
0100
0010
0100
,
0010
0100
0010
1001
0000
0000
1100
0000
0000
0000
0110
0000
0000
0000
1001
0000
,
1001
0110
0110
1100
1100
0000
0110
0000
,
0101
0000
0000
0000
0101
0000
0000
0100
1010
0001
1001
0000
0000
0000
1010
0000
,
0000
1100
1100
0010
0110
0100
0101
0101
,
0011
0000
0000
0101
0000
0101
0001
0100
0001
0100
0001
0100
0001
0100
1001
0000
,
0000
1100
0000
0110
0101
0101
1001
1001
,
0110
0110
1100
1100
0000
1010
0000
1100
,
0000
0100
0010
0001
0000
0000
1100
0000
0000
0000
0010
0000
0110
0000
0100
0000
,
1001
0000
0000
1001
0000
0000
0110
0000
0000
1100
0000
0000
0000
0000
0000
0000
0000
0000
0000
1000
0100
0010
0001
1000
,
0100
0010
0001
1000
0100
0010
0001
1000
0100
0010
0001
0000
2000
0000
0000
0000
0000
0000
0000
0000
0000
0000
0000
0000
,
0200
0000
0000
0000
,
0000
0000
0000
0000
3300
0110
0011
1100
,
0110
1100
0101
1010
0110
1001
0011
0000
,
0011
0000
0011
1000
0011
0000
1100
0000
0110
0000
0011
0000
1100
0000
0011
0000
,
1010
0101
1001
0110
1100
0011
0110
1010
,
0101
0000
0110
0000
0011
0000
1100
0001
1100
0000
0110
0000
0011
0000
0001
1100
,
0001
0000
1100
0000
0011
0000
1100
0000
0011
0000
0001
0110
0001
0000
1100
0000
,
0110
0101
1100
0011
1010
0101
0110
1100
,
0101
1010
0110
1001
0011
1100
0110
1001
,
0110
0000
0000
0000
1100
0000
0000
0000
0110
0000
0000
0000
0101
0000
0000
0000
1010
0000
0000
0000
0101
0000
0000
0000
0220
0330
0000
0000
2200
3300
0000
0000
,
0220
0330
0000
0000
0022
0033
0000
0000
0010
0000
0100
0000
1000
0000
0100
0000
0010
0000
0001
0000
1000
0000
0000
0000
0100
0000
0000
0000
0001
0000
0000
0000
,
0010
0000
0100
0000
0010
0000
1000
0000
0001
0000
0100
0000
0000
1000
1001
0001
,
1100
0000
1100
0000
0011
0000
1000
0110
0001
0000
1000
0000
0100
0000
0010
0000
,
1000
0010
0001
0010
1000
0100
0001
0100
,
0010
0000
1100
0010
0011
0000
0010
0000
1001
0000
1000
0001
1000
0001
1000
0000
,
1001
0000
0010
0100
0010
0100
0010
0100
0110
0000
1000
0100
1000
0100
1100
0000
,
1000
0000
0100
0000
0010
0000
1000
0000
0001
0000
0010
0000
1000
0000
0010
1100
,
0001
0000
1000
0000
0100
0000
0001
0000
0000
0010
1100
0010
0000
0000
1100
0000
,
0011
0000
1000
0110
1000
0000
1100
0000
0011
0000
0000
0010
0101
0010
0000
0000
,
1000
0000
0000
0100
0000
0000
0010
0000
0000
0000
1000
0001
1000
0001
1000
0001
1000
0001
1000
0001
1000
0001
1000
0001
,
0000
1001
1001
1001
1001
1001
1001
1001
,
1001
1001
1001
1001
1001
1010
1010
1010
,
1010
1010
1010
1010
1010
1010
1010
1010
,
1010
1100
1100
1100
1100
1100
1100
1100
,
1100
0000
2002
0000
0000
3003
0220
0000
0000
0000
0000
0330
2200
0000
0000
0000
,
0000
3300
0220
0000
0000
0000
0000
0330
0022
0000
0000
0000
0000
0000
0000
0033
,
0220
0000
0000
0000
0000
0000
0000
0000
0000
0330
2200
0000
0000
0000
0000
0000
,
0000
0000
0000
3300
0000
0000
1000
0000
0001
0000
1000
0000
0001
0000
1000
0000
0001
0000
1000
0000
0001
0000
1000
0000
0001
0000
1000
0000
0000
0000
1000
0000
0000
0000
0000
0000
0000
0000
0000
0000
0000
0000
0100
0000
0000
0000
0000
0000
,
0100
1010
0010
0010
0100
1000
0000
0001
,
0001
0001
0100
1010
1100
0010
0000
0010
,
0010
1000
0100
0010
0001
0010
0001
0001
,
0000
0000
0001
0000
0110
0000
1000
0100
0001
0000
0100
0000
0020
0030
0220
0330
,
0020
0032
0003
0000
0000
0000
1100
0000
0100
0000
0010
0000
0001
0000
0100
0000
,
0010
1000
0100
0100
0010
0001
0100
0010
,
1000
0100
0100
1000
0010
0100
0001
0010
,
0001
0000
0001
0001
0110
1000
0100
0010
,
0001
0100
1010
0001
0001
1000
0100
0010
,
0001
0000
0110
0000
0010
0010
1000
0100
,
0010
0001
0110
1000
0100
0100
0100
1000
,
0100
0010
0001
0110
0010
0000
1000
0110
,
0001
0000
0100
0000
0010
0000
1100
0000
0000
0000
0100
0000
0100
0010
0001
0010
,
0100
1001
1001
1001
1001
0110
1001
1001
,
1001
0110
1001
1001
1001
1001
1010
1100
,
1010
1100
1100
1100
1100
1100
1100
0110
,
1100
0110
1100
1100
1100
1100
1100
0110
,
0011
0000
0001
1000
0001
1000
0001
1000
0001
1000
0001
0000
0000
0000
1100
0000
,
1100
1100
1010
1100
1100
1100
1010
1001
,
1001
1001
1001
0110
1001
1001
0110
0101
,
0101
0101
0101
1010
0101
1010
1001
1001
,
1001
0000
1001
0000
1001
0000
1001
0000
1001
0000
0110
0000
1001
0000
1000
0001
,
1000
0001
1000
0001
1000
0001
1000
0000
0100
0000
1000
0000
0010
0000
0000
0000
,
0010
0010
1000
0001
0100
0010
1000
0000
,
1100
0000
0011
0000
0000
0001
0000
0100
,
0000
0010
0010
0000
1000
0100
0010
0001
,
0100
0000
0101
0000
0011
0000
0000
0001
,
0000
0000
1000
0000
0010
0010
1000
0100
,
1000
0000
0010
0100
0001
0011
0000
0101
,
0000
0001
0000
0000
1000
0010
0000
0010
,
1000
0000
0100
0000
0010
0000
0001
0000
0100
0000
0010
0000
0001
0010
0100
1000
,
0100
0010
0001
0000
0000
0000
0101
0000
1010
0000
0101
0000
1010
0000
0101
0000
,
1010
0101
1010
0101
1010
0101
1010
0101
,
1010
0000
0101
0000
1010
0000
0101
0000
1001
0010
1001
0000
1100
0000
0011
0000
,
1100
0011
1100
0011
1100
0011
1100
0011
,
1100
0000
0011
0000
1100
0000
0011
0000
1100
0000
0011
0100
1100
0000
1001
0000
,
0110
1001
0110
1001
0110
1001
0110
1001
,
0110
1001
0110
1001
0110
1001
0110
1001
,
0110
0000
1001
0110
1001
0000
1100
0000
0110
0000
0011
0000
1001
0000
1010
0000
,
0101
0110
1100
0011
0101
1010
1001
0110
,
1002
0000
0000
0000
0000
0000
0100
1000
0100
1000
0100
1000
0120
0000
0000
0000
0000
0000
0000
0000
0000
0000
0000
0000
,
0000
0033
1000
0100
0001
0010
0100
1000
,
0100
0000
0001
0000
0010
0000
0100
0000
1000
0000
0001
1000
0001
0000
1010
0000
,
0011
0000
1000
0010
1000
0000
1100
0000
0011
0000
1000
0100
1000
0100
1000
0000
,
0110
0000
1100
0000
0010
0001
0010
0001
0010
0000
1001
0000
0100
0010
0100
0010
,
0100
2002
3003
2000
0000
3200
0000
0020
,
0300
0000
0002
0030
0200
0003
0000
0320
,
0000
2030
0000
0200
3000
0000
0320
0000
,
0002
0030
0203
0000
0020
0300
0030
2000
,
0000
0200
3000
0320
0030
11MM
11MM
1M1M
,
1M1M
11MM
11MM
M11M
M11M
MM11
MM11
11MM
,
11MM
MM11
MM11
1MM1
1MM1
M11M
M11M
11MM
,
11MM
M1M1
M1M1
1M1M
1M1M
M11M
M11M
11MM
,
11MM
0000
M11M
0000
M11M
0000
MM11
0000
MM11
0000
M1M1
0000
M1M1
0000
2020
3030
,
0001
1000
1100
0100
0100
0010
1010
0001
,
0101
0001
0100
0010
0010
0010
1000
0100
,
0100
0100
0010
0001
0001
0001
0001
0100
,
0010
0010
0010
1000
0100
0100
0010
0010
,
0001
0000
0001
0000
0001
0000
1001
0010
1001
0000
0010
0000
1000
0000
0100
0000
,
0100
1000
0010
0010
0010
0100
0001
0001
,
1000
0010
0110
0010
1000
0100
0100
0100
,
1000
0010
0010
0010
0100
0001
1000
0010
,
0100
1001
0010
0101
1000
0100
1001
0101
,
1000
0101
1000
0001
1100
0000
1010
0110
,
0110
0011
0011
1100
0101
0101
0110
0110
,
1100
0000
0011
0000
1001
0010
0100
0010
0000
0000
1100
0000
0000
0000
0110
0000
,
0000
0011
0011
0000
0110
0110
1000
1100
,
0110
0000
0110
0000
1001
0000
0101
0000
1000
0100
0110
0000
0000
0000
1100
0000
,
0000
0110
0000
0011
0011
0011
0110
0110
,
1100
0000
1100
0000
0110
0000
0000
0000
1001
0000
0000
0000
0110
0000
0010
1100
,
0001
1001
0100
0010
0100
0001
1001
1000
,
0110
0000
0000
1100
0000
0000
0100
0000
0000
1010
0000
0000
0100
0000
0000
1001
0000
0000
1000
0100
0010
0001
1000
0100
,
0010
0001
1000
0100
0010
0001
0000
0000
0000
0200
0000
0000
0000
0000
0000
0000
0000
0000
0000
0000
0000
0000
0000
0000
,
0000
2000
0000
0000
0000
0000
0002
0000
,
0000
0300
0000
0000
,
0023
0000
0000
3030
,
1111
0000
0000
0000
;
