#TITLE:the shadow;
#SUBTITLE:;
#ARTIST:kors k;
#TITLETRANSLIT:;
#SUBTITLETRANSLIT:;
#ARTISTTRANSLIT:;
#CREDIT:;
#BANNER:the shadow-bn.png;
#BACKGROUND:the shadow-bg.png;
#LYRICSPATH:;
#CDTITLE:Type MARS.png;
#MUSIC:The Shadow.mp3;
#OFFSET:-0.460;
#SAMPLESTART:101.960;
#SAMPLELENGTH:12.260;
#SELECTABLE:YES;
#BPMS:0.000=156.000,63.000=312.000,63.500=156.000,63.750=78.000,64.000=156.000,125.000=117.000,125.750=78.000,126.250=58.500,126.438=168.500,127.000=156.000,166.000=312.000,166.500=156.000,166.750=78.000,167.000=156.000,191.000=78.000,207.250=156.000,207.500=312.000,208.000=156.000,211.000=78.000,211.250=156.000,211.500=312.000,212.000=156.000,215.000=78.000,215.250=156.000,215.500=312.000,216.000=156.000,219.000=78.000,219.250=156.000,219.500=312.000,220.000=156.000,223.000=78.000,223.250=156.000,223.500=312.000,224.000=156.000,243.000=78.000,244.000=156.000,277.000=312.000,277.500=156.000,277.750=78.000,278.000=156.000,313.000=78.000,313.250=156.000,313.500=312.000,314.000=156.000;
#STOPS:;
#BGCHANGES:;
// cache tags:
#FIRSTBEAT:0.000;
#LASTBEAT:314.000;
#SONGFILENAME:Songs/Definitive Keyboard Megapack/The Shadow(typeMARS)/The Shadow.sm;
#HASMUSIC:1;
#HASBANNER:1;
#MUSICLENGTH:131.116;
// end cache tags

//---------------dance-single - ----------------
#NOTES:
     dance-single:
     :
     Hard:
     13:
     1.000,1.000,0.946,0.725,1.000,1029.000,124.000,95.000,0.000,6.000:

1001
0000
0010
1000
0100
0000
0110
0000
0101
0000
0010
0001
0100
0000
1010
0000
,
0202
0303
0000
2020
3030
0000
2002
3003
0000
0101
0010
0101
0010
0000
0100
0000
,
1000
0000
0000
0000
0000
0000
0001
0000
0000
0100
0000
0000
0010
0000
0000
0000
0000
0000
1000
0000
0000
0000
0000
0000
0001
0000
0000
0000
0000
0000
0100
0000
0000
0010
0000
0000
1000
0000
0100
0000
0010
0000
0001
0000
0010
0000
0100
0000
,
1000
0000
0001
0000
1000
0000
0001
0000
0000
1001
0000
0000
0100
0000
0000
1001
0000
0000
0010
0000
0000
1001
0000
0000
,
1001
0000
0000
0000
0000
0000
0010
0000
0000
1000
0000
0000
0001
0000
0000
0000
0000
0000
0110
0000
0000
0000
0000
0000
0101
0000
0000
0000
0000
0000
0010
0000
0000
1000
0000
0000
0001
0000
0010
0000
0100
0000
1000
0000
0100
0000
0010
0000
,
2002
3003
0000
0202
0303
0000
2002
3003
0000
0010
1100
0010
0101
0000
0010
0000
,
1001
0000
0010
0001
0110
0000
0100
0000
0101
0000
1000
0010
1100
0000
0100
0000
,
1001
0000
0000
0000
0000
0000
0000
0000
1001
0000
0000
0000
0000
0000
0000
0000
1001
0000
0000
0000
1001
0000
0000
0000
0001
0000
0010
0000
0001
0010
0100
1000
,
0001
1000
0010
0100
0001
0100
0010
0100
1000
0001
0100
0010
0001
0100
0010
1000
,
0100
0010
0001
0010
0100
0010
0001
0100
1000
0100
0001
0010
0100
1000
0010
0100
,
0001
0100
2000
0100
3010
0002
0100
1003
0200
0010
0301
2000
0010
3100
0002
0000
,
1003
0001
1000
0001
0100
0001
0100
0001
1000
0010
0001
0100
0020
0000
0100
0000
,
2030
0001
0100
0010
0001
0100
0010
0100
0001
0010
0100
0010
0100
0010
0001
0100
,
3010
0001
1000
0100
0010
0001
0100
0010
0100
1000
0010
0100
0001
0010
2000
0100
,
3001
0000
0010
0000
2000
0000
0100
0000
3010
0000
0002
0000
0010
0000
0103
0000
2000
0000
0010
0000
3100
0000
0002
0000
0010
0000
0103
0000
2000
0100
0010
0001
,
3100
0010
1000
0100
0001
0100
0001
0100
1000
0010
0100
0001
2000
0000
0000
0000
,
3001
0010
0001
0100
0010
1000
0100
1000
0010
0001
0100
0010
1000
0001
0100
0010
,
0100
1000
0001
0100
0010
0001
0100
0010
1000
0100
1000
0010
0202
0303
2002
3003
,
0010
1000
0002
0100
1003
0020
0100
0031
2000
0010
3001
2000
0100
3010
0002
0000
,
1003
0001
0100
0001
0010
1000
0010
0100
0001
0100
1000
0010
0200
0000
0001
0000
,
0320
0000
0000
0000
1030
0001
0100
0010
1000
0001
0100
0010
0001
0100
0010
1000
,
0100
1000
0010
0100
0001
0100
1000
0010
0100
0001
0010
0100
2000
0000
3020
0000
,
0130
1000
0002
0100
0013
2000
0010
3100
0002
0010
0103
2000
0100
3010
0200
0000
,
0302
1000
0100
0010
0100
1000
0010
0100
1003
0100
0010
0001
0200
0000
0000
0000
,
0310
0000
0001
1000
0001
0000
0100
0000
0010
0000
1000
0001
0100
0000
1100
0011
,
1100
0000
0010
0001
0100
0000
1010
0000
0100
0000
1001
0000
0010
0000
0001
0000
,
1001
0000
0000
0000
0010
0000
0101
0000
1000
0000
0000
0000
0010
0000
0000
0000
0100
0000
0000
0000
0001
0000
0100
0000
1000
0000
0000
0000
0001
0010
0100
1000
,
0011
0000
0100
1000
0001
0000
1100
0000
0010
0000
0110
0000
0001
0000
1100
0000
,
1001
0000
0010
0101
0010
0000
1100
0000
1001
0000
0010
1100
0010
0000
1001
0000
,
0101
0000
0010
1001
0010
0000
0110
0000
0101
0000
1010
0100
1010
0000
0101
0000
,
1001
0101
1001
0101
1001
1100
1001
1100
,
0001
0000
0000
0000
1000
0000
0000
0000
0001
0000
0000
0000
1000
0000
0000
0000
0001
0000
0000
1000
0000
0000
0001
0000
0000
1000
0000
0000
0001
0000
1000
0000
0001
0000
1000
0000
0002
0000
0000
0000
0000
0000
0000
0000
0000
0000
0000
0000
1003
0000
0000
0000
0010
0000
0000
0000
0100
0000
0000
0000
0001
0000
0000
0000
,
0100
0010
1000
0100
0010
0001
0100
0010
0100
0010
0001
0100
1000
0010
0100
0001
,
0100
1000
0010
0100
0001
0100
1000
0010
0100
0001
0100
1000
0001
0100
0010
0100
,
1000
0001
0100
0010
0001
0100
0010
1000
0100
0010
0001
0100
0010
0001
0010
0001
,
1000
0010
1000
0010
0100
0001
0010
0100
2000
0000
0001
0000
3002
0010
0100
0010
,
0100
1000
0010
0100
1000
0010
0100
0010
0100
1000
0100
0010
0103
1000
0001
0100
,
0010
0100
0001
1000
0010
0100
0001
1000
0010
0100
0010
1000
0001
0010
0100
0010
,
0001
0100
0010
1000
0100
1000
0010
0100
0001
0100
0010
1000
0101
0000
1010
0101
,
0000
1100
0011
1100
0011
1000
0001
0100
0020
0000
1000
0000
1030
0001
1000
0000
,
0010
0001
0000
0100
0010
0000
1000
0100
1000
0010
0100
0001
0100
0010
1000
0000
,
0100
0001
0000
0100
1000
0010
0100
0001
2000
0000
0000
0000
3001
0010
0001
0000
,
0100
0010
0000
1000
0100
0000
1000
0010
0001
0100
0010
1000
0100
0010
0001
0000
,
0100
0010
0000
0100
0010
0000
0001
1000
0001
0100
0010
1000
0001
0000
0010
1000
,
0001
0000
0000
0000
0100
0000
0000
0000
0010
0000
0000
0000
1000
0000
0000
0000
0100
0000
0000
0000
0001
0010
0100
1000
0001
0010
0100
1000
0100
0010
0001
0010
,
0100
0000
1000
0001
0100
0000
0010
0000
0100
0000
0001
0000
1000
0010
1000
0010
,
0100
0001
0100
0001
0010
1000
0100
0001
0100
1000
0010
0001
0100
0010
0001
0100
,
1000
0000
0010
0000
0100
0000
0001
0000
0100
0000
0010
0000
1000
0000
0100
0000
0010
0000
0001
0000
0010
0000
0100
0000
1001
0000
0000
0020
0100
0000
1030
0000
,
0001
0000
0000
0210
0000
0000
0312
0000
0100
2003
0000
0000
3120
0000
0000
0030
0001
0000
0010
0200
0001
0000
2310
0000
0100
3002
0010
0000
1203
0000
0010
0300
,
0001
0000
0000
0000
0000
0000
0000
0000
0000
0000
0000
0000
0000
0000
0000
0000
0000
0000
0102
0000
0000
0000
0000
0000
0000
0000
0000
0000
0000
0000
0000
0000
0000
0000
0000
0000
1203
0000
0000
0000
0000
0000
0000
0000
0000
0000
0000
0000
0001
0000
0000
0000
0010
0000
0300
0000
1000
0000
0000
0000
0002
0000
0000
0000
0000
0000
0000
0000
0000
0000
0000
0000
1000
0000
0000
0000
0000
0000
0003
0000
0000
0000
0000
0000
0100
0000
0000
0000
0000
0000
0000
0000
0000
0000
0000
0000
0010
0000
0000
0000
0000
0000
0100
0000
0000
0000
0000
0000
1010
0000
0000
0000
0000
0000
0002
0000
0000
0000
0000
0000
0010
0000
0000
0000
0000
0000
2003
0000
0000
0000
0000
0000
0100
0000
0000
0000
0000
0000
3020
0000
0000
0000
0000
0000
0001
0000
0000
0000
0000
0000
0230
0000
0000
0000
0000
0000
0000
0000
0000
0000
0000
0000
1000
0000
0000
0000
0000
0000
0302
0000
0000
0000
0000
0000
0000
0000
0000
0000
0000
0000
0100
0000
0000
0000
0000
0000
0003
0000
0000
0000
0000
0000
,
0010
0000
0000
2100
0000
0000
3012
0000
0000
0203
0000
0000
2300
0000
0010
3000
0100
0000
0001
2000
0100
0000
3020
0001
1000
0230
0000
0000
0302
0000
0000
0003
,
0010
0000
0000
0000
0000
0000
0000
0000
0000
0000
0000
0000
1000
0000
0000
0000
0000
0000
0002
0000
0000
0000
0000
0000
0000
0000
0000
0000
0000
0000
0000
0000
0000
0000
0000
0000
0203
0000
0000
0000
0000
0000
0000
0000
0000
0000
0000
0000
0301
0000
0000
0000
0010
0000
0000
0000
0100
0000
0000
0000
1000
0000
0000
0000
0000
0000
0000
0000
0000
0000
0000
0000
0001
0000
0000
0000
0000
0000
0000
0000
0000
0000
0000
0000
0100
0000
0000
0000
0000
0000
0000
0000
0000
0000
0000
0000
0010
0000
0000
0000
0000
0000
0000
0000
0000
0000
0000
0000
1000
0000
0000
0000
0000
0000
0001
0000
0000
0000
0000
0000
0000
0000
0000
0000
0000
0000
0001
0000
0000
0000
0000
0000
0010
0000
0000
0100
0000
0000
1000
0000
0000
0001
0000
0000
0020
0000
0000
0000
0000
0000
1000
0000
0000
0000
0000
0000
0100
0000
0000
0000
0000
0000
0000
0000
0000
0000
0000
0000
0000
0000
0000
0000
0000
0000
0000
0000
0000
0000
0000
0000
0000
0000
0000
0000
0000
0000
0000
0000
0000
0000
0000
0000
,
0130
0000
0000
0000
1000
0000
0001
0000
0100
0000
0000
0000
0010
0000
1000
0000
0100
0000
0000
0000
0001
0000
1000
0000
0020
1000
0100
0000
0000
0000
0000
0000
,
0130
0000
0000
0000
0001
0000
0100
0000
1000
0000
0000
0000
0010
0000
0100
0000
0001
0000
0000
0000
1000
0000
0001
0000
0200
0001
0010
0000
0000
0000
0000
0000
,
1300
0000
0000
0000
0010
0000
0001
0000
1000
0000
0000
0000
0010
0000
1000
0000
0100
0000
0000
0000
0001
0000
0100
0000
2000
0001
0100
0000
0000
0000
0000
0000
,
3001
0000
0000
0000
0010
0000
0001
0000
1000
0000
0000
0000
0010
0000
1000
0000
0100
0000
0000
0000
0001
0000
0100
0000
2000
0010
0100
0000
0000
0000
0000
0000
,
3001
0000
0010
0000
1000
0001
0100
0000
0110
0000
0001
0000
1000
0010
0100
0000
,
0101
0000
0010
0000
0100
0001
1000
0000
0110
0000
0001
0000
1001
0000
0100
0000
,
1100
0010
0110
0100
0101
0001
1001
1100
,
1010
0000
0000
0000
0000
0000
0101
0000
0000
0000
0000
0000
0110
0000
0000
0000
0000
0000
1001
0000
0000
0000
0000
0000
0220
0000
0000
0000
0000
0000
0000
0000
0000
0330
0000
0000
1100
0000
0000
0000
0011
0000
0000
0000
1100
0000
0000
0000
,
0011
1001
0100
1001
0010
1001
1002
0000
,
0203
0000
0000
0000
0001
1000
0001
1000
0310
0001
1000
0000
0010
1000
0000
0100
,
0001
0100
1000
0000
0010
0100
0000
0001
0100
1000
0010
0100
0001
0000
0010
0000
,
0001
0100
0010
0000
1000
0100
0010
0001
0100
0010
1000
0100
0010
0000
0001
0100
,
0010
0000
0000
0000
0000
0000
0001
0000
0000
0100
0000
0000
1000
0000
0000
0010
0000
0000
0100
0000
0000
0001
0000
0000
1000
0000
0100
0000
0010
0000
0001
0000
0010
0000
0100
0000
1000
0000
0000
0100
0000
0000
0001
0000
0000
0000
0000
0000
,
1000
0010
0100
0001
0100
1000
0010
0100
0001
0010
0000
0100
1000
0000
0010
0100
,
0001
0010
0001
0100
0010
1000
0100
1000
0010
0100
0001
0010
0100
0000
0001
0100
,
0010
0000
1000
0100
1000
0010
0100
0001
0110
0000
1001
0000
0101
0000
1100
0000
,
0011
1100
0011
1100
0011
1100
0011
1100
0001
0000
0100
1000
0001
0000
0100
0010
,
1000
0100
0010
0001
0200
0000
0000
0010
0301
1000
0001
0000
0010
1000
0001
0100
,
0010
1000
0100
0000
0001
0100
0010
1000
0100
1000
0010
0000
0100
0001
0100
1000
,
0010
0100
0002
0000
0103
1000
0010
0100
0001
0100
0010
1000
0100
0000
0001
0100
,
0010
1000
0100
1000
0010
0100
0002
0000
1003
0001
1000
0001
0100
0010
0100
0010
,
1000
0010
0001
0100
0020
0000
1000
0000
1030
0000
1001
0000
0101
0000
1001
0000
,
0110
1001
0100
0101
0001
1001
1000
1100
,
1001
0000
0010
0001
0100
0001
0000
1000
0100
1000
0000
0010
0100
0010
0000
1000
,
0100
1000
0000
0010
0001
0010
0001
0010
2001
0010
0001
0010
0001
0010
0001
0010
,
0001
0010
0001
0010
0001
0010
0001
0010
3002
0000
0000
0203
0000
0000
0310
1000
,
0001
0100
0010
1000
0200
0000
0000
0000
0310
0000
0000
0000
0000
0000
0000
0000
;
