#TITLE:Matryoshka;
#SUBTITLE:;
#ARTIST:hachi feat. Gumi & Hatsune Miku;
#TITLETRANSLIT:;
#SUBTITLETRANSLIT:;
#ARTISTTRANSLIT:;
#CREDIT:raz;
#BANNER:../owenviau1 Simfiles 5-bn.png;
#BACKGROUND:matryoshka-bg.png.png;
#LYRICSPATH:;
#CDTITLE:!cdtitle.png;
#MUSIC:Hatsune Miku & Gumi - Matryoshka (------).mp3;
#OFFSET:-1.257;
#SAMPLESTART:98.803;
#SAMPLELENGTH:29.999;
#SELECTABLE:YES;
#DISPLAYBPM:205.000;
#BPMS:0.000=205.000,633.000=230.000,649.500=227.258,649.521=265.361,650.000=265.380,664.000=276.000;
#STOPS:;
#BGCHANGES:;
// cache tags:
#FIRSTBEAT:12.000;
#LASTBEAT:675.000;
#SONGFILENAME:Songs/owenviau1 Simfiles 5/Matryoshka - [owenviau1 & Zespread] v1.2/matryoshka.sm;
#HASMUSIC:1;
#HASBANNER:1;
#MUSICLENGTH:199.836;
// end cache tags

//---------------dance-single - Spread----------------
#NOTES:
     dance-single:
     Spread:
     Challenge:
     18:
     1.000,1.000,1.000,0.140,0.871,1367.000,405.000,28.000,0.000,3.000:
0000
0000
0000
0000
,
0000
0000
0000
0000
,
0000
0000
0000
0000
,
1010
0101
1001
1010
,
1000
1010
0100
0101
,
0001
1001
1000
1010
,
0010
0110
0100
0101
,
0000
0010
0100
0001
1000
0010
0100
0001
,
1001
1000
1010
0010
,
0110
0100
0101
0001
,
1001
1000
1010
1000
,
1000
0001
0010
0100
1000
0100
0010
0100
,
0001
0010
1100
0001
0010
0001
1100
0010
,
0100
1000
0011
0100
0010
1000
0101
0010
,
0100
0010
1100
0010
0100
0010
1001
0100
,
0001
0100
1010
0100
0001
0100
0011
1100
,
0001
1000
0110
0001
1000
0100
0011
0100
,
0001
0010
1100
0010
0001
0010
1100
0010
,
0100
0010
1100
0001
0010
0100
0011
0100
,
1001
0010
0101
0010
1001
0100
0010
0101
,
0110
0000
1100
0010
0100
0001
0110
0001
,
1000
0100
0011
0100
0001
1000
0110
0001
,
0010
0100
0011
0100
0010
0001
0110
1000
,
0011
0100
1010
0001
0110
1000
0011
0100
,
0001
0100
0011
1000
0100
0010
1100
0010
,
0001
0100
0011
0100
0001
1000
0110
0001
,
0100
0010
0101
1000
0010
0001
0110
1000
,
0001
0100
0011
0100
1001
0010
1100
0010
,
0001
0100
0011
0100
1000
0010
0101
0010
,
1000
0001
0110
1000
0100
0010
0101
0010
,
0100
1000
0011
0100
0010
0001
1100
0010
,
0001
0100
1010
0100
0001
0010
1100
0010
,
0002
0000
0000
0000
0000
0000
0000
0000
0000
0000
0000
0000
0003
0000
0000
1000
0000
0000
1000
0000
0000
0000
0020
0000
,
0000
0000
0000
0030
0000
0200
0000
0000
0300
1000
0000
0000
,
0010
0100
0001
0100
0000
0010
0100
0000
,
1000
0100
0010
0002
0000
0003
0000
2000
,
0000
0000
0000
3000
0000
0100
0010
0001
,
0000
0000
0010
0100
0000
0000
0000
1010
,
0000
0101
0000
0011
0000
0110
0000
1100
,
0000
0000
0000
0000
0000
0000
0000
0000
1000
0000
0100
0000
0010
0000
1001
0100
,
0010
1000
0110
0001
0010
0100
1001
0100
0010
0001
1010
0100
0010
0100
0011
0100
,
1000
0100
1010
0100
0010
0001
1010
0100
0010
0100
1010
0100
0010
0001
0110
0001
,
0100
0010
1100
0001
0010
0100
1001
0010
0100
0010
0101
0010
0100
1000
0101
0010
,
0100
1000
0101
0010
0001
0100
0011
1000
0100
0010
0101
1000
0001
0010
0101
0010
,
0001
0010
0101
1000
0100
0010
1100
0001
0100
0010
1100
0001
0100
0010
0110
0001
,
0010
0001
1100
0010
0001
0010
0101
1000
0010
0100
1010
0001
0010
0100
1100
0010
,
0100
1000
0101
0010
0001
0010
1100
0010
0100
1000
0101
0010
0001
0010
0101
0010
,
0001
0010
0110
1000
0100
0010
1001
0100
0010
0001
1010
0100
1000
0100
0011
0100
,
0010
1000
0101
0010
0001
0010
1100
0010
0001
0100
0011
1000
0100
0010
1001
0100
,
0010
1000
0101
0010
0001
0100
1010
0001
0010
0100
1001
0010
0100
0010
1010
0100
,
0010
0001
0110
0001
0010
0001
1010
0100
1000
0100
0011
0100
0010
0001
1010
0100
,
1000
0010
0101
0010
0001
1000
0101
0010
0001
0100
1010
0001
0010
0100
1010
0010
,
0100
1000
0101
0010
0001
0100
0110
1000
0010
0100
1010
0001
0100
0010
0101
1000
,
0100
0010
1100
0001
0010
0001
0110
0001
0010
0100
1001
0100
0010
0100
1010
0001
,
0010
0100
1010
0001
0010
0100
1010
0100
0010
0001
1100
0010
0100
0001
1100
0010
,
0100
0010
1001
0100
0010
0100
1001
0010
0100
1000
0101
0010
0001
0000
0000
0000
,
1001
1000
1010
0010
,
0110
0100
0101
0001
,
0011
0000
0010
0000
0110
0000
1000
0100
,
0011
0100
0010
0001
0110
1000
0010
0000
,
1010
1000
1100
0100
,
0101
0001
0011
0010
,
0110
0000
0100
0000
0101
0000
0001
0010
,
1100
0010
0100
1000
0011
0100
0000
1001
,
0100
0010
1100
0010
0001
0100
0010
0100
,
0011
0100
1000
0010
0101
0010
0100
1000
,
0011
0100
1000
0010
1100
0010
0100
0010
,
1001
0100
0011
0100
1010
0100
0001
0100
,
0011
0100
1000
0010
1100
0010
0001
0010
,
1100
0010
0001
0100
0011
0100
1000
0010
,
0101
1000
0010
0100
0011
0100
1000
0010
,
1100
0010
0101
0010
1100
0001
0110
1000
,
0011
0100
1010
0100
0011
0100
1010
0000
,
0110
0022
0000
0033
0000
0000
1100
0000
,
0110
0022
0000
0033
0001
0010
1100
0000
,
0110
0022
0000
0033
0000
0000
1000
0100
,
0010
0001
0100
0010
0000
1000
0100
0000
,
0020
0030
0010
0000
0000
0000
1000
0010
,
0100
0001
0010
0100
0000
0100
1010
0000
,
0011
1100
0011
2002
,
0000
3003
0000
0000
1000
0100
0022
0000
,
0033
0000
0000
0000
0000
0000
0010
0000
0000
0000
0000
0000
0000
0000
1000
0000
0000
0000
0010
0000
0000
0100
0000
0000
,
0001
0010
0000
0010
0100
0000
1000
0100
,
0010
0002
0000
0003
0000
0000
2000
0000
,
0000
3000
0000
0010
0100
0002
0000
0003
,
0010
0100
0000
0000
0000
1000
0000
0010
,
0000
0001
0000
0100
0000
1000
0000
0000
,
0000
0000
0000
0000
1000
0000
0100
0000
0010
0000
0001
0010
0100
1000
0011
0100
,
0010
0001
1100
0010
0100
1000
0101
0010
0001
0100
0011
0100
1000
0100
1010
0001
,
0010
0100
1010
0100
0001
0100
0011
0100
0010
0100
0011
0100
1000
0100
1010
0100
,
0010
0001
0110
0001
0010
0001
1010
0100
1000
0100
1010
0100
0010
0100
1001
0100
,
0010
0100
1001
0100
1000
0100
1010
0001
0010
0100
0011
0100
0001
0010
0101
1000
,
0100
0010
1100
0010
0100
1000
0011
0100
0010
0001
1010
0100
1000
0100
0011
0100
,
0010
1000
0011
0100
0010
1000
0011
0100
0010
0001
1010
0100
1000
0010
0101
0010
,
0001
0010
0101
1000
0001
0010
0101
1000
0001
0010
1100
0010
0001
0100
0011
0100
,
0010
0100
1010
0100
0010
0001
1010
0100
0010
0100
0011
0100
0010
0001
1010
0100
,
0010
0001
1010
0001
0010
0100
1001
0100
0010
0100
1010
0001
0100
0001
1100
0010
,
0100
0001
1010
0100
1000
0100
1010
0001
0100
0001
1010
0100
1000
0010
1100
0010
,
0001
0010
0101
0010
0100
0010
1001
0010
0100
1000
0101
0010
0100
1000
0011
0100
,
0010
0001
1010
0100
1000
0010
0101
0010
0100
1000
0101
0010
0001
0100
1010
0100
,
0010
0001
1010
0100
1000
0010
0101
1000
0100
0010
1001
0010
0100
1000
0101
0010
,
0001
0010
0101
0010
0001
0010
1001
0010
0100
1000
0101
0010
0100
0010
1100
0010
,
0001
0010
0101
1000
0100
0010
1001
0010
0100
0010
0101
0010
0100
1000
0101
0010
,
0100
0010
1001
0010
0100
0000
0011
1000
0010
0000
0000
0000
0011
0000
0000
0000
,
0001
0101
0100
1100
,
1000
1010
0010
0011
,
0001
0000
0101
0000
0100
0010
1000
0001
,
0010
0100
1000
0010
1000
0000
1001
0000
,
0001
0011
0010
0110
,
0100
1100
1000
1001
,
0001
0000
0101
0000
0100
0010
1000
0001
,
0100
0010
0100
0010
1000
0100
0010
0001
,
0010
0100
0010
0001
0100
0000
1000
0200
,
0000
0300
0000
0000
0001
0000
0010
0200
,
0000
0300
1000
0100
0010
0000
0001
0200
,
0000
0300
0000
0000
1000
0100
0010
0001
,
0100
0010
0000
0010
0100
0000
2000
0000
,
3010
0000
0000
0000
0001
0010
0100
1000
,
0100
0010
0000
0010
1001
0000
1100
0000
,
1010
0000
0000
0011
0000
0000
1010
0000
0000
0100
0010
0100
,
0011
0000
0000
0010
0100
0010
1100
0000
0000
1010
0100
0010
,
1100
0010
0001
1100
0010
0001
1100
0000
0000
0001
0010
0001
,
0110
0000
0000
1000
0100
0010
1100
0000
0000
1000
0100
1000
,
0011
0100
1000
0110
0001
0010
1100
0000
0000
0001
0010
0100
,
0011
0000
0000
0100
1000
0100
0011
0000
0000
1010
0100
1000
,
0011
0000
0100
0000
1000
0000
0110
0000
0001
0000
0100
0000
0011
0000
0000
0100
0000
0000
1010
0000
0000
0100
0000
0000
,
0011
0000
0100
0000
0000
0000
0001
0000
1010
0000
0100
0000
0011
0000
0100
0010
,
2002
3003
0000
0000
,
0000
0000
0000
1010
,
1100
0000
0011
0000
0101
0000
0011
0110
,
0000
1000
0110
0001
0000
0010
1100
0110
,
0002
1000
0113
0000
1000
0100
0011
0110
,
1000
0100
0011
0100
0010
0000
0110
1100
,
0100
1000
0011
0000
1100
0000
0011
1100
,
0000
1100
0000
0001
0000
1100
0011
0000
,
2000
0011
3000
0000
1100
0000
2000
0110
,
3010
0101
0010
1001
0110
0101
1010
1100
,
0000
0000
0000
0000
0000
0000
0010
0100
1000
0100
0010
0001
0010
0100
0010
0100
,
1000
0100
0010
0001
0010
0100
0010
0001
0100
0010
0100
1000
0100
0010
0001
0010
,
0100
0010
0001
0010
0100
1000
0100
0010
0100
0010
1000
0010
0100
0010
1000
0010
,
0100
0010
0001
0010
0100
0010
1000
0010
0100
0010
0001
0010
0100
0010
0001
0010
,
0001
0010
0001
0010
0100
1000
0100
1000
0100
0010
0100
0010
0100
0010
0001
0010
,
0100
1000
0100
0010
0100
1000
0100
0010
0100
1000
0100
0010
0001
0010
0100
0010
,
0001
0010
0100
1000
0100
0010
0100
0010
0100
0010
0001
0010
0100
1000
0100
0010
,
0001
0010
0100
1000
0100
0010
0001
0100
0010
0100
0010
0100
0010
0001
0010
0100
,
1000
0000
1001
0000
1000
1010
0000
0010
,
1010
0000
1100
0000
0100
0110
0000
0001
,
0101
0000
1010
0000
0100
1100
0000
1000
,
1010
0000
0101
0000
0010
0110
0000
0100
,
0101
0100
1100
0000
0010
1010
0000
0100
,
0101
0000
1001
0000
0010
0011
0000
0001
,
0101
0000
1010
0000
1000
1100
0000
0100
,
0110
0000
0011
0000
0010
1010
0000
1000
,
1001
1001
1010
0100
0011
0100
1010
0001
,
1100
0010
0101
1000
0110
0001
1010
0100
,
0011
1000
0110
0001
1100
0010
0101
0010
,
1100
0001
0110
1000
0101
0010
1100
0010
,
0101
1000
0011
0001
0101
0100
1100
1000
,
1010
0010
0110
0100
0101
0001
0011
0010
,
1010
1000
1100
0100
0101
0001
0011
0010
,
0110
0010
0011
0001
1001
1000
1010
0100
,
0010
1010
0101
0011
,
1100
1010
1001
0101
,
0011
0110
1001
1010
,
0101
0011
1010
1001
,
0110
1010
0101
0011
,
0110
1010
0101
0011
,
0110
1100
0101
1010
,
0110
0101
0011
1001
;

//---------------dance-single - Index----------------
#NOTES:
     dance-single:
     Index:
     Hard:
     15:
     1.000,1.000,1.000,0.045,0.853,1333.000,231.000,9.000,0.000,0.000:
0000
0000
0000
0000
,
0000
0000
0000
0000
,
0000
0000
0000
0000
,
1000
0100
0010
0001
,
1010
0010
0110
0100
,
0101
0001
1001
1000
,
1010
0010
1010
0010
,
0010
0001
0010
0100
1000
0100
0010
0001
,
1010
0100
0011
0100
,
1010
0010
0101
0010
,
1100
0010
0101
0010
,
1000
0010
0001
0100
1000
0010
0001
0100
,
1000
0100
0011
0100
1000
0100
0011
0100
,
1000
0100
1010
0100
0010
0001
1010
0100
,
0010
0100
1010
0001
0100
0010
0101
0010
,
0100
0010
1001
0100
0010
0001
0110
0001
,
0010
0100
0011
1000
0100
0010
1100
0001
,
0100
0001
0110
1000
0100
0010
0101
0010
,
0100
1000
0011
0100
1000
0100
0011
0100
,
1010
0000
0101
0000
0011
0000
0000
1010
,
0102
0000
1000
0003
1010
0000
0010
0000
,
0011
0001
0101
0100
,
1010
1000
0101
0010
,
1100
0001
0010
1000
0101
1000
0010
0001
,
1100
0001
1010
0100
0010
0001
0010
0100
,
1010
0001
0100
1000
0011
0100
1000
0010
,
1100
0001
0010
0100
0011
1000
0100
0010
,
1100
0010
0100
0010
1001
0100
0010
0001
,
1100
0010
0001
0010
0101
0010
1000
0100
,
0011
0100
1000
0010
0101
1000
0010
0001
,
1100
0010
0001
0100
0011
1000
0100
0010
,
1100
0001
0010
0100
0011
1000
0100
0001
,
1200
0000
0000
0300
0000
0000
0100
0010
,
0002
0000
0000
0203
0000
0000
0310
0000
,
0001
0010
0100
1000
0000
0010
0100
0000
,
0010
0001
0010
0200
0000
0300
0000
0000
,
2000
0000
0000
3000
0000
0010
0001
0010
,
0000
0000
0001
0100
0000
0000
0000
1010
,
0000
0101
0000
0011
0000
1010
0000
1100
,
0000
0000
0000
0000
0000
0000
0000
0000
1000
0000
0100
0000
0010
0000
0001
0010
,
0100
1000
0100
0010
0001
0100
0010
0100
0010
0100
0010
0001
0010
0001
0010
0100
,
1000
0100
1000
0100
0010
0001
0010
0100
0010
0001
0010
0100
0010
0100
0001
0100
,
0010
0100
0001
0100
0010
0100
1000
0100
0010
0100
0010
1000
0010
0100
0001
0010
,
0001
0010
0001
0010
0100
1000
0100
0010
0100
0010
0001
1000
0001
1000
0001
1000
,
0001
0010
0100
1000
0100
0010
0001
0010
0100
0010
0100
0010
0100
1000
0100
0010
,
0001
0010
0100
1000
0100
0010
0001
0010
0100
0010
0001
0010
0100
1000
0100
0010
,
0100
1000
0100
0010
0100
0010
0100
0010
0100
0010
0001
0010
0001
0010
0100
1000
,
0100
0010
0001
0010
0100
1000
0100
0010
0001
0010
0100
1000
0010
0100
0001
0010
,
0100
1000
0100
0010
0001
0010
0100
1000
0100
0010
0100
0010
0100
0010
0100
0010
,
0100
1000
0100
1000
0100
1000
0100
0010
0001
0010
0001
0010
0001
0010
0100
1000
,
0100
0010
0001
0100
0010
0100
0001
0010
0100
1000
0100
0010
0001
0100
0010
1000
,
0100
0010
0001
1000
0010
0100
0001
1000
0010
0100
0001
1000
0100
0010
0001
1000
,
0100
0010
0001
0010
0100
1000
0100
0010
0100
0010
0001
0010
0100
0010
0100
1000
,
0100
0010
0001
0010
0001
0010
0100
1000
0100
1000
0100
0010
0001
0010
0100
1000
,
0100
0010
0001
0010
0100
0010
0100
0010
0100
1000
0100
0010
0100
0010
0001
0010
,
0100
1000
0100
0010
0001
0010
0100
0010
0001
0010
0100
1000
0010
0000
0000
0000
,
0101
1000
0110
0001
,
1010
0100
0011
0100
,
1100
0000
0010
0000
0101
0000
0010
1000
,
0100
0010
0001
0010
0100
1000
0011
0000
,
0100
0011
1000
0110
,
0001
1010
0100
0011
,
0100
0000
1010
0000
0100
0000
0001
0010
,
0100
1000
0010
0100
0001
0010
0001
0100
,
1010
0100
0001
0010
1100
0010
0001
0100
,
0011
1000
0010
0100
0011
0100
1000
0010
,
0101
1000
0001
1000
0110
0001
0010
0100
,
0011
1000
0100
1000
0101
0010
0001
0100
,
1010
0100
0010
0001
1010
0100
0010
0001
,
1100
0010
0001
0010
1100
0010
0001
0100
,
1010
0100
0010
0001
1100
0010
0001
0100
,
1001
0100
1000
0000
0000
0000
1000
0100
,
0010
0001
0010
0100
1000
0100
0011
0000
,
0101
1000
0000
0000
0000
0000
0011
0000
,
0101
1000
0000
0000
1000
0100
0011
0000
,
0101
1000
0000
0000
0000
0000
1000
0100
,
0010
0001
0010
0100
0000
1000
0100
0000
,
0020
0030
0010
0000
0000
0000
1000
0100
,
0010
0001
0010
0100
0000
0010
1010
0000
,
0110
0000
0011
0000
0110
0000
1000
0100
,
0011
0100
1000
0001
1100
0010
0100
0001
,
1010
0100
0010
0001
1100
0010
0001
0100
,
0011
0100
1000
0010
1100
0001
0010
1000
,
0101
0010
1000
0100
0011
0100
1000
0010
,
1100
0001
0010
1000
0101
0010
1000
0001
,
1010
0100
0010
0001
1100
0010
0101
0010
,
1100
0010
0101
0010
1100
0001
1100
0010
,
0001
0000
0010
0000
0100
0000
1000
0000
0100
0000
0010
0001
0010
0001
0010
0001
,
0010
0100
1000
0100
0010
0001
0100
0010
0001
0010
0100
1000
0100
0010
0001
0100
,
0010
1000
0100
0010
0001
1000
0010
0100
0001
0010
0100
1000
0001
0100
0010
1000
,
0100
0010
0001
0100
0010
0100
0010
0100
0010
0001
0010
0001
0010
1000
0100
0010
,
0001
0100
0010
0100
0010
0001
0010
0001
0010
0100
0010
0100
0010
0001
0010
0100
,
0010
0100
1000
0100
0010
0100
1000
0100
0010
0100
0010
1000
0010
0100
0010
0001
,
0010
0100
0010
0001
0010
0100
1000
0100
0010
0100
0010
0001
0010
0100
1000
0100
,
0010
0001
1000
0100
0010
0001
0010
0100
1000
0001
0010
0100
0010
0001
0010
0100
,
0010
1000
0100
0010
0001
0010
0100
0010
0100
0010
0100
0010
0001
0010
0001
0010
,
0001
0010
0100
1000
0100
0010
0100
0010
0100
0010
0100
1000
0100
0010
0001
0010
,
0001
0010
0001
0010
0100
1000
0100
0010
0100
1000
0100
1000
0100
0010
1000
0010
,
1000
0010
0001
0010
0100
1000
0100
0010
0001
0100
0001
0100
0001
0010
0100
1000
,
0100
0010
0001
0100
0010
0100
0010
0100
1000
0100
0010
0001
1000
0001
1000
0001
,
1000
0001
0010
0100
1000
0100
0010
0001
0100
0001
0010
0100
1000
0100
0010
1000
,
0001
0010
0100
1000
0100
0010
0001
0100
0010
0100
1000
0100
0010
0001
0010
0100
,
1000
0100
0010
0100
0010
0100
0010
0001
0010
0001
0010
0100
1000
0100
0010
0100
,
0020
0030
1010
0100
,
0011
0100
1001
0010
,
1100
0010
0101
0010
,
1100
0000
0001
0000
0010
0100
1000
0100
,
0010
0001
0010
0100
1010
0000
0100
0000
,
0011
0010
1100
1000
,
0011
0100
1001
1000
,
1010
0000
0001
0000
1000
0100
0010
0001
,
0010
0100
0001
0010
1000
0100
0010
0001
,
0010
0100
1000
0001
1010
0000
0110
0001
,
0000
0000
0000
0000
1010
0000
0110
0001
,
0000
0000
1000
0001
0110
0000
0011
0100
,
0000
0000
0000
0000
1000
0100
0010
0001
,
0010
0001
0000
0001
0010
0000
0200
0300
,
0100
0000
0000
0000
1000
0100
0010
0100
,
0010
0001
0000
0100
1001
0000
0110
0000
,
1100
0000
0000
0011
0000
0000
1010
0000
0000
0100
0010
0100
,
0011
0000
0000
1000
0100
0010
1100
0000
0000
0011
0100
1000
,
0100
0010
0100
0010
0001
0010
1100
0000
0000
0100
1000
0100
,
0011
0000
0000
0001
0010
0001
1100
0000
0000
1010
0100
0001
,
0010
0100
1000
0100
0010
0001
1100
0000
0000
0001
0010
0001
,
0110
0000
0000
0010
0100
0010
1001
0000
0000
1010
0100
0001
,
0010
0000
0100
0000
1000
0000
0100
0000
0010
0000
0001
0000
1010
0000
0000
0100
0000
0000
0010
0000
0000
0001
0000
0000
,
0010
0100
0000
0100
1010
0101
0011
0110
,
1100
0000
0000
0000
,
0000
0000
0000
1000
,
0100
0000
0010
0000
0001
0000
0010
0100
,
0000
1000
0000
0001
0000
0010
0100
0010
,
1001
0000
0000
0000
1000
0100
0000
0100
,
1000
0100
0000
0100
0010
0000
0100
1000
,
0100
0000
0010
0000
0001
0000
0010
0100
,
0000
1000
0000
0010
0000
0100
1000
0000
,
0110
0000
1000
1000
,
0010
0100
0010
0100
0010
0100
0010
1100
,
0000
0000
0000
0000
0000
0000
0010
0100
1000
0100
0010
0001
0010
0001
0010
0100
,
1000
0100
0010
0001
0100
0010
0100
0010
0001
0010
0100
1000
0100
0010
0001
0100
,
0010
0001
0100
0010
0100
0010
0100
1000
0100
0010
0100
0010
0100
0010
0001
0010
,
0001
0010
0100
1000
0100
1000
0100
0010
0001
0100
0001
0100
0001
0010
0100
1000
,
0010
1000
0100
0010
0001
0100
0010
0001
0100
0010
0100
0010
0001
0010
0100
1000
,
0001
0010
0100
1000
0100
0010
0001
0100
0010
1000
0010
0100
0001
0010
0100
1000
,
0001
0100
0001
0100
0001
0010
0100
1000
0010
0100
0001
1000
0010
0100
0001
0010
,
0100
1000
0001
0100
0010
1000
0100
0010
0001
0010
0100
1000
0100
0010
0100
0010
,
0100
0100
1010
0000
0000
0000
0100
0101
,
0000
0001
1001
0000
1000
0010
0000
0100
,
0010
0100
0010
1001
0000
0000
0001
0101
,
0000
0000
0100
1100
0000
1010
0000
0101
,
0000
0000
0000
1010
0000
0000
0001
0101
,
0000
0100
1100
0000
1000
0010
0000
0010
,
0100
0010
0100
1000
0000
0000
1000
0100
,
0000
0000
0100
0010
0000
0010
0000
0010
,
0000
1001
0110
0011
,
1100
1010
0101
0011
,
1010
1100
0011
0101
,
0011
1100
1010
0110
,
0011
0110
1001
0101
,
0110
0101
1010
1100
,
1001
0101
1001
0011
,
0110
1100
1001
1010
,
1001
0101
0110
1100
,
1010
0011
1100
0101
,
0011
1100
1001
1010
,
0110
0011
1010
1100
,
0011
0110
1001
0101
,
0101
0110
1010
0110
,
1001
0110
1100
0101
,
0011
1100
0011
1001
;
