#TITLE:Of Sins and Shadows;
#SUBTITLE:The Divine Wings of Tragedy (1997);
#ARTIST:Symphony X;
#TITLETRANSLIT:Of Sins and Shadows;
#SUBTITLETRANSLIT:The Divine Wings of Tragedy (1997);
#ARTISTTRANSLIT:Symphony X;
#CREDIT:John Bernhard;
#BANNER:sinsbanner.jpg;
#BACKGROUND:sinsandshadows.jpg;
#LYRICSPATH:;
#CDTITLE:!john-cdtitle.png;
#MUSIC:of_sins_and_shadows.mp3;
#OFFSET:-7.360;
#SAMPLESTART:56.572;
#SAMPLELENGTH:18.320;
#SELECTABLE:YES;
#BPMS:0.000=182.040;
#STOPS:31.500=0.320
,33.500=1.000
,866.500=0.320
;
#BGCHANGES:;
// cache tags:
#FIRSTBEAT:0.000;
#LASTBEAT:868.500;
#SONGFILENAME:Songs/Astronomic Metal Collection/Of Sins and Shadows v2 (John11)/Of Sins And Shadows.sm;
#HASMUSIC:1;
#HASBANNER:1;
#MUSICLENGTH:298.454;
// end cache tags

//---------------dance-single - Copied from----------------
#NOTES:
     dance-single:
     Copied from:
     Hard:
     11:
     1.000,1.000,0.968,0.436,1.000,2120.000,289.000,130.000,0.000,16.000:


0001
0001
0100
0001
0001
0100
0001
0001
,
0100
0100
0010
0010
0001
0010
0100
1000
,
0010
0000
0010
0000
1000
0000
0010
0000
0010
0000
1000
0000
0010
0000
0010
0100
,
1000
1000
0001
0001
0010
0200
2300
3000
,
0100
0100
0001
0100
0100
0001
0100
0100
,
0001
0001
1000
1000
0100
1000
0001
0010
,
1000
0000
1000
0000
0010
0000
1000
0000
1000
0000
0010
0000
1000
0000
1000
0001
,
0010
0010
0100
0100
1000
0001
0100
0010
,
1000
1000
0100
0010
1001
0100
0101
0010
,
1010
0001
0011
1000
1001
0010
0110
1000
,
1010
0001
0101
0010
1010
0100
0110
0001
,
0101
0000
0010
0000
1010
0000
0100
0010
0101
0000
0010
0000
0110
0000
1000
0000
,
1001
0010
2010
0000
3101
0001
0101
0100
,
0110
0010
1010
1000
1001
0001
0011
0010
,
0110
0100
0101
0001
0011
0010
1010
1000
,
1001
0000
0000
0001
0000
0000
0201
0000
0000
0300
0000
0000
0001
0000
0010
0000
0100
0000
1000
0000
0001
0000
0010
0000
,
0100
0000
1000
0000
0001
0000
0010
0000
0100
0000
1000
0000
0001
0000
0000
0010
0000
0000
1100
0000
0000
0001
0000
0000
,
0010
0100
0101
0010
1000
0010
1010
0100
,
0010
0001
1001
0010
1000
0100
0011
1000
,
0100
0000
0010
0000
1100
0000
0100
0010
0001
0000
0001
0000
0101
0000
0010
0000
,
1000
0100
0120
0100
1030
0001
0011
0010
,
0100
0010
1010
1000
0100
0010
0110
0100
,
1000
0100
0101
0001
0010
0100
1001
0001
,
0100
0000
0010
0000
0210
0000
0000
0000
1300
0100
1000
0100
1000
0010
1000
0010
,
1000
0100
0010
0001
0100
0010
0100
0010
0100
0000
0001
0000
1010
0000
0001
0000
,
0100
0010
1100
1000
0100
0010
0101
0010
,
0100
0001
1010
0100
0010
0100
0011
0010
,
0100
0000
1000
0000
1001
0000
1000
0010
0100
0000
0010
0000
0110
0000
0001
0000
,
1000
0001
1010
0100
0001
0001
0100
0001
,
0001
0100
0001
0001
0100
0100
0010
0010
,
0001
0010
0100
1000
0010
0010
1000
0010
,
0010
0000
1000
0000
0010
0000
0010
0100
1000
0000
1000
0000
0001
0000
0001
0000
,
0100
0100
0010
0010
2002
0000
0000
0000
,
0203
0000
0000
0000
,
0302
0000
0023
0000
3130
0100
0100
0100
,
1010
0010
0110
0100
1010
0011
0010
0110
,
1010
0010
0100
0001
0100
0100
0110
0011
,
1000
1000
1010
0010
1001
1000
0100
0011
,
1010
0010
1010
0001
0010
0010
0100
0001
,
1010
0010
0011
0001
1100
0100
1001
1000
,
0011
0010
0101
0100
0102
0000
0100
0000
,
1000
1000
0100
0000
1000
1000
0100
0000
,
0113
0000
0110
0000
0000
0000
0101
0011
,
0010
0000
0000
0010
0000
0000
1100
0000
0000
0010
0000
0000
0011
0000
0000
0000
0101
0000
0000
0000
0011
0000
0000
0000
,
0110
0010
0100
1000
0010
0010
0100
0011
,
1001
0001
1001
1000
0011
0010
0001
0110
,
0101
0001
0101
0100
1000
1000
0001
0010
,
1100
0100
0110
1000
1001
0001
0010
1001
,
1010
0010
0101
0000
0210
0000
0010
0000
,
0001
0001
0310
0000
0000
0000
0011
1001
,
0000
0000
0000
1100
0000
0000
0000
0000
1010
0000
0000
0000
0000
0000
0000
0000
,
0011
0101
0011
0000
0000
0000
0011
0101
,
0000
0000
0000
1001
0000
0000
0000
0000
1100
0000
0000
0000
0000
0000
0000
0000
,
0110
1100
0102
0000
0000
0000
0000
0000
,
0000
0000
0000
0000
0000
0000
0003
0000
0001
0010
0001
0010
0001
1000
0100
0010
,
0001
0010
0100
1000
0001
0100
0001
0100
0001
0100
0001
0100
0001
0100
0001
0100
,
0001
0100
0010
0100
1000
0010
0100
0001
0010
0100
1000
0001
0010
0100
0010
0100
,
1000
0100
1000
0100
1000
0010
1000
0010
1000
0001
0010
0001
0010
0001
0010
0100
,
1000
0100
0010
0100
1000
0001
0010
0100
0010
0001
0100
0010
1000
0100
1000
0001
,
0010
0100
1000
0100
0010
0001
0100
0001
0100
0001
0100
0001
0100
0001
0100
0010
,
0001
0010
0100
1000
0100
0010
0001
0010
2001
0000
0010
0000
0010
0000
0001
0000
,
0001
0000
0001
0000
0100
0000
0001
0001
0100
0000
0001
0000
3010
0000
0100
0000
,
0010
0000
0001
0000
2000
0000
0000
3000
0010
0001
1000
0100
1000
0100
1000
0100
,
0010
0100
0010
0001
1000
0001
1000
0001
1000
0001
1000
0001
1000
0001
1000
0001
,
1000
0100
0010
0100
1000
0010
0100
0001
0010
0100
1000
0100
0010
0100
0010
0100
,
1000
0100
1000
0100
1000
0010
1000
0010
1000
0100
0010
0001
0100
0010
1000
0100
,
0010
0001
0010
0001
0010
0100
0010
0100
0010
0001
0100
0010
1000
0010
0100
0001
,
0010
0100
0010
0100
0010
1000
0010
1000
0001
1000
0001
1000
0001
0010
0001
0010
,
0100
1000
0010
1000
0010
1000
0010
1000
0120
0000
0000
0030
0102
0000
1013
0000
,
0000
0000
0000
1010
0000
0000
0011
0000
0000
0000
0000
0000
1000
0000
0010
0000
0001
0000
0010
0000
0001
0000
0010
0000
,
1000
0000
0001
0000
1000
0000
0001
0000
0010
0000
0100
0000
0001
0000
0000
0001
0000
0000
1000
0000
0000
0001
0000
0000
,
0001
1000
0001
0001
0001
0010
0001
1000
,
0100
0000
1000
0000
0001
0000
0010
0000
0100
0000
0000
0000
0200
0000
0310
0001
,
0100
0010
1000
0100
0010
0001
0100
0010
1000
0100
0010
0001
0010
0100
1000
0100
,
0020
0000
0230
0000
0300
0000
0001
0001
,
0100
0001
0001
0100
0001
0001
0100
0100
,
0010
0010
0001
0010
0100
1000
0010
0010
,
1000
0000
0010
0000
0010
0000
1000
0000
0010
0000
0010
0100
1000
0000
1000
0000
,
0001
0001
0010
0200
2300
3000
0100
0100
,
0000
0000
0010
0001
0110
0000
0010
0000
0000
0000
0100
1000
0011
0000
0010
0000
,
0000
0000
0010
0001
1100
0000
0100
0000
0000
0000
0001
1000
0110
0000
0010
0000
,
0000
0000
0100
0010
0101
0000
0100
0000
0000
0000
0001
1000
0110
0000
0100
0000
,
0000
0000
1000
0001
0110
0000
0100
0000
0000
0000
1000
0100
1010
0000
0010
0000
,
0000
0000
0001
0100
1010
0000
0010
0000
0000
0000
0100
0001
1010
0000
1000
0000
,
0000
0000
0010
0100
1001
0000
1000
0000
0000
0000
0000
0000
0012
0000
0000
0000
,
0100
0000
0000
0000
0000
0000
1000
0000
0000
1000
0000
0000
0100
0000
0000
0000
0000
0000
1003
0000
0100
0000
0010
0000
,
0100
0000
0010
0000
0001
0000
2000
0000
0000
0000
0000
0000
0000
0000
3000
0000
0000
0000
0011
0000
0000
0001
0000
0000
,
1001
1100
0010
0100
0101
1000
0011
0110
,
1000
0011
0011
0101
0101
0011
1001
1010
,
1100
0000
0000
0000
0000
0000
1010
0000
0000
1001
0000
0000
0101
0000
0000
0000
0000
0000
1020
0000
0030
2001
0000
3000
,
0201
0000
0000
0000
0300
0000
0000
0000
0000
0000
0000
0000
1020
0000
0000
0030
0000
0000
2001
0000
0000
3000
0000
0000
0201
0000
0000
0300
0000
0000
0000
0000
0000
0000
0000
0000
0000
0000
0000
0000
0000
0000
0000
0000
0000
0000
0000
0000
,
0100
0010
0110
0100
1100
0010
1001
0001
,
0000
1001
0101
0100
0011
0000
2010
0000
,
0010
0000
0001
0010
3100
0000
0000
0000
,
0110
0000
1001
0000
0000
0000
0000
1100
0000
0000
0000
0000
1100
0000
0000
0000
,
0000
0000
1010
0101
1010
0000
0000
0000
,
1100
0000
1001
0000
0000
0000
0000
1001
0000
0000
0000
0000
1100
0000
0000
0000
,
0000
0000
1010
1010
0012
0000
0000
0000
,
0000
0000
0000
0000
0000
0000
0000
0000
0000
0000
0003
0000
1000
0100
1000
0100
,
0010
0100
0010
0001
0100
0010
0100
0001
1000
0010
1000
0010
1000
0010
1000
0001
,
0100
0001
0100
0010
1000
0001
0010
0100
1000
0001
0010
0100
1000
0100
0010
0100
,
1000
0100
0010
0001
0100
0010
1000
0010
0100
0010
0100
0010
1000
0100
0010
0100
,
1000
0010
0100
0001
0100
0010
1000
0010
0100
0010
0100
0001
0100
0010
1000
0100
,
0010
0001
0010
0100
1000
0100
0010
0001
0100
0001
0100
0001
0100
0001
0100
0001
,
0100
0010
0100
0001
0010
0100
0010
0001
0010
0100
1000
0010
1002
0000
1000
0000
,
0100
0000
1000
0000
1000
0000
0100
0000
1000
0000
0010
0010
1000
0000
1003
0000
,
0010
0000
0010
0000
0001
0000
0001
0000
0200
0000
0300
0000
0100
0001
0100
0001
,
0010
0100
0010
0100
1000
0100
0010
0001
0010
0001
0010
0001
0010
0001
0010
0001
,
0010
0001
0010
0001
0010
0001
0010
0001
0100
0010
1000
0100
0010
0001
0100
0010
,
1000
0010
0100
0001
0010
0100
1000
0100
0010
0100
1000
0001
0010
0100
1000
0010
,
0100
0001
0100
0001
0010
0100
1000
0100
0010
0100
0010
0001
1000
0100
0010
0001
,
0010
0100
1000
0100
0010
0100
1000
0100
1000
0001
0010
0100
0010
0001
0100
0001
,
0010
0100
0010
0100
1000
0001
1000
0001
1000
0001
1000
0001
0120
0000
0000
0000
,
0132
1203
0000
0010
2000
0000
0000
0000
,
0000
0000
0000
0000
0000
0000
3310
0100
1000
0100
0000
0010
0000
0100
0000
1000
0000
0000
0120
0000
0000
0000
0000
0000
,
0000
0000
0000
0000
1000
0000
0000
0030
0120
0000
0000
0000
0000
0000
0000
0000
,
0000
0000
0000
0000
0000
0000
0000
0030
,
1001
1001
0101
0000
0011
0101
1010
0000
,
1001
0011
1100
0000
0101
0000
2200
0000
,
0000
3300
0220
0000
0000
0330
2002
0000
,
0000
0000
0000
3003
0000
0000
1000
0000
0100
0000
0010
0000
0001
0000
1000
0000
0100
0000
0010
0000
0000
0000
0000
0000
,
0101
1010
1100
0000
0011
1100
1001
0000
,
0011
0110
1100
0000
0101
0000
0202
0000
,
0000
0303
0220
0000
0000
0330
2200
0000
,
0000
3300
2200
0000
0000
3300
0011
0000
,
0101
1010
1001
0000
1010
1100
0011
0000
,
0101
0110
1001
0000
0101
0000
2002
0000
,
0000
3003
2200
0000
0000
3300
0202
0000
,
0000
0000
0000
0303
0000
0000
0001
0000
0010
0000
0100
0000
1000
0000
0001
0000
0010
0000
0100
0000
0000
0000
0000
0000
,
0110
0110
0101
0000
0011
1001
1010
0000
,
1100
1100
0110
0000
1001
0000
2002
0000
,
0000
3003
2200
0000
0000
3300
2020
0000
,
0000
0000
0000
0000
0000
0000
0000
0000
3030
0000
0000
0000
0000
0000
0000
0000
0022
0000
0000
0000
0000
0000
0000
0000
0000
0000
0000
0000
0000
0000
0000
0000
0000
0000
0000
0000
0000
0000
0000
0000
0033
0000
0000
0000
0000
0000
0000
0000
0110
0000
0000
0000
0000
0000
1000
0000
0100
0000
0010
0000
0000
0000
0000
0001
,
0000
0000
0000
0010
0000
0000
0000
0000
0000
0100
0000
0000
0000
0000
0000
0000
0000
0000
0000
0000
0000
1000
0000
0000
0000
0000
0000
0000
0000
0000
0000
0000
0000
0000
0000
0000
0001
0000
0000
0000
0000
0000
0010
0000
0000
0000
0000
0000
0000
0000
0000
0100
0000
0000
0000
0000
0000
0000
0000
0000
0000
0000
0000
0000
0000
0000
0010
0000
0000
0000
0000
0000
0000
0000
0000
0000
0000
0000
0001
0000
0000
0000
0000
0000
0000
0000
0000
0000
0100
0000
0000
0000
0000
0000
0000
0000
0001
0000
0000
0000
0000
0000
0000
0000
0000
0010
0000
0000
0000
0000
0000
0000
0000
0000
0100
0000
0000
0000
0000
0000
1000
0000
0000
0000
0000
0000
0000
0000
0001
0000
0000
0000
0000
0000
0000
0000
0000
0000
0010
0000
0000
0000
0000
0000
0000
0000
0000
0100
0000
0000
0000
0000
0000
0000
0000
0000
0010
0000
0000
0000
0000
0000
0000
0000
0000
0001
0000
0000
0000
0000
0000
0000
0000
0000
1000
0000
0000
0000
0000
0000
0000
0000
0000
0100
0000
0000
0000
0000
0000
0000
0000
0000
,
0010
0000
0000
0000
0000
0000
0000
0000
0000
0000
0000
0000
0001
0000
0000
0000
0000
0000
0000
0000
0000
0100
0000
0000
0000
0000
0000
0000
0000
0000
0010
0000
0000
0000
0000
0000
0000
0000
0000
0000
0100
0000
0000
0000
0000
0000
0000
0000
0000
0000
0000
0000
0001
0000
0000
0000
0000
0000
0000
0000
0000
0000
0000
0000
0010
0000
0000
0000
0000
0000
0000
0000
0000
0000
0000
0000
0100
0000
0000
0000
0000
0000
0000
0000
0000
0000
0000
1000
0000
0000
0000
0000
0000
0000
0000
0000
0000
0000
0000
0010
0000
0000
0000
0000
0000
0000
0000
0000
0100
0000
0000
0000
0000
0000
0000
0000
0000
0001
0000
0000
0000
0000
0000
0000
0000
0000
0010
0000
0000
0000
0000
0000
0000
0000
0000
0100
0000
0000
0000
0000
0000
0000
0000
0000
0000
0000
0000
1000
0000
0000
0000
0000
0000
0000
0000
0000
0100
0000
0000
0000
0000
0000
0000
0000
0000
0000
0000
0000
0010
0000
0000
0000
0000
0000
0000
0000
0000
0001
0000
0000
0000
0000
0000
0000
0000
0000
1000
0000
0000
0000
0000
0000
,
0000
0000
0000
0000
0001
0000
0000
0000
0000
0000
0000
0000
0000
0000
0000
0010
0000
0000
0000
0000
0000
0100
0000
0000
0000
0000
0000
0000
0000
0000
1000
0000
0000
0000
0000
0000
0000
0000
0000
0000
0000
0000
0000
0000
0000
0000
0000
0000
0100
0000
0000
0000
0000
0000
0000
0000
0000
0010
0000
0000
0000
0000
0000
0000
0000
0000
0000
0000
0001
0000
0000
0000
0000
0000
0000
0000
1000
0000
0000
0000
0000
0000
0000
0000
0100
0000
0000
0000
0000
0000
0000
0000
0000
0000
0000
0000
0010
0000
0000
0000
0000
0000
0000
0000
0000
0001
0000
0000
0000
0000
0000
0000
0000
0000
0000
0000
0000
0000
0000
0000
1000
0000
0000
0000
0000
0000
0000
0000
0100
0000
0000
0000
0000
0000
0000
0000
0000
0000
0000
0000
0010
0000
0000
0000
0000
0000
0000
0000
0000
0000
0000
0000
0001
0000
0000
0000
0000
0000
0000
0000
0000
0000
0000
0000
0100
0000
0000
0000
0000
0000
0000
0000
0000
0000
0000
0000
0020
0000
0000
0000
0000
0000
0000
0000
0000
0000
0000
0000
0000
0000
0000
0000
,
0000
0000
0000
0000
0000
0000
0000
0000
0000
0000
0000
0000
0000
0000
0000
0000
0000
0000
0000
0000
0000
0000
0000
0000
0000
0000
0000
0000
0000
0000
0000
0000
0000
0000
0000
0000
0000
0000
0000
0000
0000
0000
0000
0000
0000
0000
0000
0000
0000
0000
0000
0000
0000
0000
0000
0000
0000
0000
0000
0000
0000
0000
0000
0000
0000
0000
0000
0000
0000
0000
0000
0000
0000
0000
0000
0000
0000
0000
0000
0000
0000
0000
0000
0000
0000
0000
0000
0000
0000
0000
0000
0000
0000
0000
0000
0000
0000
0000
0000
0000
0000
0000
0000
0000
0000
0000
0000
0000
0000
0000
0000
0000
0030
0000
0000
0000
0000
0000
0000
0000
0100
0000
0000
0000
0000
0000
0000
0000
0000
0000
0000
0000
0010
0000
0000
0000
0000
0000
0000
0000
0000
0100
0000
0000
0002
0000
0000
0000
0000
0000
0000
0000
0000
0000
0000
0000
0000
0000
0000
0000
0000
0000
0000
0000
0000
0000
0000
0000
0000
0000
0000
0000
0000
0000
0000
0000
0000
0000
0000
0000
0000
0000
0000
0000
0000
0000
0000
0000
0000
0000
0000
0000
,
0003
0000
0000
0000
0000
0000
0000
0000
0010
0000
0000
0000
0100
0000
0000
0000
1000
0000
0000
0000
0000
0000
0000
0000
0000
0000
0000
0000
1000
0000
0000
0000
0000
0000
0000
0000
0000
0000
0000
0000
0200
0000
0000
0000
0000
0000
0000
0000
0000
0000
0000
0000
0000
0000
0000
0000
0000
0000
0000
0000
0000
0000
0000
0000
0000
0000
0000
0000
0000
0000
0000
0000
0000
0000
0000
0000
0000
0000
0000
0000
0000
0000
0000
0000
0000
0000
0000
0000
0000
0000
0000
0000
0000
0000
0000
0000
0000
0000
0000
0000
0000
0000
0000
0000
0000
0000
0000
0000
0000
0000
0000
0000
0300
0000
0000
0000
0000
0020
0000
0000
0000
0000
0000
0000
0000
0000
0000
0000
0000
0000
0000
0000
0000
0000
0000
0000
0030
0000
0000
0000
0000
0000
0000
0000
0002
0000
0000
0000
0000
0000
0000
0000
0003
0000
0000
0000
0000
0000
0000
0000
0200
0000
0000
0000
0000
0000
0000
0000
0300
0000
0000
0001
0000
0000
0000
0000
0000
0000
0000
0000
0010
0000
0000
0000
0000
0000
0000
0000
0000
0000
0000
0000
,
0001
0000
0000
0000
0000
0000
0000
0000
0000
1000
0000
0000
0000
0000
0000
0000
0000
0000
0000
0000
0100
0000
0000
0000
0000
0000
0000
0000
0010
0000
0000
0000
0000
0000
0000
0000
0000
0000
0000
0000
0000
0000
0001
0000
0000
0000
0000
0000
0000
0000
0000
0000
0000
0000
1000
0000
0000
0000
0000
0000
0000
0000
0000
0100
0000
0000
0000
0000
0000
0000
0000
0000
0010
0000
0000
0000
0000
0000
0000
0000
0000
0001
0000
0000
0000
0000
0000
0000
0000
0000
0000
0000
1000
0000
0000
0000
0100
0000
0000
0000
0000
0000
0010
0000
0000
0000
0000
0000
0000
0000
0000
0000
0001
0000
0000
0000
0000
0000
0000
0000
1000
0000
0000
0000
0000
0000
0000
0000
0000
0000
0000
0000
0100
0000
0000
0000
0000
0000
0000
0000
0000
0000
0000
0000
0010
0000
0000
0000
0000
0000
0000
0000
0000
0000
0000
0000
0001
0000
0000
0000
0000
0000
0000
0000
0000
0000
0000
0000
0010
0000
0000
0000
0000
0000
0000
0000
0000
0000
0000
0000
0100
0000
0000
0000
0000
0000
0000
0000
0000
0000
0000
0000
,
1000
0010
0100
0001
0010
0100
1000
0100
0010
0001
1000
0100
1000
0100
1000
0010
,
0100
0001
0010
0001
0010
0001
2000
0000
0000
0000
0000
0000
3001
0010
0100
1000
,
0001
0010
0100
1000
0001
0010
0100
1000
0010
0100
0001
0010
0100
1000
0001
1000
,
0100
0010
0100
0010
0100
1000
0010
0100
0001
0010
0100
1000
0100
1000
0010
1000
,
0100
1000
0001
1000
0100
1000
0010
1000
0100
1000
0010
1000
0100
0010
0100
0010
,
0001
0010
0100
0010
0001
1000
0100
0010
0001
0100
0020
0000
0230
0000
0000
0000
,
0320
0230
0302
0000
2003
3200
2300
0000
,
3200
0000
0320
0000
0032
0000
0000
0000
0203
0000
0320
0000
1030
0100
0010
0100
,
1000
0001
0010
0100
0010
0001
1000
0001
0010
0100
1000
0001
1000
0100
0010
0100
,
1000
0001
0010
0100
1000
0100
0010
0100
1000
0001
0010
0100
1000
0100
1000
0010
,
0100
0001
0010
0100
1000
0010
0100
0001
1000
0100
0010
0001
1000
0100
0010
0001
,
0010
0100
0010
0100
1000
0100
0010
0100
0010
0001
0010
0100
1000
0001
0010
0100
,
1000
0100
0010
0001
0010
0001
0010
0100
0010
0001
0010
0100
1000
0100
0010
0100
,
0010
0001
0010
0100
2000
0000
0000
0000
0000
0000
3000
0000
1001
0000
0000
0000
,
0000
0001
1000
0001
0020
0000
0000
0000
0030
0000
0000
0000
1001
0000
0000
0000
,
0000
0000
0001
0010
0200
0000
0000
0000
0300
0000
0000
0000
1000
0100
0010
0100
,
0010
0100
0010
0001
0010
0100
1000
0100
0010
0100
0010
0001
0010
0100
0010
0100
,
1000
0000
0000
0100
0000
0000
0010
0000
0000
0001
0000
0000
1000
0000
0100
0000
0010
0000
0001
0000
1000
0000
0100
0000
0010
0000
0000
0001
0000
0000
0010
0000
0000
0100
0000
0000
0010
0000
0000
0100
0000
0000
0010
0000
0000
0100
0000
0000
,
0010
0000
0001
0010
0200
0000
0000
0000
2300
0000
3200
0000
0000
0000
0320
0000
,
0000
0030
0020
0000
0032
0000
0000
0000
0023
0000
0000
0000
0031
0010
0100
1000
,
0001
0010
0100
1000
0001
0010
0100
0010
0100
1000
0001
0010
0200
0000
0000
0000
,
0320
0032
2003
0000
3020
0230
2300
0000
,
3100
0000
0100
0010
0002
0000
0000
0003
0001
0000
0001
0010
0200
0000
0320
0000
,
0032
0000
2003
0000
3002
0000
0000
0000
0203
0000
0000
0300
0200
0000
1300
0100
,
0010
0100
1000
0001
0010
0100
1000
0001
0010
0100
1000
0001
0010
0100
1000
0100
,
0010
0100
0010
0100
1000
0001
0010
0100
1000
0001
0010
0100
1000
0100
0010
0001
,
1000
0100
0010
0001
1000
0100
0010
0001
1000
0100
0010
0001
1000
0100
0010
0001
,
1000
0000
0000
0100
0000
0000
0010
0000
0000
0001
0000
0000
1000
0000
0000
0100
0000
0000
0010
0000
0000
0001
0000
0000
1000
0000
0000
0100
0000
0000
0010
0000
0000
0001
0000
0000
2000
0000
0000
0000
0000
0000
0000
0000
0000
0000
3000
0000
,
0010
0100
0010
0001
0100
0010
0100
0001
1000
0010
1000
0010
1000
0010
1000
0001
,
0100
0001
0100
0010
1000
0001
0010
0100
1000
0001
0010
0100
1000
0100
0010
0100
,
1000
0100
0010
0001
0100
0010
1000
0010
0100
0010
0100
0010
1000
0100
0010
0100
,
1000
0010
0100
0001
0100
0010
1000
0010
0100
0010
0100
0001
0100
0010
1000
0100
,
0010
0001
0010
0100
1000
0100
0010
0001
0100
0001
0100
0001
0100
0001
0100
0001
,
0100
0010
0100
0001
0010
0100
0010
0001
0010
0100
1000
0010
1002
0000
1000
0000
,
0100
0000
1000
0000
1000
0000
0100
0000
1000
0000
0010
0010
1000
0000
1003
0000
,
0010
0000
0010
0000
0001
0000
0001
0000
0200
0000
0300
0000
0100
0001
0100
0001
,
0010
0100
0010
0100
1000
0100
0010
0001
0010
0001
0010
0001
0010
0001
0010
0001
,
0010
0001
0010
0001
0010
0001
0010
0001
0100
0010
1000
0100
0010
0001
0100
0010
,
1000
0010
0100
0001
0010
0100
1000
0100
0010
0100
1000
0001
0010
0100
1000
0010
,
0100
0001
0100
0001
0010
0100
1000
0100
0010
0100
0010
0001
1000
0100
0010
0001
,
0010
0100
1000
0100
0010
0100
1000
0100
1000
0001
0010
0100
0010
0001
0100
0001
,
0010
0100
0010
0100
1000
0001
1000
0001
1000
0001
1000
0001
0120
0000
0000
0000
,
0132
0000
1103
0000
0000
0000
0011
0000
1010
0000
0000
0000
0001
0000
0001
0010
,
0100
0000
0010
0000
0100
0000
1000
0000
0001
0000
0010
0000
0001
0010
0001
0010
,
0100
0010
0100
1000
0010
0100
0010
1000
0001
0100
0001
0100
0001
0100
0001
1000
,
0010
1000
0010
0100
0001
1000
0100
0010
0001
1000
0100
0010
0001
0010
0100
0010
,
0001
0010
0100
1000
0010
0100
0001
0100
0010
0100
0010
0100
0001
0010
0100
0010
,
0001
0100
0010
1000
0010
0100
0001
0100
0010
0100
0010
1000
0010
0100
0001
0010
,
0100
1000
0100
0010
0001
0010
0100
1000
0010
1000
0010
1000
0010
1000
0010
1000
,
0010
0100
0010
1000
0100
0010
0100
1000
0100
0010
0001
0100
1002
0000
1000
0000
,
0100
0000
1000
0000
1000
0000
0100
0000
1000
0000
0010
0010
1000
0000
1003
0000
,
0010
0000
0010
0000
0001
0000
0001
0000
0200
0000
0300
0000
1000
0001
1000
0001
,
0100
0010
0100
0010
1000
0001
0100
0001
0100
0001
0100
0001
0100
0001
0100
0001
,
0100
0001
0100
0001
0100
0001
0100
0001
1000
0100
0010
0001
0100
0001
1000
0100
,
0010
0100
1000
0001
0010
0100
0010
0001
1000
0001
0010
0001
0100
0010
1000
0100
,
1000
0001
1000
0001
0100
0010
0100
0001
0100
0001
0100
0001
0010
0100
0010
0001
,
1000
0100
0010
0001
1000
0100
0010
0001
0010
0001
0100
0010
0100
0001
1000
0001
,
0100
0010
1000
0001
0010
0001
0010
0001
0010
0001
0010
0001
1200
0000
0000
0000
,
1302
2013
0000
0100
0020
0000
0000
0000
,
0000
0000
0000
0000
0000
0000
3130
1000
0010
1000
0000
0100
0000
1000
0000
0010
0000
0000
0120
0000
0000
0000
0000
0000
,
0000
0000
0000
0000
1000
0000
0000
0030
0120
0000
0000
0000
0000
0000
0000
0000
,
0000
0000
0000
0000
0030
0000
0001
0100
,
1010
0001
0100
1000
1001
0100
0010
0100
,
0110
1000
0100
0001
0011
0100
0010
1000
,
0101
0000
0010
0000
1000
0000
0100
0000
1010
0000
1000
0100
0010
0000
0001
0000
,
1001
0100
0010
1000
1200
1000
0310
0001
,
0101
0100
1000
0100
0110
0010
1000
0100
,
1100
1000
0010
1000
1001
0001
0100
1000
,
0011
0000
0000
0001
0000
0000
1000
0000
0000
0100
0000
0000
2100
0000
0000
0000
0000
0000
3001
0000
0010
0000
0100
0000
,
1000
0000
0001
0000
0010
0000
0100
0000
1000
0000
0001
0000
0010
0000
0100
0000
1000
0000
0101
0000
0000
0010
0000
0000
,
1100
0001
0011
0100
0101
0010
1001
0010
,
1010
0100
1010
0001
1001
0010
1010
0100
,
0011
0000
1000
0000
0110
0000
0010
0000
1100
0000
0100
0010
0101
0000
0001
0000
,
0101
0010
1010
0100
0120
0100
1031
0001
,
0011
0010
0110
0010
1010
1000
0101
0010
,
0110
0100
1100
0100
0101
0001
0011
0100
,
1001
0000
0001
0000
1100
0000
0010
0000
0110
0000
0001
0010
1001
0000
1000
0000
,
1000
0100
0010
0010
1000
0010
0010
0010
,
1000
0010
0000
0000
0000
0000
0000
0000
;

//---------------dance-single - CHALLENGE----------------
#NOTES:
     dance-single:
     CHALLENGE:
     Challenge:
     12:
     1.000,1.000,1.000,0.509,1.000,2154.000,416.000,152.000,0.000,27.000:
0001
0001
0100
0001
0001
0100
0001
0001
,
0100
0100
0010
0010
0001
0010
0100
1000
,
0010
0000
0010
0000
1000
0000
0010
0000
0010
0000
1000
0000
0010
0000
0010
0100
,
1000
1000
0001
0001
0010
0200
2300
3000
,
0100
0100
0001
0100
0100
0001
0100
0100
,
0001
0001
1000
1000
0100
1000
0001
0010
,
1000
0000
1000
0000
0010
0000
1000
0000
1000
0000
0010
0000
1000
0000
1000
0001
,
0010
0010
0100
0100
1000
0001
0100
0010
,
1000
1000
0100
0010
1001
0100
0101
0010
,
1010
0001
0011
1000
1001
0010
0110
1000
,
1010
0001
0101
0010
1010
0100
0110
0001
,
0101
0000
0010
0000
1010
0000
0100
0010
0101
0000
0010
0000
0110
0000
1000
0000
,
1001
0010
2010
0000
3101
0001
0101
0100
,
0110
0010
1010
1000
1001
0001
0011
0010
,
0110
0100
0101
0001
0011
0010
1010
1000
,
1001
0000
0000
0001
0000
0000
0201
0000
0000
0300
0000
0000
0001
0000
0010
0000
0100
0000
1000
0000
0001
0000
0010
0000
,
0100
0000
1000
0000
0001
0000
0010
0000
0100
0000
1000
0000
0001
0000
0000
0010
0000
0000
1100
0000
0000
0001
0000
0000
,
0010
0100
0101
0010
1000
0010
1010
0100
,
0010
0001
1001
0010
1000
0100
0011
1000
,
0100
0000
0010
0000
1100
0000
0100
0010
0001
0000
0001
0000
0101
0000
0010
0000
,
1000
0100
0120
0100
1030
0001
0011
0010
,
0100
0010
1010
1000
0100
0010
0110
0100
,
1000
0100
0101
0001
0010
0100
1001
0001
,
0100
0000
0010
0000
0210
0000
0000
0000
1300
0100
1000
0100
1000
0010
1000
0010
,
1000
0100
0010
0001
0100
0010
0100
0010
0100
0000
0001
0000
1010
0000
0001
0000
,
0100
0010
1100
1000
0100
0010
0101
0010
,
0100
0001
1010
0100
0010
0100
0011
0010
,
0100
0000
1000
0000
1001
0000
1000
0010
0100
0000
0010
0000
0110
0000
0001
0000
,
1000
0001
1010
0100
0001
0001
0100
0001
,
0001
0100
0001
0001
0100
0100
0010
0010
,
0001
0010
0100
1000
0010
0010
1000
0010
,
0010
0000
1000
0000
0010
0000
0010
0100
1000
0000
1000
0000
0001
0000
0001
0000
,
0100
0100
0010
0010
2002
0000
0000
0000
,
0203
0000
0000
0000
,
0302
0000
0000
0000
0023
0000
0000
0000
3130
0000
0100
0000
0000
0000
1000
0100
,
1010
0000
0010
0000
0110
0000
1000
0100
1010
0000
0011
0000
0000
0000
0110
0001
,
1010
0000
0010
0000
0000
0000
0001
0010
0100
0000
0100
0000
0110
0000
0011
0100
,
1000
0000
1000
0000
1010
0000
0010
0100
1001
0000
1000
0000
0000
0000
0011
0100
,
1010
0000
0010
0000
1010
0000
0001
0100
0010
0000
0010
0000
0000
0000
0001
0100
,
1010
0000
0010
0000
0011
0000
0001
0010
1100
0000
0100
0000
1001
0000
1000
0100
,
0011
0010
0101
0000
0102
0000
0100
0000
,
1000
1000
0100
0000
1000
1000
0100
0000
,
0113
0000
0000
0000
0110
0000
0000
0000
0000
0000
0000
0000
0101
0000
0011
0100
,
0010
0000
0000
0000
0000
0000
0010
0000
0000
0000
0000
0000
1100
0000
0000
0000
0000
0000
0010
0000
0000
0100
0000
0000
0011
0000
0000
0000
0000
0000
0010
0000
0101
0000
0000
0000
0000
0000
0000
0000
0011
0000
1000
0000
0000
0001
0000
0000
,
0110
0000
0010
0000
0000
0000
1000
0001
0010
0000
0010
0000
0000
0000
0011
0100
,
1001
0000
0001
0000
1001
0000
1000
0100
0011
0000
0010
0000
0000
0000
0110
1000
,
0101
0000
0001
0000
0101
0000
0100
0010
1000
0000
1000
0000
0000
0000
0010
0001
,
1100
0000
0100
0000
0110
0000
1000
0100
1001
0000
0001
0000
0000
0000
1001
0100
,
1010
0010
0101
0000
0210
0000
0010
0000
,
0001
0001
0310
0000
0000
0000
0011
1001
,
0000
0000
0000
1100
0000
0000
0000
0000
1010
0000
0000
0000
0000
0000
0000
0000
,
0011
0101
0011
0000
0000
0000
0011
0101
,
0000
0000
0000
1001
0000
0000
0000
0000
1100
0000
0000
0000
0000
0000
0000
0000
,
0110
1100
0102
0000
0000
0000
0000
0000
,
0000
0000
0000
0000
0000
0000
0003
0000
0001
0010
0001
0010
1001
0100
0010
0001
,
1100
0001
0010
0100
1020
0100
1000
0100
0001
0100
0001
0100
1000
0100
1000
0100
,
0001
0100
1000
0100
0031
0100
1000
0100
0010
0100
0010
0001
1010
0100
0010
0100
,
1001
0010
0100
0010
1002
0100
0010
0100
1003
0001
0010
0001
1100
0001
0110
1000
,
0100
0010
0100
0011
0100
1000
0100
0010
0001
0100
0010
1000
0110
0001
1000
0010
,
0101
0010
0001
0010
1200
0010
0001
0010
0001
0010
0001
0010
0301
0010
0100
1000
,
0011
0100
1000
0100
0010
0001
1100
0001
2010
0000
0010
0000
0010
0000
0001
0000
,
0001
0000
0001
0000
0100
0000
0001
0010
0100
0000
0001
0000
3010
0000
0100
0000
,
0010
0000
0001
0000
2000
0000
0000
3000
0010
0001
1000
0100
1010
0100
1000
0100
,
0011
0100
0010
0001
0120
0001
1000
0100
1000
0001
1000
0100
1000
0100
0001
0100
,
1000
0100
0001
1000
0031
0010
0100
0010
0100
1000
0001
0100
0011
0100
0010
0001
,
1010
0100
0010
0001
0110
1000
0100
0010
0100
0010
0001
0010
0100
0010
1001
0100
,
1010
0100
0010
0100
1000
0011
0100
0010
0001
1000
0100
0010
1001
0010
0100
1000
,
0110
0001
0010
0001
0110
1000
0100
0010
1001
0010
0100
1000
0011
0100
0010
0100
,
1002
0100
0010
0100
0010
0100
1000
0100
0123
0000
0000
0000
0132
0000
0213
0000
,
0000
0000
0000
1010
0000
0000
0011
0000
0000
0000
0000
0000
1000
0000
0010
0000
0001
0000
0010
0000
0001
0000
0010
0000
,
1000
0000
0001
0000
1000
0000
0301
0000
0010
0000
0100
0000
0001
0000
0000
0001
0000
0000
1000
0000
0000
0001
0000
0000
,
0001
1000
0001
0001
0001
0010
0001
1000
,
0100
0000
1000
0000
0001
0000
0010
0000
0100
0000
0000
0000
0200
0000
0310
0001
,
0100
0010
1000
0100
0001
1000
0010
0001
0100
0010
1000
0100
0001
1000
0010
0001
,
0200
0000
0320
0000
0030
0000
0001
0001
,
0100
0001
0001
0100
0001
0001
0100
0100
,
0010
0010
0001
0010
0100
1000
0010
0010
,
1000
0000
0010
0000
0010
0000
1000
0000
0010
0000
0010
0100
1000
0000
1000
0000
,
0001
0001
0010
0200
2300
3000
0100
0100
,
0000
0000
0010
0001
0110
0000
0010
0000
1100
0000
0100
1000
0011
0000
0010
0000
,
0000
0000
1010
0001
1100
0000
0100
0000
0000
0000
0001
1000
0010
0000
0010
0000
,
0101
0000
1100
0010
0100
0000
0100
0000
0110
0000
0001
1000
0110
0000
0100
0000
,
0000
0000
1100
0001
0110
0000
0100
0000
0110
0000
1000
0100
0010
0000
0010
0000
,
0000
0000
0001
0100
1010
0000
0010
0000
0110
0000
0100
0001
1010
0000
1000
0000
,
1100
0000
0010
0100
1001
0000
1000
0000
0110
0000
0000
0000
0012
0000
0000
0000
,
0100
0000
0000
0000
0000
0000
1000
0000
0000
1000
0000
0000
0100
0000
0000
0000
0000
0000
1000
0000
0100
0000
0010
0000
,
0103
0010
0001
2000
0000
0000
0000
3000
0000
0011
0000
0000
,
1001
0000
1100
0010
0100
0000
0100
0000
0101
0000
1000
0100
0011
0000
0110
0000
,
0000
0000
0011
0100
0011
0000
0101
0000
0101
0000
0011
0100
1001
0000
1010
0000
,
1100
0000
0000
0000
0000
0000
0001
0000
0000
0100
0000
0000
1010
0000
0000
0000
0000
0000
0011
0000
0000
0000
0000
0000
0101
0000
0000
0000
0000
0000
0010
0000
0000
0100
0000
0000
1020
0000
0000
0000
0030
0000
0021
0000
0000
0000
0030
0000
,
0201
0000
0000
0000
0300
0000
0010
0000
0000
0100
0000
0000
1020
0000
0000
0030
0000
0000
0021
0000
0000
0030
0000
0000
0201
0000
0000
0300
0000
0000
0001
0000
0000
1000
0000
0000
0001
0000
0000
0000
0000
0000
0001
0000
0000
0000
0000
0000
,
0000
0000
0010
1000
0110
0000
0100
0000
1100
0000
0010
0100
1001
0000
0001
0000
,
0000
0000
1001
0010
0101
0000
0100
0000
0011
0000
0000
0000
2010
0000
0000
0000
,
0010
0000
0001
0010
3100
0000
0000
0000
,
0110
0000
1001
0000
0000
0000
0000
1100
0000
0000
0000
0000
1100
0000
0000
0000
,
0000
0000
1010
0101
1010
0000
0000
0000
,
1100
0000
1001
0000
0000
0000
0000
1001
0000
0000
0000
0000
1100
0000
0000
0000
,
0000
0000
1010
1010
0012
0000
0000
0000
,
0000
0000
0000
0000
0000
0000
0000
0000
0000
0000
0003
0000
1000
0100
1000
0100
,
0011
0100
0010
0001
1100
0010
0100
1000
0021
1000
0001
1000
0100
1000
0100
0001
,
0100
0001
0100
1000
0001
1000
0001
0100
1030
0001
0010
0100
1000
0100
0010
0100
,
1001
0100
0010
1000
0101
0010
1000
0010
0201
1000
0001
0010
1300
0100
0010
0100
,
1001
0010
0101
1000
0100
0010
0001
1010
0100
0010
0001
1000
0100
0010
0001
0010
,
1001
0100
0010
0001
1100
0010
0001
0010
1200
0001
1000
0001
1000
0010
0001
0010
,
0301
0010
0100
0001
1010
0100
0010
0001
0010
0100
1001
0010
1002
0000
1000
0000
,
0100
0000
1000
0000
1000
0000
0100
0000
1000
0000
0010
0100
1000
0000
1000
0000
,
0013
0000
0010
0000
0001
0000
0001
0000
0200
0000
0300
0000
0100
0001
0100
0001
,
1010
0100
0010
0100
1001
0100
0010
0001
0120
0001
1000
0001
1000
0001
0100
1000
,
0100
1000
0100
0001
0100
0001
0100
1000
0130
0010
0001
1000
0100
0010
0100
0010
,
1001
0010
0100
0010
1100
0001
0010
0100
0011
0100
1000
0001
0010
0100
1000
0010
,
0101
0010
1100
0001
0010
0100
0001
1010
0100
0010
0100
1000
0010
0100
0001
0010
,
0101
1000
0100
0010
1100
0010
0100
0010
1001
0100
1000
0001
0110
1000
0100
0001
,
1010
0100
0010
1000
0102
0010
1000
0100
0010
1000
0100
1000
0123
0000
0000
0000
,
0132
1203
0000
0011
1002
0000
0000
0000
,
0000
0000
0000
0000
0000
0000
0000
0000
0000
0000
0000
0000
0310
0000
0100
0000
1000
0000
0100
0000
0000
0000
0010
0000
0000
0000
0100
0000
0000
0000
1000
0000
0000
0003
0000
0000
0120
0000
0000
0000
0000
0000
0000
0000
0000
0000
0000
0000
,
0000
0000
0000
0000
1000
0000
0000
0030
0120
0000
0000
0000
0000
0000
0000
0000
,
0000
0000
0000
0000
0000
0000
0000
0030
,
1001
1001
0101
0000
0011
0101
1010
0000
,
1001
0011
1100
0000
0101
0000
2200
0000
,
0000
3300
0220
0000
0000
0330
2002
0000
,
0000
0000
0000
3003
0000
0000
1000
0000
0100
0000
0010
0000
0001
0000
1000
0000
0100
0000
0010
0000
0000
0000
0000
0000
,
0101
1010
1100
0000
0011
1100
1001
0000
,
0011
0110
1010
0000
0101
0000
0202
0000
,
0000
0303
0220
0000
0000
0330
2200
0000
,
0000
3300
2200
0000
0000
3300
0011
0000
,
0101
1010
1001
0000
1010
1100
0011
0000
,
0101
0110
1001
0000
0101
0000
2002
0000
,
0000
3003
2200
0000
0000
3300
0202
0000
,
0000
0000
0000
0303
0000
0000
0001
0000
0010
0000
0100
0000
1000
0000
0001
0000
0010
0000
0100
0000
0000
0000
0000
0000
,
0110
0110
0101
0000
0110
0101
1100
0000
,
1100
1100
0110
0000
1001
0000
2002
0000
,
0000
3003
2200
0000
0000
3300
2020
0000
,
0000
0000
0000
0000
0000
0000
0000
0000
3030
0000
0000
0000
0000
0000
0000
0000
0022
0000
0000
0000
0000
0000
0000
0000
0000
0000
0000
0000
0000
0000
0000
0000
0000
0000
0000
0000
0000
0000
0000
0000
0033
0000
0000
0000
0000
0000
0000
0000
0110
0000
0000
0000
0000
0000
1000
0000
0100
0000
0010
0000
0000
0000
0000
0001
,
0000
0000
0000
0010
0000
0000
0000
0000
0000
0100
0000
0000
0000
0000
0000
0000
0000
0000
0000
0000
0000
1000
0000
0000
0000
0000
0000
0000
0000
0000
0000
0000
0000
0000
0000
0000
0001
0000
0000
0000
0000
0000
0010
0000
0000
0000
0000
0000
0000
0000
0000
0100
0000
0000
0000
0000
0000
0000
0000
0000
0000
0000
0000
0000
0000
0000
0010
0000
0000
0000
0000
0000
0000
0000
0000
0000
0000
0000
0001
0000
0000
0000
0000
0000
0000
0000
0000
0000
0100
0000
0000
0000
0000
0000
0000
0000
0001
0000
0000
0000
0000
0000
0000
0000
0000
0010
0000
0000
0000
0000
0000
0000
0000
0000
0100
0000
0000
0000
0000
0000
1000
0000
0000
0000
0000
0000
0000
0000
0001
0000
0000
0000
0000
0000
0000
0000
0000
0000
0010
0000
0000
0000
0000
0000
0000
0000
0000
0100
0000
0000
0000
0000
0000
0000
0000
0000
0010
0000
0000
0000
0000
0000
0000
0000
0000
0001
0000
0000
0000
0000
0000
0000
0000
0000
1000
0000
0000
0000
0000
0000
0000
0000
0000
0100
0000
0000
0000
0000
0000
0000
0000
0000
,
0010
0000
0000
0000
0000
0000
0000
0000
0000
0000
0000
0000
0001
0000
0000
0000
0000
0000
0000
0000
0000
0100
0000
0000
0000
0000
0000
0000
0000
0000
0010
0000
0000
0000
0000
0000
0000
0000
0000
0000
0100
0000
0000
0000
0000
0000
0000
0000
0000
0000
0000
0000
0001
0000
0000
0000
0000
0000
0000
0000
0000
0000
0000
0000
0010
0000
0000
0000
0000
0000
0000
0000
0000
0000
0000
0000
0100
0000
0000
0000
0000
0000
0000
0000
0000
0000
0000
1000
0000
0000
0000
0000
0000
0000
0000
0000
0000
0000
0000
0010
0000
0000
0000
0000
0000
0000
0000
0000
0100
0000
0000
0000
0000
0000
0000
0000
0000
0001
0000
0000
0000
0000
0000
0000
0000
0000
0010
0000
0000
0000
0000
0000
0000
0000
0000
0100
0000
0000
0000
0000
0000
0000
0000
0000
0000
0000
0000
1000
0000
0000
0000
0000
0000
0000
0000
0000
0100
0000
0000
0000
0000
0000
0000
0000
0000
0000
0000
0000
0010
0000
0000
0000
0000
0000
0000
0000
0000
0001
0000
0000
0000
0000
0000
0000
0000
0000
1000
0000
0000
0000
0000
0000
,
0000
0000
0000
0000
0001
0000
0000
0000
0000
0000
0000
0000
0000
0000
0000
0010
0000
0000
0000
0000
0000
0100
0000
0000
0000
0000
0000
0000
0000
0000
1000
0000
0000
0000
0000
0000
0000
0000
0000
0000
0000
0000
0000
0000
0000
0000
0000
0000
0100
0000
0000
0000
0000
0000
0000
0000
0000
0010
0000
0000
0000
0000
0000
0000
0000
0000
0000
0000
0001
0000
0000
0000
0000
0000
0000
0000
1000
0000
0000
0000
0000
0000
0000
0000
0100
0000
0000
0000
0000
0000
0000
0000
0000
0000
0000
0000
0010
0000
0000
0000
0000
0000
0000
0000
0000
0001
0000
0000
0000
0000
0000
0000
0000
0000
0000
0000
0000
0000
0000
0000
1000
0000
0000
0000
0000
0000
0000
0000
0100
0000
0000
0000
0000
0000
0000
0000
0000
0000
0000
0000
0010
0000
0000
0000
0000
0000
0000
0000
0000
0000
0000
0000
0001
0000
0000
0000
0000
0000
0000
0000
0000
0000
0000
0000
0100
0000
0000
0000
0000
0000
0000
0000
0000
0000
0000
0000
0020
0000
0000
0000
0000
0000
0000
0000
0000
0000
0000
0000
0000
0000
0000
0000
,
0000
0000
0000
0000
0000
0000
0000
0000
0000
0000
0000
0000
0000
0000
0000
0000
0000
0000
0000
0000
0000
0000
0000
0000
0000
0000
0000
0000
0000
0000
0000
0000
0000
0000
0000
0000
0000
0000
0000
0000
0000
0000
0000
0000
0000
0000
0000
0000
0000
0000
0000
0000
0000
0000
0000
0000
0000
0000
0000
0000
0000
0000
0000
0000
0000
0000
0000
0000
0000
0000
0000
0000
0000
0000
0000
0000
0000
0000
0000
0000
0000
0000
0000
0000
0000
0000
0000
0000
0000
0000
0000
0000
0000
0000
0000
0000
0000
0000
0000
0000
0000
0000
0000
0000
0000
0000
0000
0000
0000
0000
0000
0000
0030
0000
0000
0000
0000
0000
0000
0000
0100
0000
0000
0000
0000
0000
0000
0000
0000
0000
0000
0000
0010
0000
0000
0000
0000
0000
0000
0000
0000
0100
0000
0000
0002
0000
0000
0000
0000
0000
0000
0000
0000
0000
0000
0000
0000
0000
0000
0000
0000
0000
0000
0000
0000
0000
0000
0000
0000
0000
0000
0000
0000
0000
0000
0000
0000
0000
0000
0000
0000
0000
0000
0000
0000
0000
0000
0000
0000
0000
0000
0000
,
0003
0000
0000
0000
0000
0000
0000
0000
0010
0000
0000
0000
0100
0000
0000
0000
1000
0000
0000
0000
0000
0000
0000
0000
0000
0000
0000
0000
1000
0000
0000
0000
0000
0000
0000
0000
0000
0000
0000
0000
0200
0000
0000
0000
0000
0000
0000
0000
0000
0000
0000
0000
0000
0000
0000
0000
0000
0000
0000
0000
0000
0000
0000
0000
0000
0000
0000
0000
0000
0000
0000
0000
0000
0000
0000
0000
0000
0000
0000
0000
0000
0000
0000
0000
0000
0000
0000
0000
0000
0000
0000
0000
0000
0000
0000
0000
0000
0000
0000
0000
0000
0000
0000
0000
0000
0000
0000
0000
0000
0000
0000
0000
0300
0000
0000
0000
0000
0020
0000
0000
0000
0000
0000
0000
0000
0000
0000
0000
0000
0000
0000
0000
0000
0000
0000
0000
0030
0000
0000
0000
0000
0000
0000
0000
0002
0000
0000
0000
0000
0000
0000
0000
0003
0000
0000
0000
0000
0000
0000
0000
0200
0000
0000
0000
0000
0000
0000
0000
0300
0000
0000
0001
0000
0000
0000
0000
0000
0000
0000
0000
0010
0000
0000
0000
0000
0000
0000
0000
0000
0000
0000
0000
,
0001
0000
0000
0000
0000
0000
0000
0000
0000
1000
0000
0000
0000
0000
0000
0000
0000
0000
0000
0000
0100
0000
0000
0000
0000
0000
0000
0000
0010
0000
0000
0000
0000
0000
0000
0000
0000
0000
0000
0000
0000
0000
0001
0000
0000
0000
0000
0000
0000
0000
0000
0000
0000
0000
1000
0000
0000
0000
0000
0000
0000
0000
0000
0100
0000
0000
0000
0000
0000
0000
0000
0000
0010
0000
0000
0000
0000
0000
0000
0000
0000
0001
0000
0000
0000
0000
0000
0000
0000
0000
0000
0000
1000
0000
0000
0000
0100
0000
0000
0000
0000
0000
0010
0000
0000
0000
0000
0000
0000
0000
0000
0000
0001
0000
0000
0000
0000
0000
0000
0000
1000
0000
0000
0000
0000
0000
0000
0000
0000
0000
0000
0000
0100
0000
0000
0000
0000
0000
0000
0000
0000
0000
0000
0000
0010
0000
0000
0000
0000
0000
0000
0000
0000
0000
0000
0000
0001
0000
0000
0000
0000
0000
0000
0000
0000
0000
0000
0000
0010
0000
0000
0000
0000
0000
0000
0000
0000
0000
0000
0000
0100
0000
0000
0000
0000
0000
0000
0000
0000
0000
0000
0000
,
1000
0010
0100
0001
0010
0100
1000
0100
0010
0001
1000
0100
1000
0100
1000
0010
,
0100
0001
0010
0001
0010
0001
2000
0000
0000
0000
0000
3000
0001
0010
0100
1000
,
0001
0010
0100
1000
0001
0010
0100
1000
0010
0100
1000
0001
0010
0100
1000
0100
,
0010
0001
1000
0100
0010
0001
0010
0100
1000
0010
0100
1000
0100
1000
0010
1000
,
0100
1000
0001
1000
0100
1000
0010
1000
0100
1000
0010
1000
0100
0010
0100
0010
,
0001
0010
0100
0010
0001
1000
0100
0010
0001
0100
0020
0000
0230
0000
0000
0000
,
0320
0230
0302
0000
2003
3200
2300
0000
,
3200
0000
0320
0000
0032
0000
0000
0000
0203
0000
0320
0000
1030
0100
0010
0100
,
1000
0001
0010
0100
0010
0001
1000
0001
0010
0100
1000
0001
1000
0100
0010
0100
,
1000
0001
0010
0100
1000
0100
0010
0100
1000
0001
0010
0100
1000
0100
1000
0010
,
0100
0001
0010
0100
1000
0010
0100
0001
1000
0100
0010
0001
1000
0100
0010
0001
,
0010
0100
0010
0100
1000
0100
0010
0100
0010
0001
0010
0100
1000
0001
0010
0100
,
1000
0100
0010
0001
0010
0001
0010
0100
0010
0001
0010
0100
1000
0100
0010
0100
,
0010
0001
0010
0100
2000
0000
0000
0000
0000
0000
3000
0000
1001
0000
0000
0000
,
0000
0001
1000
0001
0020
0000
0000
0000
0030
0000
0000
0000
1001
0000
0000
0000
,
0000
0000
0001
0010
0200
0000
0000
0000
0300
0000
0000
0000
1000
0100
0010
0100
,
0010
0100
0010
0001
0010
0100
1000
0100
0010
0100
0010
0001
0010
0100
0010
0100
,
1000
0000
0000
0100
0000
0000
0010
0000
0000
0001
0000
0000
1000
0000
0100
0000
0010
0000
0001
0000
1000
0000
0100
0000
0010
0000
0000
0001
0000
0000
2010
0000
0000
0100
0000
0000
0010
0000
0000
0100
0000
0000
0010
0000
0000
0100
0000
0000
,
3010
0000
0001
0010
0200
0000
0000
0000
2300
0000
3200
0000
0000
0000
0320
0000
,
0000
0030
0020
0000
0032
0000
0000
0000
0023
0000
0000
0000
0031
0010
0100
1000
,
0001
0010
0100
1000
0001
0010
0100
0010
0100
1000
0001
0010
0200
0000
0000
0000
,
0320
0032
2003
0000
3020
0230
2300
0000
,
3100
0000
0100
0010
0002
0000
0000
0003
0001
0000
0001
0010
0200
0000
0320
0000
,
0032
0000
2003
0000
3002
0000
0000
0000
0203
0000
0000
0300
0200
0000
1300
0100
,
0010
0100
1000
0001
0010
0100
1000
0001
0010
0100
1000
0001
0010
0100
1000
0100
,
0010
0100
0010
0100
1000
0001
0010
0100
1000
0001
0010
0100
1000
0100
0010
0001
,
1000
0100
0010
0001
1000
0100
0010
0001
1000
0100
0010
0001
1000
0100
0010
0001
,
1000
0100
0010
0001
1000
0100
0010
0001
1000
0100
0010
0001
2000
0000
0000
3000
,
0101
1000
0100
0001
1010
0100
1000
0010
0201
0010
0001
0010
1000
0010
1000
0001
,
1000
0001
1000
0010
0001
0010
0001
1000
0310
0001
0100
1000
0010
1000
0100
1000
,
0011
1000
0100
0010
1001
0100
0010
0100
2001
0010
0001
0100
3010
1000
0100
1000
,
0011
0100
1001
0010
1000
0100
0001
0110
1000
0100
0001
0010
1000
0100
0001
0100
,
0011
1000
0100
0001
1010
0100
0001
0100
2010
0001
0010
0001
0010
0100
0001
0100
,
3001
0100
1000
0001
0110
1000
0100
0001
0100
1000
0011
0100
0012
0000
0010
0000
,
1000
0000
0010
0000
0010
0000
1000
0000
0010
0000
0100
1000
0010
0000
0010
0000
,
0103
0000
0010
0000
0001
0000
0001
0000
0200
0000
0300
0000
0100
0001
0100
0001
,
1100
0010
1000
0010
0101
0010
1000
0001
2010
0001
0100
0001
0100
0001
0010
0100
,
0010
0100
0010
0001
0010
0001
0010
0100
3010
1000
0001
0100
0010
1000
0010
1000
,
0101
1000
0010
1000
0110
0001
1000
0010
1001
0010
0100
0001
1000
0010
0100
1000
,
0011
1000
0110
0001
1000
0010
0001
1100
0010
1000
0010
0100
1000
0010
0001
1000
,
0011
0100
0010
1000
0110
1000
0010
1000
0101
0010
0100
0001
1010
0100
0010
0001
,
1100
0010
1000
0100
0012
1000
0100
0010
1000
0100
0010
0100
0010
0000
0000
0000
,
1010
0000
0110
0000
0003
0000
1002
0000
1203
0000
0000
0000
1000
0000
0001
1000
,
0010
0000
1000
0000
0001
0000
1300
0000
0010
0000
0100
0000
0100
0010
0100
0010
,
1001
0010
1000
0001
0110
1000
0010
0100
2001
0100
0001
0100
0010
0100
0010
0001
,
0010
0001
0010
0100
0001
0100
0001
0010
3100
0001
1000
0010
0100
0010
1000
0010
,
0101
0010
1000
0100
0011
1000
0100
1000
0021
0100
0001
1000
0130
0010
1000
0010
,
0101
1000
0011
0100
0010
1000
0001
1100
0010
1000
0001
0100
0010
1000
0001
1000
,
0101
0010
1000
0001
0110
1000
0001
1000
0120
0001
0100
0001
0100
1000
0001
1000
,
0031
1000
0010
0001
1100
0010
1000
0001
1000
0010
0101
1000
0102
0000
0100
0000
,
0010
0000
0100
0000
0100
0000
0010
0000
0100
0000
1000
0010
0100
0000
0100
0000
,
1003
0000
0010
0000
0001
0000
0001
0000
0200
0000
0300
0000
0100
0001
0100
0001
,
0110
1000
0100
1000
0011
1000
0100
0001
1200
0001
0010
0001
0010
0001
1000
0010
,
1000
0010
1000
0001
1000
0001
1000
0010
1300
0100
0001
0010
1000
0100
1000
0100
,
0011
0100
1000
0100
1010
0001
0100
1000
0101
1000
0010
0001
0100
1000
0010
0100
,
1001
0100
1010
0001
0100
1000
0001
0110
1000
0100
1000
0010
0100
1000
0001
0100
,
1001
0010
1000
0100
1010
0100
1000
0100
0011
1000
0010
0001
1100
0010
1000
0001
,
0110
1000
0100
0010
1002
0010
1000
0100
0010
1000
0100
1000
0123
0000
0000
0000
,
0132
1203
0000
0011
1002
0000
0000
0000
,
0000
0000
0000
0000
0000
0000
0000
0000
0000
0000
0000
0000
0310
0000
0100
0000
1000
0000
0100
0000
0000
0000
0010
0000
0000
0000
0100
0000
0000
0000
1000
0000
0000
0003
0000
0000
0120
0000
0000
0000
0000
0000
0000
0000
0000
0000
0000
0000
,
0000
0000
0000
0000
1000
0000
0000
0030
0120
0000
0000
0000
0000
0000
0000
0000
,
0000
0000
0000
0000
0030
0000
0001
0100
,
1010
0001
0100
1000
1001
0100
0010
0100
,
0110
1000
0100
0001
0011
0100
0010
1000
,
0101
0000
0010
0000
1000
0000
0100
0000
1010
0000
1000
0100
0001
0000
0001
0000
,
1001
0100
0010
1000
1200
1000
0310
0001
,
0101
0100
1000
0100
0110
0010
1000
0100
,
1100
1000
0010
1000
1001
0001
0100
1000
,
0011
0000
0000
0001
0000
0000
1000
0000
0000
0100
0000
0000
2100
0000
0000
0000
0000
0000
3001
0000
0010
0000
0100
0000
,
1000
0000
0001
0000
0010
0000
0100
0000
1000
0000
0001
0000
0010
0000
0100
0000
1000
0000
0101
0000
0000
0010
0000
0000
,
1100
0001
0011
0100
0101
0010
1001
0010
,
1010
0100
1010
0001
1001
0010
1010
0100
,
0011
0000
1000
0000
0110
0000
0010
0000
1100
0000
0100
0010
0101
0000
0001
0000
,
0101
0010
1010
0100
0120
0100
1031
0001
,
0011
0010
0110
0010
1010
1000
0101
0010
,
0110
0100
1100
0100
0101
0001
0011
0100
,
1001
0000
0001
0000
1100
0000
0010
0000
0110
0000
0001
0010
1001
0000
1000
0000
,
1000
0100
0010
0010
1000
0010
0010
0010
,
1000
0010
0000
0000
0000
0000
0000
0000
;
