#TITLE:[2-3] Sea of Love;
#SUBTITLE:;
#ARTIST:Frisco;
#TITLETRANSLIT:;
#SUBTITLETRANSLIT:;
#ARTISTTRANSLIT:;
#CREDIT:;
#BANNER:../Beast 4 - bn.png;
#BACKGROUND:../Beast 4 - bg.png;
#LYRICSPATH:;
#CDTITLE:;
#MUSIC:Sea of Love.ogg;
#OFFSET:0.010;
#SAMPLESTART:101.762;
#SAMPLELENGTH:12.000;
#SELECTABLE:YES;
#DISPLAYBPM:176.000;
#BPMS:0.000=175.040,4.000=175.240,20.000=175.575,36.000=176.125,52.000=175.870,60.000=175.615,68.000=175.310,84.000=175.664,100.000=175.775,132.000=175.750,148.000=175.850,156.000=175.780,164.000=175.700,172.000=175.600,180.000=176.200,188.000=175.580,204.000=175.600,220.000=176.140,236.000=175.790,252.000=175.785,268.000=175.560,276.000=175.280,300.000=175.273,316.000=175.220,332.000=176.300,348.000=176.295,364.000=176.270,372.000=175.785,380.000=175.800,388.000=175.950,404.000=175.830,412.000=176.080,420.000=176.135,428.000=176.570,444.000=175.950,460.000=176.030,476.000=175.870,484.000=175.600,492.000=176.000,500.000=176.250,508.000=176.640,524.000=176.760,540.000=176.540,548.000=176.500,556.000=176.280,564.000=175.960,580.000=175.900,588.000=175.780,596.000=176.080,604.000=176.350,612.000=176.460,628.000=176.480,636.000=175.990,644.000=175.400,652.000=175.285,660.000=175.200,668.000=175.060,676.000=175.070,688.000=175.500;
#STOPS:;
#BGCHANGES:;
// cache tags:
#FIRSTBEAT:0.000;
#LASTBEAT:691.625;
#SONGFILENAME:Songs/Beast Aoreo BEAST! 4/Sea of Love - [Aoreo]/Sea of Love.sm;
#HASMUSIC:1;
#HASBANNER:1;
#MUSICLENGTH:236.103;
// end cache tags

//---------------dance-single - J. Nero----------------
#NOTES:
     dance-single:
     J. Nero:
     Challenge:
     15:
     1.000,1.000,0.004,0.047,1.000,2101.000,1.000,11.000,4.000,0.000:
1000
0000
0001
0100
0001
0000
1000
0100
0000
1000
0001
0000
0010
0000
0000
0000
,
0110
0100
1000
0001
1000
0000
0001
0000
,
0100
0001
0000
0100
0010
0000
0100
0000
,
0001
0010
0000
0001
0010
0000
0100
0000
,
1000
0000
0100
0000
0000
0000
1000
0000
0001
0000
0000
0000
1000
0100
0010
0001
,
1000
0001
0000
0100
0001
0000
0100
0000
,
0010
1000
0000
0010
0100
0000
0001
0000
,
1000
0100
1000
0001
0010
0100
1000
0001
1000
0010
0100
0010
1000
0001
0100
0001
,
1000
0100
1000
0001
1000
0010
0100
0001
1000
0001
0010
0100
1000
0001
0100
0001
,
1000
0100
0010
0100
1000
0001
0100
0001
,
1000
0010
0100
0010
1000
0001
0010
0100
,
1000
0010
0100
0010
1000
0001
0100
0001
,
1000
0000
0100
0000
0010
0000
0001
0000
1000
0000
0100
0000
1000
0001
1000
0100
,
0010
0001
0100
0001
1000
0010
0100
0010
,
1000
0001
0010
0100
1000
0001
0100
0010
,
0100
0001
1000
0100
0010
0001
1000
0001
,
0100
0000
0010
0000
0100
0000
0001
0000
1000
0000
0100
0000
1000
0001
1000
0100
,
0010
0100
1000
0010
0100
0010
1000
0001
,
0100
0001
0010
0100
1000
0001
1000
0010
,
0100
0010
1000
0001
0010
0100
1000
0001
,
0100
0000
0001
0000
1000
0000
0100
0000
0010
0000
0100
0000
1000
0001
1000
0010
,
0100
0001
0010
0100
1000
0001
0100
0001
,
1000
0100
1000
0001
0100
0001
1000
0010
1000
0001
0100
0001
1000
0100
0010
0001
,
1000
0001
1000
0001
0010
0100
1000
0001
1000
0010
0100
0001
1000
0100
1000
0001
,
0000
0000
00M0
00M0
,
1000
0100
1000
0000
0001
0100
0001
0000
1000
0100
0010
0000
0001
1000
0001
0000
,
1000
0010
1000
0000
0001
0100
0001
0000
1000
0100
1000
0000
0001
0010
0100
0000
,
1000
0001
1000
0000
0001
0100
0001
0000
1000
0010
1000
0000
0010
0100
0010
0000
,
0100
0001
0100
0000
0001
1000
0001
0000
1000
0100
1000
0000
0001
0100
0001
0000
,
1000
0100
0010
0000
0001
1000
0001
0000
1000
0010
1000
0000
0001
0100
0001
0000
,
1000
0100
0010
0000
0100
1000
0001
0000
0100
0001
0100
0000
0010
1000
0010
0000
,
0100
0001
0100
0000
0001
1000
0001
0000
0010
0100
1000
0000
0001
0100
0001
0000
,
1000
0100
1000
0000
0001
0100
0010
0000
0100
0001
0100
0000
0001
1000
0100
0000
,
1000
0100
0000
1000
0001
0000
0100
0000
,
0010
1000
0000
0010
0100
0000
0001
0000
,
1000
0100
0000
1000
0001
0000
0100
0000
,
0001
0100
0000
0010
0100
0000
0001
0000
,
0010
0100
0000
0010
0001
0000
1000
0000
,
0010
0100
0000
0010
1000
0000
0001
0000
,
0100
0001
0000
1000
0100
0000
1000
0000
,
0001
0100
0000
0010
0100
0000
0001
0000
,
2000
0000
0000
0000
,
0000
0000
0000
0000
0000
0000
0000
3000
,
0001
0100
0000
0001
1000
0000
0010
1000
0010
0000
1000
0001
0000
0100
0001
1000
,
0100
1000
0000
0001
0100
0000
0001
1000
0001
0000
1000
0100
0000
1000
0001
0100
,
0001
0100
0000
0010
1000
0000
0001
0100
0001
0000
1000
0100
0000
1000
0001
0100
,
0001
1000
0000
0100
1000
0000
0001
0100
0010
0000
0100
0001
0000
1000
0001
1000
,
0100
1000
0000
0001
0010
0000
0100
1000
0001
0000
1000
0100
0000
1000
0001
0100
,
0001
0100
0000
0010
1000
0000
0001
0100
0001
0000
1000
0100
0000
1000
0100
0010
,
0001
1000
0000
0001
0100
0000
0010
1000
0010
0000
0100
0001
0000
1000
0001
1000
,
0100
0010
0000
0001
1000
0000
0001
0100
0001
0000
0100
0010
0000
1000
0001
0100
,
0001
1000
0100
0010
0001
1000
0001
0100
0010
0100
0001
1000
0100
1000
0001
1000
,
0010
0100
0010
1000
0001
0100
0001
1000
0100
0010
0001
1000
0100
1000
0001
0100
,
0010
0100
0001
1000
0001
0010
0100
1000
0001
0100
0001
1000
0010
0100
0010
1000
,
0001
1000
0100
0010
0001
1000
0100
1000
0001
0100
0010
0100
0001
1000
0100
0010
,
0001
1000
0001
0100
0010
0100
0001
1000
0100
0010
0100
1000
0001
1000
0010
0100
,
0010
1000
0001
0100
0001
1000
0100
0010
0001
1000
0100
1000
0001
0100
0010
0100
,
0001
1000
0001
0010
0100
1000
0001
0100
0010
0100
0001
1000
0100
0010
0001
1000
,
0002
0000
0000
0000
0000
0000
0000
1003
,
0001
0100
0001
1000
0100
0010
0001
1000
0001
0100
0001
1000
0010
0100
0010
1000
,
0001
0100
0001
1000
0001
1000
0100
0010
0001
1000
0100
1000
0001
0100
0010
0100
,
0001
1000
0001
0010
0100
1000
0001
0100
0001
1000
0100
0010
0100
1000
0001
1000
,
0001
0100
0010
0100
0001
1000
0100
1000
0001
1000
0010
0100
0010
1000
0001
0100
,
0001
1000
0100
1000
0001
0010
0100
1000
0001
1000
0001
0100
0010
0100
0001
1000
,
0001
0100
0001
1000
0100
0010
0100
1000
0001
0100
0001
1000
0010
0100
0010
1000
,
0001
0100
0001
1000
0100
0010
0001
1000
0100
1000
0001
0100
0010
0100
0001
1000
,
0001
0010
0100
1000
0001
1000
0100
1000
0001
0100
0001
1000
0010
0100
0010
1000
,
0100
1000
0001
0100
0001
1000
0001
0100
0010
0100
0001
1000
0100
1000
0001
1000
,
0100
0010
0001
1000
0001
0100
0010
0100
0001
1000
0001
0100
0010
1000
0001
1000
,
0100
0010
0001
1000
0001
0100
0010
0100
0001
1000
0100
0010
0100
1000
0001
0100
,
0010
0100
0001
1000
0001
0010
0100
1000
0001
0100
0001
1000
0010
0100
0010
1000
,
0001
0100
0001
1000
0100
0010
0001
1000
0100
1000
0001
0100
0010
0100
0001
1000
,
0001
0100
0001
1000
0100
0010
0001
1000
0100
1000
0001
1000
0010
0100
0010
1000
,
0001
0100
0001
1000
0100
0010
0100
1000
0001
0100
0001
1000
0010
0100
0010
1000
,
0001
0100
0001
1000
0100
0010
0001
1000
0001
0000
0000
0000
0001
0000
0000
0000
,
1000
0100
0010
0001
1000
0001
0100
0010
0100
0001
1000
0100
0010
0100
1000
0001
,
1000
0100
1000
0001
0100
0010
0100
0001
1000
0001
0100
0001
1000
0010
0100
0001
,
0100
0001
1000
0010
0100
0001
1000
0100
0010
0100
1000
0001
0100
0001
1000
0010
,
0100
0010
1000
0001
0100
0001
1000
0100
0010
0001
1000
0100
1000
0001
0100
0010
,
0100
0001
1000
0001
0010
0100
1000
0001
0100
0010
0100
0001
1000
0100
0010
0100
,
1000
0001
0100
0010
0100
0001
1000
0001
0010
0100
1000
0001
0100
0001
1000
0001
,
1000
0100
0010
0100
1000
0001
1000
0100
1000
0001
0100
0010
0100
0001
1000
0100
,
0010
0100
1000
0001
0100
0001
1000
0001
0010
0100
1000
0001
0100
0010
0100
0001
,
0010
0001
1000
0100
1000
0001
1000
0010
0100
0010
1000
0001
0100
0001
1000
0100
,
0010
0100
1000
0001
1000
0001
0100
0010
0100
0001
1000
0001
0010
0100
1000
0001
,
0100
0001
1000
0100
0010
0100
1000
0001
1000
0001
0100
0010
0100
0001
1000
0100
,
1000
0001
0010
0100
1000
0001
0100
0010
0100
0001
1000
0100
1000
0001
1000
0010
,
0100
0001
1000
0100
1000
0001
1000
0010
0100
0010
1000
0001
0010
0100
1000
0001
,
0100
0001
1000
0100
0010
0100
1000
0001
1000
0010
0100
0010
1000
0001
0100
0001
,
1000
0001
0100
0010
1000
0010
0100
0001
1000
0100
0010
0100
0010
0001
1000
0100
,
1000
0000
0001
0100
0001
0000
1000
0100
0010
0100
1000
0001
0100
0010
0100
0001
,
1000
0001
0100
0010
0100
0001
1000
0001
0010
0100
1000
0001
1000
0100
0010
0100
,
1000
0001
0100
0001
1000
0001
0100
0010
0100
0001
1000
0100
0010
0001
1000
0001
,
1000
0100
1000
0001
0100
0010
0100
0001
1000
0001
0100
0010
1000
0001
1000
0100
,
1000
0001
0010
0001
1000
0010
0100
0010
1000
0001
1000
0100
1000
0001
0010
0100
,
1000
0010
0100
0001
0100
0001
1000
0100
1000
0001
0100
0010
0100
0001
1000
0001
,
0100
0001
1000
0100
0010
0100
1000
0001
0100
0001
1000
0010
1000
0001
1000
0100
,
0010
0100
1000
0001
0100
0001
1000
0001
0100
0010
0100
0001
1000
0100
0010
0100
,
1000
0001
0100
0001
1000
0010
0100
0010
1000
0001
1000
0000
0001
1000
0001
0100
,
0001
0010
0100
1000
0001
0100
0001
1000
0010
0100
0010
1000
0001
0100
0001
1000
,
0100
0010
0100
1000
0001
1000
0010
0100
0010
1000
0001
0100
0001
1000
0100
0010
,
0100
1000
0001
0100
0010
0100
0001
1000
0001
0100
0001
1000
0010
0100
0010
1000
,
0001
1000
0100
1000
0001
0100
0001
1000
0100
1000
0001
0010
0100
1000
0001
0100
,
0001
1000
0001
0100
0010
0100
0001
1000
0100
1000
0001
1000
0010
0100
0010
1000
,
0001
0100
0001
1000
0100
0010
0100
1000
0001
0100
0001
1000
0010
0100
0010
1000
,
0001
0100
0001
1000
0100
1000
0001
0100
0001
1000
0100
0010
0100
1000
0001
0100
,
0001
0000
1000
0000
0001
0000
0100
0000
0001
1000
0100
0010
0100
1000
0001
0100
,
0002
0000
0000
0000
,
2003
0000
0000
0000
,
3200
0000
0000
0000
,
0320
0000
0000
0000
0000
0000
0000
0000
0000
0000
0000
0000
0031
1000
0001
0100
,
0002
0000
0000
0000
,
2003
0000
0000
0000
,
3020
0000
0000
0000
,
0230
0000
0000
0000
0000
0000
0000
0000
0000
0000
0000
0000
0301
1000
0001
0100
,
0001
0000
0000
1000
0100
0000
1000
0000
,
0001
0000
0000
0100
0001
0000
0010
0000
,
0100
0000
0000
1000
0100
0000
1000
0000
,
0001
0000
0000
0000
0000
0000
0100
0000
0001
0000
0000
0000
1000
0100
1000
0001
,
1000
0000
0000
0001
0100
0000
0001
0000
,
1000
0000
0000
0000
0000
0000
0100
0000
0010
0000
0000
0000
0001
1000
0001
0100
,
0001
0000
0000
0100
0010
0000
0100
0000
,
0001
0000
0M00
0M00
,
1000
0000
0001
0100
0001
0000
1000
0100
1000
0000
0001
0100
0001
1000
0100
0010
,
0001
0000
1000
0100
1000
0000
0001
0100
0001
0000
1000
0100
0010
0001
1000
0001
,
0100
0000
0001
1000
0001
0000
1000
0100
1000
0000
0001
0100
0001
1000
0100
0010
,
0001
0000
1000
0100
1000
0000
0001
0100
0001
0000
1000
0001
0010
0100
1000
0001
,
0100
0000
0001
0100
0001
0000
1000
0001
1000
0000
0001
0100
0001
1000
0001
0010
,
0100
0000
1000
0100
1000
0000
0001
0100
0001
0000
1000
0100
0010
0001
1000
0001
,
0100
0000
0010
1000
0010
0000
0100
0001
0100
0000
0001
1000
0001
0010
0100
1000
,
0001
0000
0100
0001
0100
0000
0001
1000
0001
0000
1000
0100
1000
0001
0010
0100
,
1000
0001
0100
0001
1000
0001
0100
0010
0100
0001
1000
0100
0010
0100
1000
0001
,
1000
0010
0100
0010
1000
0001
0100
0001
1000
0100
0010
0001
1000
0100
1000
0001
,
0100
0010
0100
0001
1000
0001
0010
0100
1000
0001
0100
0001
1000
0100
0010
0100
,
1000
0001
0100
0001
1000
0001
0100
0010
0100
0001
1000
0100
1000
0001
1000
0010
,
0100
0010
1000
0001
0100
0001
1000
0100
0010
0001
1000
0100
1000
0001
0100
0010
,
0100
0001
1000
0001
0010
0100
1000
0001
0100
0001
1000
0100
0010
0100
1000
0001
,
0100
0001
1000
0010
0100
0001
0100
0001
1000
0100
0010
0001
1000
0100
1000
0001
,
0100
0000
0001
0000
0010
0000
0100
0000
1000
0100
0010
0100
1000
0010
0100
0001
,
2000
0000
0000
0000
,
3000
0001
0000
0000
1000
0000
0000
0100
1000
0000
0000
0001
0000
0000
1000
0100
,
0010
0001
1000
0001
0100
0010
0100
0001
1000
0001
0010
0100
1000
0001
0100
0010
,
0100
0001
1000
0100
0010
0001
1000
0001
0100
0001
1000
0010
0100
0010
1000
0001
,
1000
0100
0010
0100
1000
0001
0100
0001
1000
0010
0100
0010
1000
0001
0100
0001
,
1000
0100
0010
0001
1000
0100
1000
0001
1000
0010
0100
0010
1000
0001
0100
0001
,
1000
0001
0010
0100
1000
0001
0100
0001
1000
0100
0010
0100
1000
0001
0100
0001
,
1000
0010
0100
0010
1000
0001
1000
0100
0010
0001
1000
0100
1000
0001
0100
0010
,
0100
0001
1000
0001
0010
0100
1000
0001
0100
0001
1000
0100
1000
0001
0100
0010
,
0100
0001
1000
0100
1000
0100
0010
0001
1000
0001
0100
0001
1000
0010
0100
0001
,
0100
0001
1000
0100
1000
0001
1000
0100
0010
0001
1000
0100
1000
0001
0100
0001
,
1000
0010
0100
0010
1000
0001
0100
0001
1000
0001
0010
0100
1000
0001
1000
0100
,
0010
0100
1000
0001
0100
0001
1000
0100
0010
0001
1000
0100
1000
0001
1000
0001
,
0100
0010
0100
0001
1000
0001
0100
0001
1000
0100
0010
0001
1000
0100
1000
0001
,
1000
0010
0100
0001
1000
0001
0010
0100
1000
0001
1000
0100
1000
0001
0100
0010
,
0100
0001
1000
0100
0010
0100
1000
0001
1000
0001
0100
0010
0100
0001
0100
0001
,
1000
0010
0100
0001
0100
0001
1000
0100
0010
0001
1000
0100
1000
0001
0100
0010
,
1000
0001
0000
1000
0100
0000
0010
0001
1000
0001
0010
0100
1000
0001
1000
0010
,
0100
0001
1000
0001
1000
0100
0010
0001
1000
0100
1000
0001
0100
0010
0100
0001
,
1000
0001
0010
0100
1000
0001
1000
0100
1000
0001
0100
0010
0100
0001
1000
0001
,
0010
0100
1000
0001
1000
0100
0010
0100
1000
0001
0100
0001
1000
0001
0100
0010
,
0100
0001
1000
0001
0100
0001
1000
0100
0010
0001
1000
0100
1000
0001
1000
0010
,
0100
0010
1000
0001
1000
0100
0010
0100
1000
0001
0100
0001
1000
0001
0100
0010
,
0100
0001
1000
0001
1000
0100
1000
0001
0010
0100
1000
0001
1000
0100
0010
0100
,
1000
0001
0100
0001
1000
0010
0100
0010
1000
0001
0100
0001
1000
0100
0010
0100
,
1000
0001
0100
0001
1000
0010
0100
0001
1000
0001
1000
0100
1000
0001
0010
0100
,
1000
0001
0100
0001
1000
0001
0100
0010
0100
0001
1000
0100
1000
0001
1000
0100
,
0010
0001
1000
0001
0100
0010
0100
0001
1000
0100
0010
0100
1000
0001
1000
0001
,
0100
0001
1000
0010
0100
0010
1000
0001
0010
0100
0010
0001
1000
0100
1000
0001
,
0100
0010
0100
0001
1000
0010
0100
0001
0100
0001
1000
0100
0010
0100
1000
0001
,
0100
0001
1000
0001
0100
0010
1000
0001
1000
0100
0010
0001
1000
0100
1000
0001
,
0100
0001
1000
0010
0100
0001
1000
0100
1000
0001
0100
0010
0100
0001
1000
0001
,
0010
0100
1000
0001
0100
0001
1000
0100
0010
0100
1000
0001
0100
0001
1000
0010
,
1000
0000
0000
0000
0004
0003
0000
0000
0000
0000
0000
0000
0004
0003
0000
0000
0000
0000
0000
0000
0004
0003
0000
0000
0000
0000
0000
0000
0004
0003
0000
0000
;
