#TITLE:SpoOkyMagician's OP;
#SUBTITLE:Mr Brown (JAKAZiD Remix);
#ARTIST:THE ANGRY KIDS vs. Bob Marley;
#TITLETRANSLIT:;
#SUBTITLETRANSLIT:;
#ARTISTTRANSLIT:;
#CREDIT:owenviau1 & SpoOkyMagician;
#BANNER:../owenviau1 Simfiles 6 (Science X Owen).png;
#BACKGROUND:background.png;
#LYRICSPATH:;
#CDTITLE:;
#MUSIC:mr_brown_jakazid_remix.mp3;
#OFFSET:-0.041;
#SAMPLESTART:0.980;
#SAMPLELENGTH:29.999;
#SELECTABLE:YES;
#BPMS:0.000=172.000,16.000=86.000,21.500=172.000,24.500=86.000,25.000=172.000,32.000=86.000,35.000=43.000,36.000=86.000,43.000=172.000,44.000=86.000,45.000=172.000,104.000=344.000,104.500=172.000,105.000=344.000,105.500=172.000,106.000=344.000,106.500=172.000,107.000=344.000,107.500=172.000,108.000=344.000,108.500=172.000,109.000=344.000,109.500=172.000,110.000=344.000,110.500=172.000,111.000=344.000,111.500=172.000,112.000=344.000,112.500=172.000,113.000=344.000,113.500=172.000,114.000=344.000,114.500=172.000,115.000=344.000,115.500=172.000,116.000=344.000,116.500=172.000,117.000=344.000,117.500=172.000,118.000=344.000,118.500=172.000,119.000=344.000,119.500=172.000,120.000=344.000,120.500=172.000,121.000=344.000,121.500=172.000,122.000=344.000,122.500=172.000,123.000=344.000,123.500=172.000,124.000=344.000,124.500=172.000,125.000=344.000,125.500=172.000,126.000=344.000,126.500=172.000,127.000=344.000,127.500=172.000,128.000=344.000,128.500=172.000,129.000=344.000,129.500=172.000,130.000=344.000,130.500=172.000,131.000=344.000,131.500=172.000,132.000=344.000,132.500=172.000,133.000=344.000,133.500=172.000,134.000=344.000,134.500=172.000,135.000=344.000,135.500=172.000,136.000=344.000,136.500=172.000,137.000=344.000,137.500=172.000,138.000=344.000,138.500=172.000,139.000=344.000,139.500=172.000,140.000=344.000,140.500=172.000,141.000=344.000,141.500=172.000,142.000=344.000,142.500=172.000,143.000=344.000,143.500=172.000,144.000=344.000,144.500=172.000,145.000=344.000,145.500=172.000,146.000=344.000,146.500=172.000,147.000=344.000,147.500=172.000,148.000=344.000,148.500=172.000,149.000=344.000,149.500=172.000,150.000=344.000,150.500=172.000,151.000=344.000,151.500=172.000,152.000=344.000,152.500=172.000,153.000=344.000,153.500=172.000,154.000=344.000,154.500=172.000,155.000=344.000,155.500=172.000,156.000=344.000,156.500=172.000,157.000=344.000,157.500=172.000,158.000=344.000,158.500=172.000,159.000=344.000,159.500=172.000,160.000=344.000,160.500=172.000,161.000=344.000,161.500=172.000,162.000=344.000,162.500=172.000,163.000=344.000,163.500=172.000,164.000=344.000,164.500=172.000,165.000=344.000,165.500=172.000,166.000=344.000,166.500=172.000,167.000=344.000,167.500=172.000,168.000=344.000,168.500=172.000,169.000=344.000,169.500=172.000,170.000=344.000,170.500=172.000,171.000=344.000,171.500=172.000,172.000=344.000,172.500=172.000,173.000=344.000,173.500=172.000,174.000=344.000,174.500=172.000,175.000=344.000,175.500=172.000,176.000=344.000,176.500=172.000,177.000=344.000,177.500=172.000,178.000=344.000,178.500=172.000,179.000=344.000,179.500=172.000,180.000=344.000,180.500=172.000,181.000=344.000,181.500=172.000,182.000=344.000,182.500=172.000,183.000=344.000,183.500=172.000,184.000=344.000,184.500=172.000,185.000=344.000,185.500=172.000,186.000=344.000,186.500=172.000,187.000=344.000,187.500=172.000,188.000=344.000,188.500=172.000,190.813=86.000,192.000=172.000,252.000=86.000,254.000=172.000,286.000=86.000;
#STOPS:;
#BGCHANGES:0.000=dark_fade_in=1.000=0=0=1,
4.000=dark_fade_out=1.000=0=0=1,
8.000=dark_fade_in=1.000=0=0=1,
13.000=dark_fade_out=1.000=0=0=1,
16.000=dark_fade_in=1.000=0=0=1,
17.500=who_is_mr_brown=1.000=0=0=1,
20.000=generic_bg=1.000=0=0=1,
22.000=dark_fade_out=1.000=0=0=1,
25.000=dark_fade_in=1.000=0=0=1,
29.000=generic_bg_bob=1.000=0=0=1,
35.000=dark_fade_out=1.000=0=0=1,
36.000=dark_fade_in=1.000=0=0=1,
43.000=dark_fade_out=1.000=0=0=1,
44.000=dark_fade_in=1.000=0=0=1,
45.000=generic_bg_wag=1.000=0=0=1,
60.000=generic_bg_bob=1.000=0=0=1,
73.000=generic_bg_wag=1.000=0=0=1,
81.750=generic_bg_bob=1.000=0=0=1,
89.750=generic_bg_wag=1.000=0=0=1,
96.000=generic_bg_bob=1.000=0=0=1,
100.000=dark_fade_out=1.000=0=0=1,
102.000=dark_fade_in=1.000=0=0=1,
104.000=dark_fade_beat=1.000=0=0=1,
105.500=dark_fade_beat=1.000=0=0=1,
106.500=dark_fade_beat=1.000=0=0=1,
107.500=dark_fade_beat=1.000=0=0=1,
108.500=dark_fade_beat=1.000=0=0=1,
109.250=dark_fade_beat=1.000=0=0=1,
110.500=dark_fade_beat=1.000=0=0=1,
111.250=dark_fade_beat=1.000=0=0=1,
112.000=dark_fade_beat=1.000=0=0=1,
113.250=dark_fade_beat=1.000=0=0=1,
114.000=dark_fade_beat=1.000=0=0=1,
115.500=dark_fade_beat=1.000=0=0=1,
116.750=dark_fade_beat=1.000=0=0=1,
118.000=dark_fade_beat=1.000=0=0=1,
119.500=dark_fade_beat=1.000=0=0=1,
120.000=dark_fade_beat=1.000=0=0=1,
121.250=dark_fade_beat=1.000=0=0=1,
122.000=dark_fade_beat=1.000=0=0=1,
122.750=dark_fade_beat=1.000=0=0=1,
123.750=dark_fade_beat=1.000=0=0=1,
124.750=dark_fade_beat=1.000=0=0=1,
126.000=dark_fade_beat=1.000=0=0=1,
127.250=dark_fade_beat=1.000=0=0=1,
128.750=dark_fade_beat=1.000=0=0=1,
130.000=dark_fade_beat=1.000=0=0=1,
130.750=dark_fade_beat=1.000=0=0=1,
131.750=dark_fade_beat=1.000=0=0=1,
132.750=dark_fade_beat=1.000=0=0=1,
133.250=dark_fade_beat=1.000=0=0=1,
134.750=dark_fade_beat=1.000=0=0=1,
135.500=dark_fade_beat=1.000=0=0=1,
136.750=dark_fade_beat=1.000=0=0=1,
138.000=dark_fade_beat=1.000=0=0=1,
139.500=dark_fade_beat=1.000=0=0=1,
140.750=dark_fade_beat=1.000=0=0=1,
141.500=dark_fade_beat=1.000=0=0=1,
142.500=dark_fade_beat=1.000=0=0=1,
143.500=dark_fade_beat=1.000=0=0=1,
144.000=dark_fade_beat=1.000=0=0=1,
145.250=dark_fade_beat=1.000=0=0=1,
146.000=dark_fade_beat=1.000=0=0=1,
147.500=dark_fade_beat=1.000=0=0=1,
148.500=dark_fade_beat=1.000=0=0=1,
148.750=dark_fade_beat=1.000=0=0=1,
149.500=dark_fade_beat=1.000=0=0=1,
149.750=dark_fade_beat=1.000=0=0=1,
150.500=dark_fade_beat=1.000=0=0=1,
150.750=dark_fade_beat=1.000=0=0=1,
151.500=dark_fade_beat=1.000=0=0=1,
152.000=dark_fade_beat=1.000=0=0=1,
153.000=dark_fade_beat=1.000=0=0=1,
154.000=dark_fade_beat=1.000=0=0=1,
154.750=dark_fade_beat=1.000=0=0=1,
156.000=dark_fade_beat=1.000=0=0=1,
156.750=dark_fade_beat=1.000=0=0=1,
158.000=dark_fade_beat=1.000=0=0=1,
159.500=dark_fade_beat=1.000=0=0=1,
160.750=dark_fade_beat=1.000=0=0=1,
162.000=dark_fade_beat=1.000=0=0=1,
162.750=dark_fade_beat=1.000=0=0=1,
163.750=dark_fade_beat=1.000=0=0=1,
164.750=dark_fade_beat=1.000=0=0=1,
165.500=dark_fade_beat=1.000=0=0=1,
166.750=dark_fade_beat=1.000=0=0=1,
167.250=dark_fade_beat=1.000=0=0=1,
168.750=dark_fade_beat=1.000=0=0=1,
170.000=dark_fade_beat=1.000=0=0=1,
171.500=dark_fade_beat=1.000=0=0=1,
172.750=dark_fade_beat=1.000=0=0=1,
173.250=dark_fade_beat=1.000=0=0=1,
174.500=dark_fade_beat=1.000=0=0=1,
175.500=dark_fade_beat=1.000=0=0=1,
176.000=dark_fade_beat=1.000=0=0=1,
177.250=dark_fade_beat=1.000=0=0=1,
178.000=dark_fade_beat=1.000=0=0=1,
179.500=dark_fade_beat=1.000=0=0=1,
180.750=dark_fade_beat=1.000=0=0=1,
182.000=dark_fade_beat=1.000=0=0=1,
183.500=dark_fade_beat=1.000=0=0=1,
184.000=dark_fade_beat=1.000=0=0=1,
185.250=dark_fade_beat=1.000=0=0=1,
186.000=dark_fade_beat=1.000=0=0=1,
186.750=dark_fade_beat=1.000=0=0=1,
187.750=dark_fade_beat=1.000=0=0=1,
188.750=dark_fade_beat=1.000=0=0=1,
190.000=dark_fade_beat=1.000=0=0=1,
191.000=dark_fade_beat=1.000=0=0=1,
191.250=dark_fade_beat=1.000=0=0=1,
191.500=dark_fade_beat=1.000=0=0=1,
191.750=dark_fade_beat=1.000=0=0=1,
192.000=generic_bg_wag=1.000=0=0=1,
221.500=dark_fade_beat=1.000=0=0=1,
221.750=dark_fade_beat=1.000=0=0=1,
222.000=dark_fade_beat=1.000=0=0=1,
222.250=dark_fade_beat=1.000=0=0=1,
222.500=dark_fade_beat=1.000=0=0=1,
222.750=dark_fade_beat=1.000=0=0=1,
223.000=dark_fade_beat=1.000=0=0=1,
223.500=dark_fade_beat=1.000=0=0=1,
224.000=generic_bg_wag=1.000=0=0=1,
252.000=who_is_mr_brown=1.000=0=0=1,
254.000=generic_bg_bob=1.000=0=0=1,
269.000=dark_fade_beat=1.000=0=0=1,
269.250=dark_fade_beat=1.000=0=0=1,
269.500=dark_fade_beat=1.000=0=0=1,
269.750=dark_fade_beat=1.000=0=0=1,
270.000=generic_bg_bob=1.000=0=0=1,
283.000=dark_fade_beat=1.000=0=0=1,
283.250=dark_fade_beat=1.000=0=0=1,
283.500=dark_fade_beat=1.000=0=0=1,
284.000=dark_fade_beat=1.000=0=0=1,
284.500=dark_fade_beat=1.000=0=0=1,
284.750=dark_fade_beat=1.000=0=0=1,
285.000=dark_fade_beat=1.000=0=0=1,
286.000=dark_fade_out=1.000=0=0=1,
99999=-nosongbg-=1.000=0=0=0 // don't automatically add -songbackground-
;
// cache tags:
#FIRSTBEAT:0.000;
#LASTBEAT:287.000;
#SONGFILENAME:Songs/owenviau1 Simfiles 6/SpoOkyMagician's OP - [owenviau1 & SpoOkyMagician] v1.0.2/SpoOkyMagician's OP.sm;
#HASMUSIC:1;
#HASBANNER:1;
#MUSICLENGTH:104.659;
// end cache tags

//---------------dance-single - 9 (SpoOkyMagician)----------------
#NOTES:
     dance-single:
     9 (SpoOkyMagician):
     Medium:
     9:
     0.580,0.788,0.010,0.134,0.406,410.000,1.000,14.000,0.000,0.000:
0002
0000
0023
0000
,
0230
0000
0000
0000
,
0302
0000
0000
0000
0023
0000
0000
1000
,
0032
0203
0000
0000
,
0301
0000
0010
0000
0100
0000
1000
0100
0010
0001
0010
0100
1000
0000
0010
0000
,
0100
0001
0010
0000
0001
0010
0100
1000
,
0000
0100
0010
0000
0001
0000
0010
0000
,
0100
0000
1000
0010
0100
0000
1000
0000
,
0100
0000
1000
0000
0001
0000
0010
0000
0100
0000
0010
0000
1000
0100
0010
0001
,
0100
0001
0010
0100
1000
0100
0010
0001
,
1000
0010
0100
0001
0010
1000
0001
0000
,
0100
0001
0010
0100
1000
0000
0000
0100
0000
0000
0010
0000
0100
0000
0000
0000
,
1000
0000
0000
0000
0010
0000
0000
0100
0000
0000
1000
0000
0001
0000
0000
0000
,
0100
0000
0000
0000
0010
0000
0000
0001
0000
0000
1000
0000
0010
0000
0000
0000
,
0100
0000
0000
0000
0001
0000
0000
1000
0000
0000
0100
0000
0010
0000
0000
0000
,
0001
0000
0000
0000
1000
0000
0000
0001
0000
0000
0100
0000
0010
0000
0000
0000
,
1000
0000
0000
0000
0010
0000
0000
0100
0000
0000
1000
0000
0001
0000
0000
0000
,
0010
0000
0000
0000
0100
0000
0000
0001
0000
0000
1000
0000
0010
0000
0000
0000
,
0100
0000
1000
0000
0001
0010
0100
0010
,
0001
0000
0000
0010
0000
0000
0000
0100
0000
0000
0001
0000
0010
0000
0000
0000
,
1000
0000
0000
0000
0010
0000
0000
0100
0000
0000
0001
0000
0010
0000
0000
0000
,
1000
0000
0000
0000
0100
0000
0000
0001
0000
0000
1000
0000
0010
0000
0000
0000
,
0100
0000
0000
0000
0001
0000
0000
0010
0000
0000
0100
0000
1000
0000
0100
0000
,
0001
0000
0010
0000
0010
0100
0001
0000
,
1000
0000
0010
0000
0000
0100
0000
0000
0000
0001
0000
1000
0000
0000
0000
0000
,
0010
0000
0000
0000
0100
0000
0000
0001
0000
0000
1000
0000
0010
0000
0000
0000
,
0100
0000
0000
0001
0000
1000
0000
0001
,
0000
0000
1000
0000
0000
0001
0000
0000
0000
0000
0001
0000
0000
0001
0000
0000
,
0010
0000
0000
0000
0000
0010
0000
0000
0100
0000
0000
0000
0000
0000
0100
0000
,
0000
0000
0000
0100
0000
0000
0000
0000
0100
0000
0000
0000
0000
0000
1000
0000
,
0010
0000
0000
0000
0000
0010
0000
0000
0010
0000
0000
0100
0000
0000
0000
0100
,
0000
0000
0000
1000
0000
0000
0000
0000
1000
0000
0000
0000
0000
1000
0000
0000
,
0000
0000
0000
1000
0000
0000
0000
0000
0100
0000
0000
0001
0000
0000
0000
0001
,
0000
0000
0000
0001
0000
0100
0000
0000
0000
0000
0000
0100
0000
0000
0010
0000
,
0000
0000
0000
0010
0000
0000
0000
0000
0010
0000
0000
0000
0000
0000
0010
0000
,
0000
0000
0000
1000
0000
0000
0010
0000
0000
0000
0100
0000
0000
0000
0001
0000
,
1000
0000
0000
0000
0000
0010
0000
0000
0100
0000
0000
0000
0000
0000
0001
0000
,
0000
0000
1000
0100
0000
0000
0100
0010
0000
0000
0010
0001
0000
0000
0010
0000
,
0001
0000
0000
0000
0001
0000
0000
0000
0001
0000
0000
0010
0000
0000
0000
0000
,
0010
0000
0000
0100
0000
0000
0000
0000
0100
0000
0000
0000
0000
0000
0100
0000
,
0000
0000
0000
0100
0000
0000
0000
0000
1000
0000
0000
0010
0000
0000
0000
0010
,
0000
0000
0000
0010
0000
0000
0100
0000
0000
0000
0000
0100
0000
1000
0000
0000
,
0000
0000
0000
1000
0000
0000
0000
0000
1000
0000
0000
0000
0000
0000
1000
0000
,
0000
0000
0000
1000
0000
0001
0000
0000
0000
0000
0001
0000
0000
0000
0001
0000
,
0100
0000
0000
0000
0000
0100
0000
0000
0010
0000
0000
0000
0000
0000
0010
0000
,
0000
0000
0000
0010
0000
0000
0000
0000
0010
0000
0000
0000
0000
0000
0100
0000
,
0010
0000
0000
0000
0000
0010
0000
0000
0010
0000
0000
0001
0000
0000
0000
0001
,
0000
0000
0000
0001
0000
0000
0000
0000
0010
0000
0000
0000
0001
0010
0100
0010
,
0001
0000
0000
0010
0000
0000
0100
0000
0010
0000
0000
0100
0000
0000
1000
0000
,
0000
0100
0000
1000
0001
0100
1000
0010
,
0001
0000
0000
0010
0000
0000
0100
0000
1000
0000
0000
0100
0000
0000
0010
0000
,
0000
0001
1000
0100
0010
0001
0010
0100
,
1000
0000
0000
0010
0000
0000
0100
0000
0001
0000
0010
0000
0100
0000
1000
0000
,
0000
0100
0000
0010
0100
1000
0010
0100
,
0001
0000
0000
0010
0000
0000
1000
0000
0100
0000
0000
0010
0000
0000
0001
0000
,
0010
0000
0000
0000
1000
0000
0100
0010
0001
0010
0100
1000
0100
0000
0010
0000
,
0001
0000
0000
0010
0000
0000
0100
0000
1000
0000
0000
0100
0000
0000
0010
0000
,
0000
0100
0000
1000
0010
0001
0100
0010
,
0001
0000
0000
0100
0010
0000
0001
0000
0100
0000
1000
0000
0010
0000
0001
0000
,
0100
0010
1000
0001
0010
0100
0001
0010
,
0100
0000
1000
0010
0100
0000
0001
0000
0010
0000
1000
0000
0100
0000
0001
0000
,
1000
0010
1000
0100
0001
1000
0010
0100
,
0001
0000
0000
1000
0010
0000
0100
0000
0001
0000
0010
0000
1000
0000
0100
0000
,
2000
3020
0030
0200
0320
0032
0003
0000
1000
0000
0001
0000
0100
0000
0001
0000
,
1000
0001
0100
0001
1000
0001
0010
0001
,
1000
0001
0010
0001
0100
0001
0010
0001
,
0100
0001
0010
0001
0100
0001
1000
0001
,
0100
0000
0001
0000
1000
0001
1000
0001
0010
0000
0100
0000
0001
0000
0100
0000
,
0010
0100
0001
0100
1000
0100
0010
0100
,
1000
0100
0010
0100
0001
0100
1000
0100
,
0001
0000
0100
0000
1000
0000
0100
0000
0001
0000
0100
0000
0010
0100
1000
0000
,
0001
0000
1000
0100
0010
0000
0000
0000
0022
0000
0000
0000
0033
0000
0000
0000
,
0000
0000
0000
0000
,
0000
0000
0000
0000
,
0000
0000
0000
0000
,
0000
0000
0000
0000
,
0000
0000
0000
0000
,
0000
0000
0000
0000
,
0000
0000
0000
0000
,
0000
0000
0000
0000
,
0000
0000
0000
0000
,
0000
0000
0000
0000
,
0000
0000
0000
0000
,
0000
0000
0000
0000
,
0000
0000
0000
0000
,
0000
0000
0000
0000
,
0000
0000
0000
0000
,
0000
0000
0000
0000
,
0000
0000
0000
0000
,
0000
0000
0000
0000
,
0000
0000
0000
0000
,
0000
0000
0000
0000
,
0000
0000
0000
0000
,
0000
0000
0000
0000
,
0000
0000
0000
0000
;

//---------------dance-single - 15- (owenviau1)----------------
#NOTES:
     dance-single:
     15- (owenviau1):
     Hard:
     15:
     1.000,1.000,0.000,0.124,1.000,1065.000,0.000,13.000,0.000,0.000:
0002
0000
0023
0000
,
0230
0000
0000
0000
,
2300
0000
0000
0000
3020
0000
0000
1000
,
0032
0203
0000
0000
,
0301
1000
0010
0100
0001
1000
0100
1000
0010
0100
0001
1000
0100
0010
0001
0100
0010
1000
0001
0100
0001
1000
0010
0100
0001
1000
0100
0010
0001
1000
0001
0100
,
0010
1000
0100
1000
0001
0100
0010
1000
0100
0010
0001
0100
0010
0000
1000
0000
0001
0000
0100
0000
0001
0000
1000
0000
0010
0000
0100
0000
0001
0000
1000
0000
,
0100
0000
0010
0000
0001
0100
0010
1000
0100
0000
0010
0000
0001
0000
0100
0000
0001
0000
1000
0000
0010
0000
0100
0000
0001
0000
1000
0000
0100
0000
0010
0000
,
0001
0100
0010
1000
0001
0100
0001
1000
0100
0010
0001
0100
0010
1000
0001
0100
,
0010
0000
1000
0000
0001
0000
0100
0000
0001
0000
1000
0000
0010
0000
0100
0000
0001
0000
1000
0000
0100
0000
0010
0000
0001
0000
0100
0000
0010
0000
1000
0000
0001
0000
0100
0000
0001
0000
1000
0000
0100
0000
0010
0000
0001
0000
0100
0000
0010
1000
0100
1000
0001
0100
0010
1000
0100
0010
0001
0100
0010
0100
0001
1000
,
0100
0010
0001
0100
0010
1000
0001
0100
0001
1000
0100
0010
0001
0100
0010
1000
0001
0100
0001
1000
0100
1000
0010
0100
0001
1000
0100
0010
0001
0100
0010
1000
,
0001
0010
0001
0100
0010
0100
0001
1000
0010
1000
0001
0100
0010
1000
0100
0010
0001
1000
0001
0100
0010
1000
0100
0010
0001
0000
1000
0000
0010
0000
0100
0000
,
0002
0000
0003
0000
1000
0100
0010
0001
1000
0000
0100
0000
1000
0000
0010
0000
0100
0000
0001
0000
1000
0000
0010
0000
0100
0000
0001
0000
1000
0000
0010
0000
,
1000
0100
0010
0001
0100
0010
0100
0001
1000
0010
1000
0001
0100
0010
1000
0100
,
0010
0001
1000
0010
0100
0010
1000
0001
0100
0001
1000
0100
1000
0010
0100
0001
,
1000
0100
0010
0001
0100
0010
1000
0001
0100
0001
1000
0100
1000
0010
0100
0001
,
1000
0100
0010
0001
0100
0010
1000
0001
0010
0001
0100
0010
1000
0100
0010
0001
,
0100
0010
1000
0001
0100
0001
1000
0100
1000
0010
0100
0001
1000
0100
0010
0001
,
0100
0010
1000
0001
0100
0001
1000
0100
1000
0010
0100
0001
1000
0100
0010
0001
,
0100
0010
1000
0001
0010
0001
0100
0010
1000
0100
0010
0001
0100
0010
1000
0001
,
0100
0001
1000
0100
1000
0010
0100
0001
1000
0100
0010
0001
0100
0010
1000
0001
,
0100
0001
1000
0100
1000
0010
0100
0001
1000
0100
0010
0001
0100
0010
1000
0001
,
0010
0001
0100
0010
1000
0100
0010
0001
0100
0010
1000
0001
0100
0001
1000
0100
,
1000
0010
0100
0001
1000
0100
0010
0001
0100
0010
1000
0001
0100
0001
1000
0100
,
1000
0010
0100
0001
1000
0100
0010
0001
0100
0010
1000
0001
0010
0001
0100
0010
,
1000
0100
0010
0001
0100
0010
1000
0001
0100
0010
1000
0100
1000
0001
0100
0010
,
1000
0100
0010
0001
0100
0010
1000
0001
0010
0001
0100
0010
1000
0100
0010
0001
,
2000
0000
0000
3000
0000
0000
0001
0000
0000
0000
0010
0100
0000
0000
1000
0100
,
0000
0000
0010
0001
0000
0000
1000
0100
0010
0000
0001
1000
0010
0000
0100
0001
,
1000
0000
0001
0100
0010
0000
1000
0100
0010
0000
0001
0100
0001
0000
1000
0010
,
0100
0000
0001
1000
0100
0000
1000
0010
0100
0000
0001
1000
0001
0000
0100
0010
,
1000
0000
0100
0010
0001
0000
0100
0010
1000
0000
0001
0100
0010
0000
1000
0100
,
0010
0000
0001
0100
0001
0000
1000
0010
0100
0000
0001
1000
0100
0000
1000
0010
,
0100
0000
0001
1000
0001
0000
0100
0010
1000
0000
0100
0010
0001
0000
0100
0010
,
1000
0000
0001
0100
0010
0000
1000
0100
0010
0000
0001
0100
0001
0000
1000
0010
,
0100
0000
0001
1000
0100
0000
1000
0010
0100
0000
0001
1000
0001
0000
0100
0010
,
1000
0000
0100
0010
0001
0000
0100
0010
1000
0000
0001
0100
0010
0000
1000
0100
,
0010
0000
0001
0100
0001
0000
1000
0010
0100
0000
0001
1000
0100
0000
1000
0010
,
0100
0000
0001
1000
0001
0000
0100
0010
1000
0000
0100
0010
0001
0000
0100
0010
,
1000
0000
0001
0100
0010
0000
1000
0100
0010
0000
0001
0100
0001
0000
1000
0010
,
0100
0000
0001
1000
0100
0000
1000
0010
0100
0000
0001
1000
0001
0000
0100
0010
,
1000
0000
0100
0010
0001
0000
0100
0010
1000
0000
0001
0100
0010
0000
1000
0100
,
0010
0000
0001
0100
0001
0000
1000
0010
0100
0000
0001
1000
0100
0000
1000
0010
,
0100
0000
0001
1000
0001
0000
0100
0010
1000
0000
0100
0010
0001
0000
0100
0010
,
1000
0000
0001
0100
0010
0000
1000
0100
0010
0000
0001
0100
0001
0000
1000
0010
,
0100
0000
0001
1000
0100
0000
1000
0010
0100
0000
0001
1000
0001
0000
0100
0010
,
1000
0000
0100
0010
0001
0000
0100
0010
1000
0000
0001
0100
0010
0000
1000
0100
,
0010
0000
0001
0100
0001
0000
1000
0010
0100
0000
0001
1000
0100
0000
1000
0010
,
0100
0000
0000
0000
0000
0000
0000
0000
0001
0000
0000
0000
1000
0000
0000
0000
0001
0000
0000
0000
0000
0000
0000
0000
0100
0000
0000
0000
0010
0000
0000
0000
1000
0000
0000
0000
0000
0000
0000
0000
0000
0000
0000
0000
0000
0100
0000
0000
0010
0000
0000
0000
0001
0000
0000
0000
0100
0000
0000
0000
0001
0000
0000
0000
,
1000
0001
0100
0010
0100
0001
1000
0010
0100
0001
1000
0010
1000
0100
0010
0001
,
0100
0010
0100
0001
1000
0010
1000
0001
0100
0010
1000
0100
0010
0001
1000
0010
,
0100
0010
1000
0001
0100
0001
1000
0100
1000
0010
0100
0001
1000
0100
0010
0001
,
0100
0010
1000
0001
0100
0001
1000
0100
1000
0010
0100
0001
1000
0100
0010
0001
,
0100
0010
1000
0001
0010
0001
0100
0010
1000
0100
0010
0001
0100
0010
1000
0001
,
0100
0001
1000
0100
1000
0010
0100
0001
1000
0100
0010
0001
0100
0010
1000
0001
,
0100
0001
1000
0100
1000
0010
0100
0001
1000
0100
0010
0001
0100
0010
1000
0001
,
0010
0001
0100
0010
1000
0100
0010
0001
0100
0010
1000
0001
0100
0001
1000
0100
,
1000
0010
0100
0001
1000
0100
0010
0001
0100
0010
1000
0001
0100
0001
1000
0100
,
1000
0010
0100
0001
1000
0100
0010
0001
0100
0010
1000
0001
0010
0001
0100
0010
,
1000
0100
0010
0001
0100
0010
1000
0001
0100
0001
1000
0100
1000
0010
0100
0001
,
1000
0100
0010
0001
0100
0010
1000
0001
0100
0001
1000
0100
1000
0010
0100
0001
,
1000
0100
0010
0001
0100
0010
1000
0001
0010
0001
0100
0010
1000
0100
0010
0001
,
0100
0010
1000
0001
0100
0010
1000
0100
1000
0001
0100
0010
1000
0100
0010
0001
,
0100
0010
1000
0001
0010
0001
0100
0010
1000
0001
0100
0010
1000
0100
0010
0001
,
2000
3010
0100
0001
1000
0200
0000
0000
0310
0100
1000
0010
0100
0001
1000
0010
,
0100
0001
1000
0010
1000
0100
0010
0001
0100
0010
0100
0001
1000
0010
1000
0001
,
0100
0010
1000
0100
0010
0001
1000
0010
0100
0010
1000
0001
0100
0001
1000
0100
,
1000
0010
0100
0001
1000
0100
0010
0001
0100
0010
1000
0001
0100
0001
1000
0100
,
1000
0010
0100
0001
1000
0100
0010
0001
0100
0010
1000
0001
0010
0001
0100
0010
,
1000
0100
0010
0001
0100
0010
1000
0001
0100
0001
1000
0100
1000
0010
0100
0001
,
1000
0100
0010
0001
0100
0010
1000
0001
0100
0001
1000
0100
1000
0010
0100
0001
,
1000
0100
0010
0001
0100
0010
1000
0001
0010
0001
0100
0010
1000
0100
1000
0001
,
0100
0010
1000
0001
0200
0000
0000
0000
0320
0000
0000
0000
0030
0000
0000
0000
,
0000
0000
0000
0000
,
0000
0000
0000
0000
,
0000
0000
0000
0000
,
0000
0000
0000
0000
,
0000
0000
0000
0000
,
0000
0000
0000
0000
,
0000
0000
0000
0000
,
0000
0000
0000
0000
,
0000
0000
0000
0000
,
0000
0000
0000
0000
,
0000
0000
0000
0000
,
0000
0000
0000
0000
,
0000
0000
0000
0000
,
0000
0000
0000
0000
,
0000
0000
0000
0000
,
0000
0000
0000
0000
,
0000
0000
0000
0000
,
0000
0000
0000
0000
,
0000
0000
0000
0000
,
0000
0000
0000
0000
,
0000
0000
0000
0000
,
0000
0000
0000
0000
,
0000
0000
0000
0000
;

//---------------dance-single - 23+ (owenviau1)----------------
#NOTES:
     dance-single:
     23+ (owenviau1):
     Challenge:
     23:
     1.000,1.000,0.000,0.124,1.000,1544.000,0.000,13.000,0.000,0.000:
0002
0000
0023
0000
,
0230
0000
0000
0000
,
2300
0000
0000
0000
3020
0000
0000
1000
,
0032
0203
0000
0000
,
0301
0010
0100
1000
0001
0100
0001
1000
0010
0100
0010
1000
0001
0010
0001
1000
0100
0010
0001
0100
0010
1000
0001
0100
0001
1000
0100
0010
0001
0100
0010
1000
0001
0010
0001
1000
0100
1000
0001
0100
0010
1000
0010
0100
0001
1000
0100
0010
,
0001
1000
0100
1000
0001
0010
0100
1000
0010
0100
0001
0100
0010
1000
0100
0010
0001
0100
0010
0000
1000
0000
0001
0000
0010
0000
0001
0000
1000
0000
0100
0000
0010
0000
0001
0000
0100
0000
0010
0000
1000
0000
0001
0000
0100
0000
0001
0000
,
1000
0000
0100
0000
0010
0000
0001
0100
0001
1000
0100
0010
0001
0000
0100
0000
0010
0000
1000
0000
0001
0000
0010
0000
0001
0000
1000
0000
0100
0000
1000
0000
0010
0000
0100
0000
0010
0000
1000
0000
0001
0000
0100
0000
0001
0000
1000
0000
,
0100
0010
0001
0100
0010
1000
0001
0010
0001
0100
0010
0100
0001
1000
0100
1000
0001
0100
0010
1000
0010
0100
0001
1000
,
0010
0000
0100
0000
0001
0000
1000
0000
0100
0000
1000
0000
0001
0000
0100
0000
0010
0000
1000
0000
0001
0000
0010
0000
0001
0000
1000
0000
0100
0000
0010
0000
0001
0000
0100
0000
0010
0000
1000
0000
0001
0000
0100
0000
0001
0000
1000
0000
0100
0000
0010
0000
0001
0000
0100
0000
0010
0000
1000
0000
0001
0000
0010
0000
0001
0000
1000
0000
0010
0000
0100
0000
0001
0010
0100
1000
0001
0100
0001
1000
0010
0100
0010
1000
0001
0100
0001
1000
0100
0010
0001
0100
0010
1000
0001
0100
,
0001
1000
0010
0100
0010
1000
0001
0100
0001
1000
0100
0010
0001
0100
0010
1000
0001
0010
0001
0100
0010
1000
0100
0010
0001
1000
0100
1000
0001
0100
0010
1000
0010
0100
0001
0010
0001
1000
0100
0010
0001
0100
0010
1000
0001
0100
0001
1000
,
0010
0100
0010
1000
0001
0100
0001
1000
0100
0010
0001
0100
0010
1000
0001
0010
0001
1000
0100
1000
0001
0100
0010
1000
0001
0010
0001
1000
0100
1000
0001
0100
0010
1000
0100
0010
0001
0000
1000
0000
0010
0000
0100
0000
0010
0000
1000
0000
,
0002
0000
0000
0003
0000
0000
1000
0100
0010
0001
0100
0010
1000
0000
0001
0000
0100
0000
0001
0000
1000
0000
0010
0000
0100
0000
0010
0000
1000
0000
0001
0000
0010
0000
0001
0000
1000
0000
0100
0000
0010
0000
0001
0000
0100
0000
0010
0000
,
1000
0001
0100
0010
1000
0010
0100
0001
0010
0001
1000
0100
0010
0001
0100
0010
1000
0010
0100
0001
0010
0001
1000
0100
,
0010
0001
0100
0010
1000
0001
0100
0001
1000
0100
0010
0001
0100
0010
0100
0001
1000
0010
0100
0010
1000
0001
0100
0001
,
1000
0100
0010
0001
0100
0010
1000
0001
0100
0001
1000
0010
1000
0001
0010
0100
1000
0100
0010
0001
0100
0010
1000
0001
,
0100
0001
1000
0100
0010
0001
0100
0010
1000
0001
0010
0001
1000
0100
1000
0001
0100
0010
1000
0001
0100
0010
1000
0010
,
0100
0001
1000
0100
1000
0001
0100
0010
1000
0010
0100
0001
1000
0100
1000
0001
0010
0100
1000
0001
0010
0001
1000
0100
,
0010
0001
0100
0010
1000
0001
0100
0001
1000
0100
0010
0001
0100
0010
1000
0001
0100
0001
1000
0010
0100
0010
1000
0001
,
0010
0001
1000
0100
0010
0001
0100
0010
1000
0001
0100
0001
1000
0100
0010
0001
0100
0010
1000
0001
0010
0001
1000
0100
,
0010
0001
0100
0010
1000
0001
0100
0001
1000
0100
0010
0001
0100
0010
1000
0001
0010
0001
1000
0100
1000
0001
0100
0010
,
1000
0001
0010
0001
0100
0010
1000
0001
0100
0001
1000
0010
0100
0010
1000
0001
0010
0001
1000
0100
0010
0001
0100
0010
,
1000
0001
0100
0001
1000
0100
0010
0001
0100
0010
1000
0001
0010
0001
0100
0010
1000
0100
1000
0001
0100
0010
1000
0010
,
0100
0001
1000
0100
0010
0001
1000
0100
1000
0001
0100
0010
1000
0001
0010
0001
1000
0100
0010
0001
0100
0010
1000
0001
,
0100
0010
1000
0001
0100
0001
1000
0100
0010
0001
0100
0010
1000
0001
0010
0001
1000
0100
0010
0001
0100
0010
0100
0001
,
1000
0010
0100
0010
1000
0001
0100
0001
1000
0100
0010
0001
0100
0010
1000
0001
0010
0001
0100
0010
1000
0100
0010
0001
,
0100
0010
1000
0001
0100
0001
1000
0100
0010
0001
0100
0010
1000
0001
0010
0001
0100
0010
1000
0100
0010
0001
0100
0010
,
2000
0000
0000
3000
0000
0000
0001
0000
0000
0000
0010
0100
0000
0000
1000
0100
,
0000
0000
0000
0000
0000
0000
0010
0000
0000
0001
0000
0000
0000
0000
0000
0000
0000
0000
1000
0000
0100
0000
0010
0000
0001
0000
0000
0000
0100
0000
0000
0000
0010
0000
1000
0000
0001
0000
0000
0000
0100
0000
0000
0000
0010
0000
1000
0000
,
0010
0000
0100
0000
0001
0100
0010
0000
1000
0000
0001
0100
0001
0000
0100
0000
0010
1000
0001
0000
0100
0000
0010
1000
,
0010
0000
0100
0000
0001
0010
0100
0000
1000
0000
0001
0100
0001
0000
0100
0000
0010
1000
0001
0000
0100
0000
0010
1000
,
0010
0000
0100
0000
0001
0100
0010
0000
1000
0000
0001
0100
0001
0000
0100
0000
0010
1000
0001
0000
0100
0000
0010
1000
,
0010
0000
0100
0000
0001
0010
0100
0000
1000
0000
0001
0100
0001
0000
0100
0000
0010
1000
0001
0000
0100
0000
0010
1000
,
0010
0000
0100
0000
0001
0100
0010
0000
1000
0000
0001
0100
0001
0000
0100
0000
0010
1000
0001
0000
0100
0000
0010
1000
,
0010
0000
0100
0000
0001
0010
0100
0000
1000
0000
0001
0100
0001
0000
0100
0000
0010
1000
0001
0000
0100
0000
0010
1000
,
0010
0000
0100
0000
0001
0100
0010
0000
1000
0000
0001
0100
0001
0000
0100
0000
0010
1000
0001
0000
0100
0000
0010
1000
,
0010
0000
0100
0000
0001
0010
0100
0000
1000
0000
0001
0100
0001
0000
0100
0000
0010
1000
0001
0000
0100
0000
0010
1000
,
0010
0000
0100
0000
0001
0100
0010
0000
1000
0000
0001
0100
0001
0000
0100
0000
0010
1000
0001
0000
0100
0000
0010
1000
,
0010
0000
0100
0000
0001
0010
0100
0000
1000
0000
0001
0100
0001
0000
0100
0000
0010
1000
0001
0000
0100
0000
0010
1000
,
0010
0000
0100
0000
0001
0100
0010
0000
1000
0000
0001
0100
0001
0000
0100
0000
0010
1000
0001
0000
0100
0000
0010
1000
,
0010
0000
0100
0000
0001
0010
0100
0000
1000
0000
0001
0100
0001
0000
0100
0000
0010
1000
0001
0000
0100
0000
0010
1000
,
0010
0000
0100
0000
0001
0100
0010
0000
1000
0000
0001
0100
0001
0000
0100
0000
0010
1000
0001
0000
0100
0000
0010
1000
,
0010
0000
0100
0000
0001
0010
0100
0000
1000
0000
0001
0100
0001
0000
0100
0000
0010
1000
0001
0000
0100
0000
0010
1000
,
0010
0000
0100
0000
0001
0100
0010
0000
1000
0000
0001
0100
0001
0000
0100
0000
0010
1000
0001
0000
0100
0000
0010
1000
,
0010
0000
0100
0000
0001
0010
0100
0000
1000
0000
0001
0100
0001
0000
0100
0000
0010
1000
0001
0000
0100
0000
0010
1000
,
0010
0000
0100
0000
0001
0100
0010
0000
1000
0000
0001
0100
0001
0000
0100
0000
0010
1000
0001
0000
0100
0000
0010
1000
,
0010
0000
0100
0000
0001
0010
0100
0000
1000
0000
0001
0100
0001
0000
0100
0000
0010
1000
0001
0000
0100
0000
0010
1000
,
0010
0000
0100
0000
0001
0100
0010
0000
1000
0000
0001
0100
0001
0000
0100
0000
0010
1000
0001
0000
0100
0000
0010
1000
,
0010
0000
0000
0000
0000
0000
0000
0000
0000
0000
0000
0000
0000
0000
0000
0000
0100
0000
0000
0000
0000
0000
0000
0000
0000
0000
0000
0000
0000
0000
0000
0000
0001
0000
0000
0000
0000
0000
0000
0000
0010
0000
0000
0000
0000
0000
0000
0000
0100
0000
0000
0000
0000
0000
0000
0000
1000
0000
0000
0000
0000
0000
0000
0000
0001
0000
0000
0000
0000
0000
0000
0000
0100
0000
0000
0000
0000
0000
0000
0000
0001
0000
0000
0000
0000
0000
0000
0000
1000
0000
0000
0000
0000
0000
0000
0000
0010
0000
0000
0000
0000
0000
0000
0000
0000
0000
0000
0000
0000
0000
0000
0000
0000
0000
0000
0000
0000
0000
0000
0000
0000
0000
0000
0000
0000
0000
0000
0000
0000
0000
0000
0000
0000
0000
0000
0100
0000
0000
0000
0000
0000
0000
0000
0000
0010
0000
0000
0000
0000
0000
0000
0000
0000
0000
0000
0000
0001
0000
0000
0000
0000
0000
0000
0000
0000
0000
0000
0000
0100
0000
0000
0000
0000
0000
0000
0000
0000
0000
0000
0000
0001
0000
0000
0000
0000
0000
0000
0000
0000
0000
0000
0000
,
1000
0001
0100
0001
1000
0010
0100
0010
1000
0001
0010
0001
1000
0100
0010
0001
0100
0010
1000
0001
0100
0010
1000
0010
,
0100
0001
0010
0001
1000
0100
0010
0001
0100
0010
1000
0010
0100
0001
0010
0001
1000
0100
0010
0001
0100
0010
1000
0001
,
0100
0001
1000
0100
0010
0001
0100
0010
0100
0001
1000
0010
0100
0010
1000
0001
0100
0001
1000
0100
0010
0001
0100
0010
,
1000
0001
0100
0001
1000
0010
1000
0001
0010
0100
1000
0100
0010
0001
0100
0010
1000
0001
0100
0001
1000
0100
0010
0001
,
0100
0010
1000
0001
0010
0001
1000
0100
1000
0001
0100
0010
1000
0001
0100
0010
1000
0010
0100
0001
1000
0100
1000
0001
,
0100
0010
1000
0010
0100
0001
1000
0100
1000
0001
0010
0100
1000
0001
0010
0001
1000
0100
0010
0001
0100
0010
1000
0001
,
0100
0001
1000
0100
0010
0001
0100
0010
1000
0001
0100
0001
1000
0010
0100
0010
1000
0001
0010
0001
1000
0100
0010
0001
,
0100
0010
1000
0001
0100
0001
1000
0100
0010
0001
0100
0010
1000
0001
0010
0001
1000
0100
0010
0001
0100
0010
1000
0001
,
0100
0001
1000
0100
0010
0001
0100
0010
1000
0001
0010
0001
1000
0100
1000
0001
0100
0010
1000
0001
0010
0001
0100
0010
,
1000
0001
0100
0001
1000
0010
0100
0010
1000
0001
0010
0001
1000
0100
0010
0001
0100
0010
1000
0001
0100
0001
1000
0100
,
0010
0001
0100
0010
1000
0001
0010
0001
0100
0010
1000
0100
1000
0001
0100
0010
1000
0010
0100
0001
1000
0100
0010
0001
,
1000
0100
1000
0001
0100
0010
1000
0001
0010
0001
1000
0100
0010
0001
0100
0010
1000
0001
0100
0010
1000
0001
0100
0001
,
1000
0100
0010
0001
0100
0010
1000
0001
0010
0001
1000
0100
0010
0001
0100
0010
0100
0001
1000
0010
0100
0010
1000
0001
,
0100
0001
1000
0100
0010
0001
0100
0010
1000
0001
0010
0001
0100
0010
1000
0100
0010
0001
0100
0010
1000
0001
0100
0001
,
1000
0100
0010
0001
0100
0010
1000
0001
0010
0001
0100
0010
1000
0100
0010
0001
0100
0010
1000
0001
0100
0010
1000
0001
,
2000
0000
0000
3010
0000
0000
0100
0000
0000
0001
0000
0000
1000
0000
0000
0200
0000
0000
0000
0000
0000
0000
0000
0000
1300
0000
0001
0000
0100
0000
0001
0000
1000
0000
0010
0000
0100
0000
0010
0000
1000
0000
0001
0000
0010
0000
0001
0000
,
1000
0100
0010
0001
0100
0010
1000
0001
0100
0010
1000
0010
0100
0001
0010
0001
1000
0100
0010
0001
0100
0010
1000
0010
,
0100
0001
0010
0001
1000
0100
0010
0001
0100
0010
1000
0001
0100
0001
1000
0100
0010
0001
0100
0010
0100
0001
1000
0010
,
0100
0010
1000
0001
0100
0001
1000
0100
0010
0001
0100
0010
1000
0001
0100
0001
1000
0010
1000
0001
0010
0100
1000
0100
,
0010
0001
0100
0010
1000
0001
0100
0001
1000
0100
0010
0001
0100
0010
1000
0001
0010
0001
1000
0100
1000
0001
0100
0010
,
1000
0001
0100
0010
1000
0010
0100
0001
1000
0100
1000
0001
0100
0010
1000
0010
0100
0001
1000
0100
1000
0001
0010
0100
,
1000
0001
0010
0001
1000
0100
0010
0001
0100
0010
1000
0001
0100
0001
1000
0100
0010
0001
0100
0010
1000
0001
0100
0001
,
1000
0010
0100
0010
1000
0001
0010
0001
1000
0100
0010
0001
0100
0010
1000
0001
0100
0001
1000
0100
0010
0001
0100
0010
,
1000
0001
0010
0001
1000
0100
0020
0000
0000
0000
0000
0000
0032
0000
0000
0000
0000
0000
0003
0000
0000
0000
0000
0000
,
0000
0000
0000
0000
,
0000
0000
0000
0000
,
0000
0000
0000
0000
,
0000
0000
0000
0000
,
0000
0000
0000
0000
,
0000
0000
0000
0000
,
0000
0000
0000
0000
,
0000
0000
0000
0000
,
0000
0000
0000
0000
,
0000
0000
0000
0000
,
0000
0000
0000
0000
,
0000
0000
0000
0000
,
0000
0000
0000
0000
,
0000
0000
0000
0000
,
0000
0000
0000
0000
,
0000
0000
0000
0000
,
0000
0000
0000
0000
,
0000
0000
0000
0000
,
0000
0000
0000
0000
,
0000
0000
0000
0000
,
0000
0000
0000
0000
,
0000
0000
0000
0000
,
0000
0000
0000
0000
;
