#TITLE:Brand New Morning;
#SUBTITLE:- Kamisama Kazoku Opening;
#ARTIST:Mizuhashi Mai;
#TITLETRANSLIT:;
#SUBTITLETRANSLIT:;
#ARTISTTRANSLIT:;
#CREDIT:Jubo;
#BANNER:KamisamaKazoku-OP-Banner.png;
#BACKGROUND:KamisamaKazoku-OP-BG1.jpg;
#LYRICSPATH:KamisamaKazoku-OP-Lyrics.lrc;
#CDTITLE:Jubo.png;
#MUSIC:Kamisama Kazoku OP.mp3;
#OFFSET:1.220;
#SAMPLESTART:26.044;
#SAMPLELENGTH:29.960;
#SELECTABLE:YES;
#BPMS:0.000=157.010;
#STOPS:83.000=0.380
,146.000=0.390
;
#BGCHANGES:3.167=Kamisama Kazoku OP Video.avi=1.000=1=0=0,
229.000=KamisamaKazoku-OP-BG2.jpg=1.000=1=0=0,
99999=-nosongbg-=1.000=0=0=0 // don't automatically add -songbackground-
;
// cache tags:
#FIRSTBEAT:5.000;
#LASTBEAT:232.000;
#SONGFILENAME:Songs/Otaku's Dream 1st Anime Mix/Jubo - Kamisama Kazoku OP/Kamisama Kazoku OP.sm;
#HASMUSIC:1;
#HASBANNER:1;
#MUSICLENGTH:89.909;
// end cache tags

//---------------dance-single - ----------------
#NOTES:
     dance-single:
     :
     Hard:
     8:
     0.678,0.613,0.523,0.267,0.039,356.000,47.000,24.000,0.000,0.000:
0000
0000
0000
0000
,
0000
0000
0100
0001
0100
0001
0010
0100
,
0010
0000
0100
0000
1000
0000
0010
0000
1000
0000
0010
0000
0100
1000
0001
0000
,
0100
0001
0010
1000
0010
1000
0100
0010
,
0100
0000
0010
0000
0001
0000
0100
0000
0001
0000
0100
0000
0010
0001
1000
0000
,
0100
0002
0003
0000
0010
0000
1000
0000
0010
0000
0200
0000
0000
0000
0300
0000
,
1000
0100
0010
0001
0010
0200
0000
0000
,
0310
0001
0100
0001
0100
0020
0000
0030
,
0001
0010
0100
1000
0100
0020
0000
0000
,
1030
0000
0001
0010
0001
0200
0000
0300
,
0001
0010
1000
0001
0100
0020
0000
0000
,
0031
0000
1000
0001
1000
0020
0000
0030
,
0100
0000
0001
0000
1000
0000
0010
0000
0001
0000
0100
0000
1000
0001
1000
0001
,
1000
0110
0110
1010
,
0110
0000
1100
0000
0101
0000
0100
0010
,
0001
1001
1100
1010
,
0011
0101
1001
0110
,
1100
0000
0110
0000
1100
0000
0100
0001
,
0010
0000
0100
1000
0010
0000
0001
0100
,
0010
0000
0001
0100
0010
1000
0100
0010
,
0010
0001
0100
1000
0010
0100
0110
0000
,
0001
0010
0001
0100
1000
0010
0001
0100
,
0010
1000
0001
0100
0101
0000
1001
0000
,
1000
0100
1000
0010
0001
0100
1000
0010
,
0100
0001
1000
0010
1010
0000
0010
1000
,
0010
0100
0001
0100
0001
0010
0100
1000
,
0100
1000
0010
0100
0010
0001
0100
1000
,
1100
0000
0010
0100
0110
0000
0001
0010
,
0011
0000
1000
0001
1001
0100
0010
0100
,
1000
0100
0001
1000
0010
0001
0110
0000
,
0001
0100
1000
0001
0010
1000
1001
0000
,
0100
0010
0001
0100
0202
0303
0000
0000
,
0010
0100
1000
0010
1010
1000
0010
1000
,
2000
0010
0100
0010
0001
0100
0010
0001
,
0100
0010
0001
0100
0010
0001
0100
3010
,
2200
0000
0000
0000
0000
0000
0000
0000
0000
0000
0000
0300
0002
0000
0000
0000
,
0000
0000
0000
3003
1001
0000
0100
0000
,
0010
0000
1000
0000
0100
1000
0010
0100
,
0010
0001
1001
0000
0100
0001
0101
0000
,
0010
1000
1010
0000
0100
1000
0010
0100
,
0010
0001
0110
0000
0100
1000
1100
0000
,
0010
0001
0011
0000
0100
1000
0010
0100
,
0010
0001
1001
0000
1000
0010
1010
0000
,
0001
0100
0101
0000
1000
0100
1000
0010
,
0100
0010
1001
0000
0010
1000
0101
0000
,
0100
0001
1010
0000
0001
0100
0001
0010
,
0100
0010
0110
0000
1000
1000
1001
0000
,
0001
0001
1001
0000
1000
0010
0100
0001
,
1000
0010
0002
1000
0010
0200
0000
0300
,
1000
0010
0100
0010
0100
0020
0000
0000
,
0030
0003
1000
0100
1000
0020
0000
0030
,
1000
0100
0001
1000
0010
0200
0000
0000
,
0310
0000
0001
0010
0001
0200
0000
0300
,
0001
0010
1000
0001
0100
0020
0000
0000
,
0031
0000
1000
0001
1000
0020
0000
0030
,
0100
0000
0001
0000
1000
0000
0010
0000
0001
0000
0100
0000
1000
0001
1000
0001
,
1000
0000
1001
0100
1000
0010
0100
0001
,
0022
0000
0000
0000
,
0033
0000
0000
0000
;

//---------------dance-single - ----------------
#NOTES:
     dance-single:
     :
     Medium:
     6:
     0.483,0.452,0.389,0.222,0.000,249.000,35.000,20.000,0.000,0.000:
0000
0000
0000
0000
,
0000
0001
0010
0001
,
1000
0000
0010
0000
0100
0000
0001
1000
,
0001
0010
0100
0010
,
1000
0000
0001
0000
1000
0000
0001
1000
,
0001
0010
0110
0010
,
1010
0100
0101
1000
,
1001
0010
0011
0010
,
1010
0100
1100
0001
,
1001
0010
0110
0010
,
1010
0100
0101
1000
,
1001
0010
0011
0010
,
1010
0000
0100
0000
1100
0000
0001
1000
,
0001
0000
0020
0000
0000
0030
0200
0000
,
0000
0300
0020
0000
0000
0030
2000
0000
,
0000
3000
0002
0003
0020
0000
0230
0000
,
2300
3010
0200
0320
,
0000
0030
0000
0000
0000
0000
0002
0000
,
0000
0003
0020
0000
0000
0030
2000
0000
,
0000
3000
0100
0000
0010
0000
1000
0000
,
0001
1000
0001
1001
,
0010
0001
1000
0010
,
0100
0000
0001
0000
0101
0000
0001
1000
,
0001
0010
0100
0010
,
1000
0000
0010
0000
0100
0001
1000
0001
,
0010
0100
0010
1000
,
0100
0000
0010
0000
0001
0000
0001
0010
,
1000
0000
1000
0100
0001
0000
1000
0010
,
1000
0000
0001
0100
0001
0000
0000
0000
,
0010
0100
0010
1001
,
1000
0001
1000
0110
,
0100
0010
0100
1001
,
1000
0010
0100
0010
,
2001
0100
0010
0001
,
0100
0001
0010
3100
,
2002
0000
0000
0000
,
0000
0000
0000
3003
1001
0000
1000
0000
,
0010
0000
0100
0000
0001
1000
0001
1000
,
0010
0100
0010
0000
1000
0100
1000
0000
,
1000
0010
1000
0000
1000
0001
1000
0001
,
0100
0010
0100
0000
0001
0010
1000
0000
,
1000
0100
0001
0000
0100
0010
0100
0010
,
1000
0001
1000
0000
1000
0100
0001
0000
,
0001
0010
1000
0000
0010
0100
0010
0100
,
0001
1000
0001
0000
0001
0100
0001
0000
,
0001
0010
0001
0000
0010
0100
0010
0100
,
1000
0001
1000
0000
1000
0100
0010
0000
,
0001
0010
0100
0000
1000
0001
1000
0001
,
1000
0001
2000
0000
0001
0000
0010
0000
,
0001
0010
0100
0002
,
0003
3000
0010
0000
0011
0000
0010
0000
,
1010
0100
1100
0001
,
1001
0010
0110
0010
,
1010
0100
0101
1000
,
1001
0010
0011
0010
,
1010
0000
0100
0000
1100
0000
0001
1000
,
0001
0000
1000
0001
1000
0001
1000
0001
,
2002
0000
0000
0000
,
3003
0000
0000
0000
;

//---------------dance-single - ----------------
#NOTES:
     dance-single:
     :
     Easy:
     4:
     0.303,0.513,0.133,0.423,0.000,141.000,12.000,38.000,0.000,0.000:
0000
0000
0000
0000
,
0000
0001
0010
0000
,
0000
1000
0100
0000
,
0000
0010
0100
0000
,
0000
0001
0010
0000
,
0000
2000
0001
0000
,
0001
0000
0001
0000
,
3001
0002
0010
0000
,
0010
0000
0010
0000
,
0013
0020
1000
0000
,
1000
0000
1000
0000
,
1030
2000
0100
0000
,
0100
0000
0100
0000
,
3100
0020
1000
0000
,
0000
2030
0001
0000
,
0000
3002
0000
0010
,
0000
0023
1000
0000
,
0000
2030
0010
0000
,
0000
3020
0100
0000
,
0000
2030
0001
0000
,
0000
3000
2002
0000
0000
0000
3003
0000
,
0010
0010
1000
1000
,
0001
0001
1000
1000
,
0000
0010
0010
0100
,
0100
0010
0010
0000
,
1000
1000
0001
0001
,
0010
0010
0100
0100
,
0000
0010
0010
0000
,
0100
0100
0000
0000
,
0001
1000
0001
0000
,
0010
0100
0010
0000
,
1000
0001
1000
0000
,
0001
0010
0100
1000
,
2002
0000
0000
0000
,
0000
0000
0000
3003
,
2002
0000
0000
0000
,
0000
0000
3003
1000
,
1000
0010
0010
0100
,
0100
0001
0001
1000
,
1000
0010
0010
0100
,
0100
0001
0001
0010
,
0010
1000
1000
0100
,
0100
0010
0010
1000
,
1000
0001
0001
0100
,
0100
0010
0000
2002
,
3003
0220
0330
2002
,
3003
0220
0330
2200
,
3300
0202
0303
2200
,
3300
0202
0000
0000
,
0000
0000
0000
0000
,
0000
0303
2000
0000
0001
0000
0000
0000
,
0001
0000
0001
0000
,
3001
0002
0010
0000
,
0010
0000
0010
0000
,
0013
0020
1000
0000
,
1000
0000
1000
0000
,
1030
0000
0001
0000
0000
1000
0000
0000
,
2002
0000
0000
0000
0000
3003
0000
0000
;

//---------------dance-single - ----------------
#NOTES:
     dance-single:
     :
     Beginner:
     2:
     0.149,0.256,0.011,0.300,0.000,66.000,1.000,27.000,0.000,0.000:
0000
0000
0000
0000
,
0000
0000
0001
0000
,
0000
0000
1000
0000
,
0000
0000
0010
0000
,
0000
0000
0100
0000
,
0000
2000
0000
0000
,
0000
0000
0000
0000
,
3000
0002
0000
0000
,
0000
0000
0000
0000
,
0003
0020
0000
0000
,
0000
0000
0000
0000
,
0030
2000
0000
0000
,
0000
0000
0000
0000
,
3000
0020
0000
0000
,
0000
2030
0000
0000
,
0000
3002
0000
0000
,
0000
0023
0000
0000
,
0000
2030
0000
0000
,
0000
3020
0000
0000
,
0000
2030
0000
0000
,
0000
3000
0002
0000
0000
0000
0003
0000
,
0010
0000
1000
0000
,
0001
0000
1000
0000
,
0000
0010
0000
0000
,
0100
0000
0010
0000
,
1000
0000
0001
0000
,
0010
0000
0000
0100
,
0000
0000
0010
0000
,
0100
0000
0000
0000
,
0001
0000
0001
0000
,
0010
0000
0010
0000
,
1000
0000
1000
0000
,
0001
0000
0100
0000
,
0002
0000
0000
0000
,
0000
0000
0000
0003
,
2000
0000
0000
0000
,
0000
0000
3000
0000
,
1000
0000
0010
0000
,
0100
0000
0001
0000
,
1000
0000
0010
0000
,
0100
0000
0001
0000
,
0010
1000
0000
0000
,
0100
0000
0010
0000
,
1000
0000
0001
0000
,
0100
0000
0000
2000
,
3000
0020
0030
0002
,
0003
0200
0300
0020
,
0030
2000
3000
0200
,
0300
0200
0000
0000
,
0000
0000
0000
0000
,
0000
0300
2000
0000
0000
0000
0000
0000
,
0000
0000
0000
0000
,
3000
0002
0000
0000
,
0000
0000
0000
0000
,
0003
0020
0000
0000
,
0000
0000
0000
0000
,
0030
0000
0000
0000
,
2002
0000
0000
0000
0000
3003
0000
0000
;
