#TITLE:Boogie Woogie Splatter Show;
#SUBTITLE:;
#ARTIST:t+pazolite;
#TITLETRANSLIT:;
#SUBTITLETRANSLIT:;
#ARTISTTRANSLIT:;
#CREDIT:Rynker;
#BANNER:boogie woogie bn.png;
#BACKGROUND:boogie woogie bg.png;
#LYRICSPATH:;
#CDTITLE:;
#MUSIC:02 - t+pazolite - Boogie Woogie Splatter Show.ogg;
#OFFSET:-0.015;
#SAMPLESTART:36.539;
#SAMPLELENGTH:12.000;
#SELECTABLE:YES;
#BPMS:0.000=230.000;
#STOPS:;
#BGCHANGES:;
// cache tags:
#FIRSTBEAT:16.000;
#LASTBEAT:600.000;
#SONGFILENAME:Songs/SPEEEDCOOOORE 2/Boogie Woogie Splatter Show - [Rynker]/boogie.sm;
#HASMUSIC:1;
#HASBANNER:1;
#MUSICLENGTH:160.138;
// end cache tags

//---------------dance-single - Rynker----------------
#NOTES:
     dance-single:
     Rynker:
     Challenge:
     14:
     1.000,1.000,0.381,0.000,0.749,1180.000,61.000,0.000,0.000,0.000:

0000
0000
0000
0000
,
0000
0000
0000
0000
,
0000
0000
0000
0000
,
0000
0000
0000
0000
,
1001
0000
0001
0010
0100
0000
1000
0010
,
0100
0100
0001
1000
0100
0000
0010
0000
,
0011
0000
0001
0100
0010
0000
0100
0001
,
1000
1000
0100
0010
0001
0000
1000
0001
,
0000
0000
0000
0000
,
0000
0000
0000
0000
0000
0001
0010
0001
,
0100
0100
0100
0100
0100
0000
0001
0001
,
0010
0010
0010
0010
0010
0000
0100
0100
,
0010
0010
0010
0010
0010
0000
0100
0100
,
1100
1001
1001
1001
,
0100
0100
0100
0100
0100
0000
1000
1000
,
0010
0010
0010
0010
0010
0000
0100
0100
,
0010
0010
0010
0010
0010
0000
0001
0001
,
1001
0000
0000
0011
0000
0000
0101
0000
,
0100
0100
0100
0100
0100
0000
1000
1000
,
0010
0010
0010
0010
0010
0000
1000
1000
,
0100
0100
0100
0100
0100
0000
0010
0001
,
0011
1001
1100
0110
,
0100
0100
0100
0100
0100
0000
1000
1000
,
0010
0010
0010
0010
0010
0000
1000
1000
,
0100
0100
0100
0100
0100
0000
0010
0010
,
0011
0000
0000
0000
1001
0000
0000
0000
0001
0100
0001
0100
0001
0100
0001
0100
,
0001
1000
0100
1000
0010
0100
0010
0001
,
0010
1000
0001
0010
0100
1000
0001
0100
,
0010
0000
1000
0000
0010
0000
0100
0000
0001
0000
0010
0000
0100
1000
0100
1000
,
0001
0010
0001
1000
0010
0100
0001
0001
,
1001
1100
0011
1001
,
0101
0001
0010
0100
1000
0100
0010
0001
,
0100
0000
0010
0000
1000
0000
0001
0000
0100
0000
0001
0000
1000
0100
1000
0100
,
0010
0001
0100
0010
0100
0001
1000
1000
,
1100
0000
0000
0011
0000
0000
1001
0000
,
0101
0001
0010
0100
0010
0001
0100
0010
,
1000
0000
0100
0000
0010
0000
0001
0000
1000
0000
0001
0000
0100
0001
1000
0001
,
1000
0100
1000
0001
0100
0010
1000
1000
,
1100
0011
0101
1010
,
0110
0010
1000
0001
0010
0100
1000
0001
,
0010
0000
0001
0000
1000
0000
0010
0000
0100
0000
0010
0000
1000
0001
1000
0001
,
0100
0001
0010
0100
1000
0010
0100
0100
,
0101
0000
0000
1001
0000
0000
1100
0000
,
0101
0000
0000
1100
0000
0000
0100
0100
,
0110
0000
0000
0110
0000
0000
0010
0010
,
0011
0000
0000
0011
0000
0000
0001
0001
,
1001
0000
0000
1001
0000
0000
1000
1000
,
1010
0000
0000
0000
0000
0000
0001
0001
,
0001
0000
0000
0000
0000
0000
1000
1000
,
1001
0000
0000
0000
0000
0000
0001
0001
,
0001
0000
0000
0000
,
1001
0001
0010
0100
1000
0100
0010
0001
,
1000
0010
0100
0010
0100
0001
0100
0001
,
1000
0100
0010
0100
1000
0010
0100
0001
,
0010
0001
0010
0001
0100
0001
0100
0001
,
1000
0100
0010
0100
1000
0010
0100
0001
,
1000
0001
1000
0001
0100
0010
0100
0010
,
1000
0001
0010
0100
1000
0001
0100
0010
,
1000
0010
1000
0010
0100
0001
0100
0001
,
0010
0100
1000
0001
0100
0010
0100
0001
,
0010
0100
0010
0100
1000
0001
1000
0001
,
0010
0100
1000
0100
0010
0001
1000
0001
,
1000
0100
1000
0100
0010
0001
0010
0001
,
0100
0001
0010
0100
1000
0100
0010
0001
,
1000
0100
1000
0100
0010
0001
0010
0001
,
1000
0001
0100
0010
1000
0001
0100
0001
,
1000
0000
0010
0000
1000
0000
0001
0000
1000
0100
1000
0100
1000
0100
1000
0100
,
1000
0000
0001
0100
0001
0000
0100
0000
0010
0000
0000
1000
0000
0000
0100
0000
,
0000
0000
1000
0001
1000
0000
0001
0000
0100
0000
0000
0001
0000
0000
0010
0000
,
0100
0000
0000
1000
0000
0000
0001
0000
0010
0000
0000
0100
0000
0000
1000
0000
,
0001
0000
0100
0001
0100
0000
0010
0000
1000
0000
0000
0010
0000
0000
0100
0000
,
1001
0000
0001
1000
0001
0000
1000
0000
0100
0000
0000
0010
0000
0000
0100
0000
,
0000
0000
1000
0001
1000
0000
0001
0000
0100
0000
0000
0010
0000
0000
1000
0000
,
0001
0000
0000
0010
0000
0000
0100
0000
1000
0000
0000
0001
0000
0000
0100
0000
,
0010
0000
1000
0001
1000
0000
0001
0000
0010
0000
0100
0000
1000
0000
0100
0000
,
1001
0000
1000
0001
0100
0000
0010
0000
0100
0000
0001
0010
0000
0100
1000
0000
,
0001
0000
0100
0010
1000
0000
0001
0000
0100
0000
0001
0010
0000
0100
1000
0000
,
0001
0000
1000
0001
0000
0100
0010
0000
1000
0000
0010
0100
0000
0010
1000
0000
,
0001
0000
0010
0100
1000
0000
0100
0000
0010
0000
0001
1000
0000
0001
0100
0000
,
0001
0000
1000
0010
0100
0000
0010
0000
1000
0000
0001
0010
0000
0100
1000
0000
,
0100
0000
0010
0100
1000
0000
0010
0000
0100
0000
0010
1000
0000
0100
1000
0000
,
0010
0000
0100
0001
0000
0100
0010
0000
1000
0000
0100
1000
0000
0001
0010
0000
,
0100
0000
0010
0001
1000
0000
0010
0000
1000
0000
0000
0100
0000
0000
1000
0000
,
0010
0000
0100
0001
0100
0000
0010
0000
1000
0000
0100
0010
0000
0001
0010
0000
,
0100
0000
1000
0001
0100
0000
0010
0000
0100
0000
0001
1000
0000
0010
1000
0000
,
0100
0000
0010
0001
0000
0010
0100
0000
0010
0000
0001
1000
0000
0010
0100
0000
,
0001
0000
0100
0010
1000
0000
0100
0000
0010
0000
0001
1000
0000
0010
0100
0000
,
0001
0000
0100
0010
1000
0000
0001
0000
1000
0000
0100
0010
0000
0001
0010
0000
,
0100
0000
0010
0001
1000
0000
0010
0000
1000
0000
0001
0100
0000
0010
0100
0000
,
0001
0000
1000
0100
0000
0010
0001
0000
1000
0000
0010
1000
0000
0001
0100
0000
,
0010
0100
0001
1000
,
0001
0100
0001
0010
0100
1000
0001
0100
,
0010
0000
1000
0000
0010
0000
0100
0000
0001
0000
0010
0000
0100
1000
0100
1000
,
0001
0010
0001
1000
0010
0100
0010
1000
,
0001
0000
0010
0000
0100
0000
1000
0000
0010
0000
0100
0000
0010
1000
0001
1000
,
0001
1000
0010
0100
0001
0100
0010
1000
,
0100
0000
0010
0000
0001
0000
1000
0000
0100
0000
1000
0000
0001
0100
0001
0100
,
0010
1000
0100
0010
0100
1000
0001
0100
,
0110
0101
1001
1001
,
0001
0010
0100
0010
0001
1000
0100
0010
0100
1000
0001
0010
0100
0010
0001
1000
,
0001
0010
0100
0010
0001
1000
0100
1000
0001
0010
0001
1000
0100
0010
0001
0010
,
0100
1000
0001
0100
0010
0100
0001
0001
,
0001
0000
0000
1001
0000
0000
1001
0000
,
1000
0100
0010
0100
0010
0001
1000
0100
0010
0100
1000
0001
1000
0001
0010
0100
,
0010
0001
1000
0001
1000
0100
0010
0100
1000
0001
1000
0001
0010
0100
0010
0001
,
1000
0001
0100
0010
0100
0010
1000
1000
,
1000
0000
0000
1001
0000
0000
1001
0000
,
0001
0100
0010
0100
0001
1000
0010
0100
0001
1000
0001
1000
0010
0100
0010
1000
,
0001
1000
0001
0100
0010
0100
0001
1000
0001
1000
0010
0100
0010
1000
0001
1000
,
0001
1000
0010
0100
0001
0100
0001
0001
,
0001
0000
0000
0000
,
1000
0010
0100
0001
1000
0001
1000
0010
0100
0010
1000
0001
1000
0001
0100
0010
,
0100
0001
1000
0001
1000
0010
0100
0010
1000
0001
1000
0001
0100
0010
0100
0001
,
1000
0000
0000
0000
0000
0000
0001
0001
,
0001
0000
0000
0000
,
1001
0000
1000
0001
0100
0000
0010
0000
0100
0000
0001
0010
0000
0100
1000
0000
,
0001
0000
0100
0010
1000
0000
0001
0000
0100
0000
0001
0010
0000
0100
1000
0000
,
0001
0000
1000
0001
0000
0100
0010
0000
1000
0000
0010
0100
0000
0010
1000
0000
,
0001
0000
0010
0100
1000
0000
0100
0000
0010
0000
0001
1000
0000
0001
0100
0000
,
0001
0000
1000
0010
0100
0000
0010
0000
1000
0000
0001
0010
0000
0100
1000
0000
,
0100
0000
0010
0100
1000
0000
0010
0000
0100
0000
0010
1000
0000
0001
1000
0000
,
0010
0000
0100
0001
0000
0100
0010
0000
1000
0000
0100
1000
0000
0001
0010
0000
,
0100
1000
0001
0010
0100
0001
0100
1000
,
0100
1000
0001
0010
0100
0010
0001
1000
0100
1000
0001
0010
0100
0010
0001
1000
,
0001
1000
0100
0010
0100
1000
0001
1000
0001
0010
0100
0010
0001
1000
0100
1000
,
0001
0100
0010
1000
0010
0100
0001
0001
,
0001
1000
0001
1000
,
0001
0010
0001
1000
0100
0010
0100
1000
0001
0010
0100
0010
0001
1000
0001
1000
,
0100
0010
0100
1000
0001
0010
0100
0010
0001
1000
0001
1000
0100
0010
0001
1000
,
0001
1000
0001
0100
0010
0100
0001
0001
,
0001
1000
0001
1000
,
0010
1000
0010
0100
0001
1000
0010
0100
0010
1000
0001
0100
0001
1000
0010
0100
,
0001
1000
0001
0010
0100
0010
0001
1000
0001
0010
0100
1000
0100
1000
0001
1000
,
0001
0010
0001
1000
0010
1000
0001
0001
,
0001
1000
0001
1000
,
0100
0010
0001
1000
0001
1000
0100
0010
0100
1000
0001
0010
0100
0010
0001
1000
,
0001
0100
0010
0100
0001
1000
0010
0100
0001
0100
0001
1000
0010
0100
0001
1000
,
0010
0100
0001
1000
0010
0100
0001
0001
,
0001
1000
0001
1000
,
0001
0100
0010
0100
0001
1000
0100
0010
,
0100
0000
1000
0000
0001
0000
0010
0000
0100
0000
1000
0000
0001
0100
0001
0100
,
0010
0100
0010
0100
0001
1000
0001
0001
,
0001
0000
0000
1100
0000
0000
1001
0000
,
0001
0100
0010
0100
0001
1000
0100
0010
,
0100
0000
1000
0000
0001
0000
0100
0000
0010
0000
0100
0000
0010
0100
0001
0100
,
0001
0100
0010
0100
0001
1000
0001
0001
,
0001
1001
1100
0110
,
0011
0000
0000
0000
0000
0000
0001
0001
,
0001
0000
0000
0000
0000
0000
1000
1000
,
1001
0000
0000
0000
0000
0000
0001
0001
,
0001
0000
0000
0000
;
