#TITLE:Overdrive Computer;
#SUBTITLE:(sun-light-yellow mix);
#ARTIST:TakeponG;
#TITLETRANSLIT:;
#SUBTITLETRANSLIT:;
#ARTISTTRANSLIT:;
#CREDIT:;
#BANNER:overdrivecomputer.png;
#BACKGROUND:overdrivecomputer-bg.png;
#LYRICSPATH:;
#CDTITLE:cdtitle.png;
#MUSIC:overdrivecomputer.ogg;
#OFFSET:-0.017;
#SAMPLESTART:83.994;
#SAMPLELENGTH:12.000;
#SELECTABLE:YES;
#DISPLAYBPM:125.000;
#BPMS:0.000=125.001,1.000=124.981,3.000=125.001,144.000=125.261,148.000=125.281,152.000=125.021;
#STOPS:;
#BGCHANGES:;
// cache tags:
#FIRSTBEAT:16.000;
#LASTBEAT:208.000;
#SONGFILENAME:Songs/Japanese Collaboration Mix/overdrivecomputer/overdrivecomputer.sm;
#HASMUSIC:1;
#HASBANNER:1;
#MUSICLENGTH:107.477;
// end cache tags

//---------------dance-single - ----------------
#NOTES:
     dance-single:
     :
     Challenge:
     10:
     0.653,0.750,0.363,0.074,0.535,444.000,39.000,8.000,0.000,0.000:
0000
0000
0000
0000
,
0000
0000
0000
0000
,
0000
0000
0000
0000
,
0000
0000
0000
0000
,
0001
0000
0000
1000
0100
1000
0100
0000
0000
0010
0000
0000
0001
0000
0000
0100
0000
0000
1000
0000
0000
0100
0000
0000
,
0001
0000
0000
0101
0000
0000
1000
0000
0000
0100
0000
0000
0010
0000
0000
0001
0010
0001
0010
0000
0000
0100
0000
0000
,
1100
0000
0000
1000
0010
1000
0010
0000
0000
0101
0000
0000
1000
0000
0000
0100
0000
0000
0010
0000
0000
0011
0000
0000
,
0100
0000
0000
1000
0000
0000
0001
0000
0000
0100
0000
0000
0110
0000
0000
0001
0010
0001
0010
0000
0000
0100
0000
0000
,
1001
0000
0000
0000
0000
0000
1000
0000
0000
0001
0000
0100
0010
0000
0000
0001
0000
0100
0001
0000
0000
0010
0000
0000
,
1010
0000
0000
0000
0000
0000
2000
0000
0000
0000
0000
0100
3000
0000
0000
0200
0000
0000
0001
0000
0000
1300
0000
0000
,
0010
0000
0000
0000
0000
0000
1001
0000
0000
0000
0000
0001
1000
0000
0000
0100
0000
0000
1000
0000
0100
0010
0000
0000
,
0001
0000
0000
0000
0000
0000
1000
0000
0000
0000
0000
0000
0100
0000
0000
0000
0000
0000
0001
0000
0000
0000
0100
0000
1000
0000
0000
0000
0000
0000
1001
0000
0000
0000
0000
0000
0000
0000
0000
0110
0000
0000
0000
0000
0000
0000
0000
0000
,
1001
0000
0000
0000
0000
0000
1000
0000
0000
0100
0000
0000
1000
0000
0010
0100
0000
0001
0100
0000
0000
0010
0000
0000
,
1001
0000
0000
0000
0000
0000
0002
0000
0000
0000
0000
0010
0003
0000
0000
0020
0000
0000
0001
0000
0000
0100
0000
0000
,
0031
0000
0000
0000
0000
0000
1001
0000
0000
0000
0000
0001
0100
0000
0000
0001
0000
0000
1000
0000
0100
0010
0000
0000
,
0001
0000
0001
1000
0000
1000
0001
0000
0001
1000
0000
0001
1000
0000
0001
0100
0000
0100
0010
0000
0010
0100
0000
0100
,
0001
0000
1000
0000
0001
0100
0001
0001
,
1000
0000
1000
0001
0100
0010
1000
0100
,
0001
0000
0010
0001
0100
0001
1000
0001
,
1000
0000
1000
0001
0000
0001
1000
0000
1000
0001
0000
0100
0001
0000
0100
0010
0000
0010
0100
0000
0100
0010
0000
0010
,
1000
0000
0000
0000
0000
0000
1100
0000
0000
0100
0000
1000
0100
0000
0000
0010
0000
0000
0001
0000
0010
0100
0000
0000
,
1000
0000
0000
0001
0000
0000
0010
0000
0000
0001
0000
1000
0001
0000
0000
0100
0000
0000
0010
0000
1000
0001
0000
0000
,
0100
0000
0000
0010
0000
0000
1000
0000
0000
0001
0000
0010
0001
0000
0000
0010
0000
0000
0001
0000
0010
0100
0000
0000
,
1100
0000
0000
0000
0000
0110
0000
0000
0000
1001
0000
0000
0001
0000
1000
0100
0000
0000
0010
0000
0000
0100
0000
0000
,
1100
0000
0000
0100
0000
1000
0100
0000
0010
0001
0000
0010
0001
0000
0000
1000
0000
0000
0010
0000
0000
0100
0000
0000
,
0001
0000
0100
0001
0000
0000
1000
0000
0000
0010
0000
0100
0001
0000
0000
0010
0000
0000
0100
0000
1000
0100
0000
0010
,
0001
0000
0000
0000
0000
0000
1001
0000
0000
0001
0000
1000
0100
0000
0000
0010
0000
0000
0100
0000
0000
1000
0000
0000
,
0001
0000
0010
0100
0000
1000
0001
0000
0000
1000
0000
0000
0010
0000
0000
0220
0000
0000
0000
0000
0000
0330
0000
0000
,
0001
0001
0010
0010
0100
0100
1000
1000
,
0010
0000
0000
0010
0000
0000
0100
0000
0000
0100
0000
0000
0001
0000
1000
0100
0000
0000
0010
0000
0000
0100
0000
0000
,
1000
1000
0010
0010
0100
0100
0001
0001
,
1000
0000
0000
1000
0000
0000
0100
0000
0000
0100
0000
0000
0001
0000
0100
0001
0000
0000
0010
0000
0000
1001
0000
0000
,
0001
0000
0000
1000
0100
1000
0100
0000
0000
0010
0000
0000
0001
0000
0000
0100
0000
0000
1000
0000
0000
0100
0000
0000
,
0001
0000
0000
0101
0000
0000
1000
0000
0000
0100
0000
0000
0010
0000
0000
0001
0010
0001
0010
0000
0000
0100
0000
0000
,
1100
0000
0000
1000
0010
1000
0010
0000
0000
0101
0000
0000
1000
0000
0000
0100
0000
0000
0010
0000
0000
0011
0000
0000
,
1000
0000
0100
0010
0000
0001
1000
0000
0001
1000
0001
1000
0001
0000
0000
0000
0000
0000
2002
0000
0000
0000
0000
0000
,
3003
0000
0000
0000
,
0000
0000
0000
0000
,
0010
0001
0010
0001
0010
0001
0010
0001
,
1000
0000
0100
0000
1000
0000
0100
0000
1000
0100
1000
0100
0010
0001
0010
0001
,
1000
0000
0000
0000
0000
0000
1000
0000
0000
0001
0000
0100
0010
0000
0000
0001
0000
0100
0001
0000
0000
0010
0000
0000
,
1010
0000
0000
0000
0000
0000
0001
0000
0000
1000
0000
0100
1000
0000
0000
0001
0000
0000
0100
0000
0000
0001
0000
0000
,
0010
0000
0000
0000
0000
0000
1001
0000
0000
0000
0000
0001
1000
0000
0000
0100
0000
0000
1000
0000
0100
0010
0000
0000
,
0001
0000
0000
1000
0000
0000
0100
0000
0000
0001
0000
0100
1000
0000
0000
1001
0000
0000
0100
0000
0000
0010
0000
0000
,
1001
0000
0000
0000
0000
0000
0100
0000
0000
0001
0000
0000
0101
0000
0000
1100
0000
0001
0100
0000
0000
0001
0000
0000
,
1010
0000
0000
0000
0000
0000
0010
0000
0000
1000
0000
0100
1000
0000
0000
0001
0000
0000
0010
0000
0100
1000
0000
0000
,
0101
0000
0000
0000
0000
0000
0001
0000
0000
1010
0000
0000
0011
0000
0000
0000
0000
0000
1000
0000
0100
0010
0000
0000
,
0110
0000
0000
0000
0000
0000
0000
0000
0000
0000
0000
0000
0010
0000
0000
0000
0000
0000
0100
0000
0000
0000
0001
0000
0100
0000
0000
0000
0000
0000
1001
0000
0000
0000
0000
0000
0000
0000
0000
0110
0000
0000
0000
0000
0000
0000
0000
0000
,
1000
0001
0010
0001
1000
0001
0010
0100
0000
1000
0100
1000
0001
1000
0100
0010
,
0001
1000
0001
0010
0100
1000
0001
1000
0100
0010
0001
1000
0001
0010
0100
1000
,
0000
0001
0100
0001
0100
0001
0100
0001
1000
0001
1000
0001
1000
0100
1000
0100
,
0000
1000
0001
1000
0001
1000
0001
1000
0001
0010
0001
0010
0001
0010
0100
1000
,
0001
0000
0000
0000
;
