#TITLE:Tetris on Speed;
#SUBTITLE:;
#ARTIST:HouseMasta;
#TITLETRANSLIT:;
#SUBTITLETRANSLIT:;
#ARTISTTRANSLIT:;
#CREDIT:;
#BANNER:Tetris On Speed-banner.png;
#BACKGROUND:Tetris On Speed-bg.png;
#LYRICSPATH:;
#CDTITLE:cdtitle.png;
#MUSIC:Tetris on Speed.mp3;
#OFFSET:0.000;
#SAMPLESTART:100.000;
#SAMPLELENGTH:12.000;
#SELECTABLE:YES;
#BPMS:0.000=170.000;
#STOPS:370.000=0.353
,385.000=0.353
;
#BGCHANGES:;
// cache tags:
#FIRSTBEAT:0.000;
#LASTBEAT:546.000;
#SONGFILENAME:Songs/juju steps/Tetris on Speed/Tetris on Speed.sm;
#HASMUSIC:1;
#HASBANNER:1;
#MUSICLENGTH:197.694;
// end cache tags

//---------------dance-single - ----------------
#NOTES:
     dance-single:
     :
     Easy:
     4:
     0.254,0.379,0.000,0.324,0.000,288.000,0.000,64.000,9.000,0.000:
MM00
MM00
000M
000M
,
00MM
0000
0000
0000
,
0000
0000
0000
0000
,
0000
0000
0000
0000
,
0000
0000
0000
0000
,
0000
1000
0000
0000
0000
0000
0000
0000
,
0001
0000
0100
0000
,
0010
0000
1000
0000
,
0100
0010
0010
0000
,
0001
0000
0010
0000
,
0001
0000
1000
0000
,
0100
0000
0010
0000
,
0100
1000
1000
0000
,
0000
0100
0000
0000
0010
0000
0000
0000
,
0100
0000
0001
0000
,
0100
0000
0010
0000
,
0001
0100
0100
0000
,
0010
0000
1000
0000
,
0010
0000
0100
0000
,
0001
0000
0010
0000
,
0100
0010
0010
0000
,
0000
0001
0000
0000
1000
0000
0000
0000
,
0010
0000
0100
0000
,
0010
0000
1000
0000
,
0100
0010
0010
0000
,
0002
0000
2003
0000
,
3200
0000
0320
0000
,
0032
0000
0203
0000
,
0320
0000
0230
0300
,
0002
0000
0023
0000
,
0230
0000
2300
0000
,
3002
2003
3002
0000
,
0203
0000
0300
0000
,
1000
0000
0010
0000
,
0100
0000
0010
0000
,
0100
0000
0001
0000
,
1000
0010
0010
0000
,
0000
0100
0000
0000
0010
0000
0000
0000
,
1000
0000
0100
0000
,
0010
0000
0001
0000
,
0010
0100
0100
0000
,
1000
0000
0001
0000
,
0010
0000
0001
0000
,
1000
0000
0100
0000
,
0010
0001
0001
0000
,
0000
1000
0000
0000
0001
0000
0000
0000
,
0100
0000
0010
0000
,
0100
0000
0010
0000
,
1000
0100
0100
0000
,
0010
0000
0100
0000
,
1000
0000
0001
0000
,
0010
0000
0100
0000
,
0010
0001
0001
0000
,
0000
1000
0000
0000
0100
0000
0000
0000
,
0010
0000
0100
0000
,
1000
0000
0001
0000
,
1000
0010
0010
0000
,
1000
0000
0001
0000
,
0010
0000
0100
0000
,
1000
0000
0010
0000
,
1000
0010
0010
0000
,
0000
0001
0000
0000
1000
0000
0000
0000
,
0001
0000
0100
0000
,
0001
0000
0010
0000
,
0001
0100
0100
0000
,
0020
0000
0032
0000
,
2003
0000
3200
0000
,
0320
0000
0230
0000
,
2300
0000
3002
0003
,
0200
0000
0320
0000
,
2030
0000
3020
0000
,
0230
0302
0203
0000
,
0320
0000
0030
0000
,
1000
0000
0001
0000
,
1000
0000
0010
0000
,
0100
0000
0010
0000
,
1000
0001
0001
0000
,
0000
0100
0000
0000
0010
0000
0000
0000
,
1000
0000
0100
0000
,
0010
0000
0001
0000
,
0010
0001
0001
0000
,
1000
0000
0010
0000
,
0100
0000
0001
0000
,
0010
0000
0100
0000
,
1000
0001
0001
0000
,
0000
0100
0000
0000
0001
0000
0000
0000
,
0100
0000
0010
0000
,
0100
0000
0001
0000
,
0010
0100
0100
0000
,
2000
0000
3002
0000
,
0203
0000
0320
0000
,
0230
0000
0320
0000
,
2030
0000
0000
0000
0000
0000
0000
0000
0000
0000
0000
0000
0000
0000
0000
0000
3002
0003
0000
0000
0000
0000
0000
0000
0020
0000
0000
0000
0000
0000
0000
0000
,
0000
0230
0000
2300
,
0000
3200
0000
0320
,
0230
0320
0000
0032
,
0000
0003
0200
0000
,
0320
0000
2030
0000
,
3002
0000
0203
0000
,
0320
0000
0230
0000
,
0302
0003
2000
0000
,
3200
0000
0320
0000
,
0032
0000
0023
0230
,
0320
0000
0230
0000
,
0300
0000
1000
0000
,
0100
0000
0010
0000
,
0001
0000
1000
0000
,
0010
0000
0100
0001
,
0001
0000
0000
0000
0000
0010
0000
0000
,
0100
0000
1000
0000
,
0001
0000
0010
0000
,
0001
0000
1000
0100
,
0100
0000
0010
0000
,
0001
0000
0010
0000
,
0100
0000
1000
0000
,
0010
0000
0100
0010
,
0010
0000
0000
0000
0000
1000
0000
0000
,
0100
0000
0010
0000
,
0100
0000
1000
0000
,
0001
0000
1000
0001
,
0001
0000
1000
0000
,
0010
0000
1000
0000
,
0001
0000
0100
0000
,
0001
0000
1000
0010
,
0010
0000
0000
0000
0000
0100
0000
0000
,
0001
0000
0010
0000
,
0100
0000
0010
0000
,
0001
0000
0100
0010
,
0010
0000
0100
0000
,
0001
0000
0010
0000
,
0100
0000
0010
0000
,
0001
0000
1000
0100
,
0100
0000
0000
0000
0000
0010
0000
0000
,
0100
0000
0010
0000
,
0001
0000
1000
0000
,
0010
0000
0100
0010
,
0010
00M0
0000
0000
;

//---------------dance-single - ----------------
#NOTES:
     dance-single:
     :
     Medium:
     8:
     0.594,0.587,0.395,0.835,0.030,579.000,78.000,165.000,10.000,1.000:
MM00
0MM0
0000
00M0
,
0MMM
0000
0000
0000
,
0000
0000
0000
0000
,
0000
0000
0000
0000
,
0000
0000
0000
0000
,
0000
1000
0000
0001
1000
0000
0010
1000
,
0020
0000
0000
1030
0100
0000
0010
0001
,
0020
0000
0000
0130
0010
0000
0100
0000
,
1001
0110
0220
0330
,
1000
0000
0000
0000
0001
0000
0100
0000
0010
0000
0100
0010
1000
0000
0100
0000
,
0020
0000
0000
0031
0100
0000
0001
0010
,
0200
0000
0000
0310
0100
0000
1000
0000
,
0011
1010
2020
3030
,
0000
0001
0000
1000
0100
0000
0010
0001
,
2000
0000
0000
3010
0100
0000
0001
0010
,
0200
0000
0000
1300
0100
0000
0001
0000
,
1100
0101
0202
0303
,
1000
0000
0000
0000
0001
0000
0100
0000
0001
0000
1000
0100
0010
0000
0100
0000
,
0020
0000
0000
0031
0010
0000
0100
0010
,
0002
0000
0000
1003
0010
0000
0100
0000
,
1010
0110
0220
0330
,
0000
0100
0000
1000
0100
0000
0010
0001
,
0200
0000
0000
0310
0100
0000
0001
1000
,
0020
0000
0000
0130
0010
0000
0100
0000
,
1010
1001
2002
3003
,
2000
0000
0100
0000
3200
0010
0010
0000
,
0320
0000
0001
0000
0032
1000
1000
0000
,
2003
0000
0010
0000
3020
0100
0100
0000
,
0230
0000
0001
0000
0302
1000
1003
0000
,
0200
0000
0010
0000
0320
0100
0100
0000
,
0230
0000
0010
0000
0320
0100
0100
0000
,
2030
0000
3002
0000
0203
0010
0010
0000
,
0320
0000
1000
0000
1030
1000
1000
0000
,
1000
0000
0000
0000
0100
0000
0010
0000
0100
0000
1000
0001
0100
0000
0010
0000
,
2000
0000
0000
3100
0010
0000
0001
1000
,
0200
0000
0000
0310
0001
0000
0010
0000
,
1100
0011
0022
0033
,
0000
1000
0000
0010
1000
0000
0001
0100
,
0002
0000
0000
1003
0100
0000
0010
0001
,
0200
0000
0000
0310
1000
0000
0100
0000
,
1010
0110
0220
0330
,
0010
0000
0000
0000
0001
0000
0010
0000
0100
0000
1000
0001
1000
0000
0100
0000
,
0020
0000
0000
0031
0100
0000
0001
0100
,
0020
0000
0000
1030
0010
0000
0100
0000
,
1010
0101
0202
0303
,
0000
0010
0000
0001
0010
0000
0100
1000
,
0020
0000
0000
0130
0010
0000
1000
0001
,
0020
0000
0000
0130
0010
0000
0001
0000
,
0101
0011
0022
0033
,
1000
0000
0000
0000
0001
0000
0010
0000
0100
0000
0010
0001
0100
0000
0010
0000
,
2000
0000
0000
3100
1000
0000
0100
0010
,
0200
0000
0000
0310
0001
0000
1000
0000
,
1010
1001
2002
3003
,
0000
0100
0000
0010
0001
0000
0010
0100
,
0020
0000
0000
0031
1000
0000
0010
0100
,
0002
0000
0000
0013
0100
0000
0010
0000
,
1010
0110
0220
0330
,
0001
0000
0000
0000
1000
0000
0001
0000
0100
0000
0010
1000
0001
0000
0010
0000
,
0200
0000
0000
1300
0010
0000
1000
0010
,
0200
0000
0000
0301
0010
0000
0100
0000
,
1100
1010
2020
3030
,
0000
0100
0000
0001
0100
0000
0010
1000
,
0020
0000
0000
0130
0010
0000
0100
0001
,
0020
0000
0000
0130
0010
0000
0100
0000
,
0101
1100
2200
3300
,
2002
0003
0020
3000
,
0200
0030
0002
0300
,
0020
0003
0200
0030
,
2000
0300
0002
3003
,
2000
0000
0001
0000
3002
0100
0100
0000
,
0203
0000
0001
0000
0302
0010
0010
0000
,
0023
0230
2300
0000
,
3200
0000
0010
0000
0310
0010
0010
0000
,
0010
0000
0000
0000
0001
0000
1000
0000
0100
0000
0010
0001
0010
0000
0100
0000
,
0020
0000
0000
0031
1000
0000
0100
1000
,
0020
0000
0000
0130
0001
0000
0100
0000
,
0110
0101
0202
0303
,
0000
1000
0000
0010
1000
0000
0100
0010
,
0002
0000
0000
0103
0001
0000
0010
0100
,
2000
0000
0000
3010
0100
0000
0001
0000
,
1100
1001
2002
3003
,
0001
0000
0000
0000
0100
0000
0010
0000
0100
0000
0001
0010
0100
0000
0010
0000
,
0002
0000
0000
1003
0100
0000
1000
0100
,
2000
0000
0000
3010
0100
0000
0010
0000
,
0011
0110
0220
0330
,
0000
0001
0000
1000
0010
0000
0100
0001
,
0200
0000
0000
0310
1000
0000
0100
0010
,
0200
0000
0000
1300
0001
0000
1000
0000
,
1010
0011
0022
0033
,
0202
0300
0020
0003
,
0200
0030
0020
0300
,
0002
0030
2000
0003
,
0020
0000
0000
0000
0000
0000
0000
0000
3000
0000
0000
0000
0000
0000
0000
0000
2030
3000
0000
0000
0000
0000
0000
0000
2020
0000
0000
0000
0000
0000
0000
0000
,
0030
0002
3000
0200
,
0003
0020
0300
2030
,
0200
3020
0300
0200
,
0030
0300
2000
0100
,
3200
0010
0010
0000
0320
0000
0001
0000
,
0032
1000
1000
0000
2003
0000
0010
0000
,
3020
0100
0100
0000
0230
0000
0001
0000
,
0302
1000
1003
0000
2000
0000
0001
0000
,
3002
0100
0203
0010
,
0320
0100
0230
0320
,
2030
0001
3002
1000
,
1003
0000
1000
0000
0100
0000
0010
0001
,
0010
0000
0100
1000
0001
0000
0010
0000
0002
0000
0000
0000
0000
0000
0103
0000
,
0010
0000
0100
0010
0200
0000
0000
0301
,
1000
0010
1100
0101
,
0202
0000
0303
0000
0000
0001
0000
1000
,
0100
0000
1000
0010
2000
0000
0000
3100
,
0010
0000
0100
0010
0002
0000
0000
1003
,
0100
0010
0011
1010
,
2020
0000
3030
0000
0001
0000
1000
0010
,
1000
0000
0100
0010
0001
0000
0100
0000
0020
0000
0000
0000
0000
0000
1030
0000
,
0010
0000
0100
0001
0200
0000
0000
0310
,
0100
0010
0011
0110
,
0220
0000
0330
0000
0000
1000
0000
0100
,
0010
0000
0100
0010
0200
0000
0000
1300
,
0001
0000
0010
0001
0020
0000
0000
0130
,
0010
0100
0011
1001
,
2002
0000
3003
0000
0010
0000
0001
0010
,
0001
0000
1000
0001
1000
0000
0100
0000
2000
0000
0000
0000
0000
0000
3010
0000
,
0100
0000
0010
0100
0020
0000
0000
1030
,
0010
0100
0011
1100
,
2200
0000
3300
0000
0000
0001
0000
1000
,
0010
0000
0100
0001
0020
0000
0000
0130
,
1000
0000
0100
1000
0020
0000
0000
0130
,
0010
0100
1100
1010
,
1010
0000
0000
0000
0001
0000
0100
0010
,
0100
0000
1000
0010
1000
0000
0100
0000
0020
0000
0000
0000
0000
0000
0130
0000
,
1000
0000
0001
0100
0020
0000
0000
0130
,
0001
0010
1010
0101
,
0202
0000
0303
0000
0000
1000
0000
0010
,
0100
0000
0001
0010
0200
0000
0000
1300
,
0100
0000
0010
0100
0020
0000
0000
0031
,
0100
0010
0110
1001
,
2002
3003
M00M
0000
;

//---------------dance-single - ----------------
#NOTES:
     dance-single:
     :
     Hard:
     12:
     1.000,1.000,1.000,0.637,0.541,1007.000,510.000,126.000,12.000,42.000:
0MMM
00M0
0000
0MM0
,
MM00
0000
0000
0000
,
0000
0000
0000
0000
,
0000
0000
0000
0000
,
0000
0000
0000
0000
,
0000
2000
0000
3020
0230
0000
0302
0023
,
0230
0000
0000
0320
0032
0000
2003
3020
,
0230
0000
0000
0320
0230
0000
0302
0000
,
1003
0000
0010
0000
1000
0000
0010
0100
0001
0000
0010
0000
0100
1000
0001
0010
,
1100
0110
0101
0000
0101
0000
1100
1001
,
0101
1010
0110
0000
0011
0000
0110
1100
,
0101
0011
1010
0000
0110
0000
1010
1001
,
0011
1100
0110
0000
1001
0000
1100
0101
,
0100
0000
0101
0000
0001
0000
1001
0100
0010
0100
1001
0000
0001
0010
0101
0000
,
0100
0000
0110
0000
0010
0000
1010
0100
0001
0100
1010
0000
0100
1000
0011
0000
,
0010
0000
0011
0000
0001
0000
0011
0100
1000
0100
0011
0000
0001
0100
1010
0000
,
1000
0000
1010
0000
0010
0000
0110
1000
0001
1000
0110
0000
0001
1000
0011
0000
,
1010
0101
0110
0000
1100
0000
1001
0110
,
0011
1010
0110
0000
0011
0000
1010
0110
,
1001
0101
0011
0000
1100
0000
0110
1001
,
1100
0011
1100
0000
0110
0000
0011
0110
,
0010
0000
0011
0000
0001
0000
0101
1000
0010
0100
1010
0000
0100
0010
1001
0000
,
1000
0000
1100
0000
0100
0000
0101
1000
0001
0010
1100
0000
0010
0001
0110
0000
,
0100
0000
0101
0000
0001
0000
0011
0100
0010
0001
1010
0000
0001
0100
0011
0000
,
0020
0230
0320
0030
,
2100
0000
0010
0000
3210
0001
1000
0000
,
0321
0000
1000
0000
0132
0010
0100
0000
,
2013
0000
0100
0000
3021
0100
1000
0000
,
0231
0000
1000
0000
0312
0100
1003
0000
,
0012
0000
0100
0000
0123
1000
0001
0000
,
1230
0000
0010
0000
2301
0010
0100
0000
,
3012
0000
1000
0000
0213
1000
0321
0000
,
1230
0000
0010
0000
1320
0001
0130
0000
,
1100
0110
0101
0000
0110
0000
1001
1100
,
0011
0110
0101
0000
1100
0000
0101
1100
,
0101
0011
1010
0000
1001
0000
0110
0011
,
1010
1001
0110
0000
1100
0000
0110
1001
,
0100
0000
0110
0000
0010
0000
0011
1000
0001
0010
0101
0000
1000
0010
1001
0000
,
0001
0000
0101
0000
0100
0000
0110
0001
1000
0010
0101
0000
0001
0010
1100
0000
,
0100
0000
0110
0000
0010
0000
0011
0100
0001
1000
0110
0000
0001
1000
0011
0000
,
0010
0000
1010
0000
1000
0000
1001
0010
1000
0001
1100
0000
0100
0010
1100
0000
,
0011
0110
0101
0000
0110
0000
1010
0011
,
0110
0000
1100
0000
1000
0000
1010
0100
0001
1000
0011
0000
1000
0100
0011
0000
,
0110
1100
0101
0000
0110
0000
0101
1010
,
1100
0011
1001
0000
0110
0000
0011
1010
,
1000
0000
1010
0000
0010
0000
0110
1000
0010
0100
1010
0000
0100
0010
0101
0000
,
0100
0000
0110
0000
0010
0000
1010
0100
0001
1000
0011
0000
0001
0010
1001
0000
,
1000
0000
1100
0000
0100
0000
0101
1000
0100
0010
1100
0000
0010
0001
0110
0000
,
1000
0000
0001
0000
1000
0000
0001
0010
0001
0000
1000
0000
0001
0100
0010
0100
,
0011
1100
0101
0000
0011
0000
1100
0011
,
0110
1001
0101
0000
1010
0000
1100
0011
,
0110
1001
0110
0000
1100
0000
0011
1001
,
0110
1001
1100
0000
0011
0000
0110
1001
,
1000
0000
1010
0000
0010
0000
0011
0100
0001
1000
0101
0000
0010
0001
1100
0000
,
0100
0000
0101
0000
0001
0000
1001
0100
1000
0001
1010
0000
0100
1000
0101
0000
,
0001
0000
1001
0000
1000
0000
1010
0100
1000
0010
1001
0000
0010
0100
0011
0000
,
0010
0000
0110
0000
0100
0000
0101
1000
0010
0100
0011
0000
1000
0001
1100
0000
,
0101
0010
0000
0010
0101
0000
1100
0000
0011
0100
0000
0100
0011
0000
1010
0000
,
0101
0010
0000
0010
0101
0000
1100
0000
0011
1000
0000
1000
0011
0000
0110
0000
,
1001
0110
1001
0000
0110
0000
1100
0011
,
0110
1000
0000
1000
0110
0000
0011
0000
1010
0100
0000
0100
1010
0000
0011
0000
,
1100
0001
0000
0001
1100
0000
0110
0000
0101
1000
0000
1000
0101
0000
0110
0000
,
1001
0010
0000
0010
1001
0000
0110
0000
1100
0010
0000
0010
1100
0000
0011
0000
,
0101
1100
0011
0000
0110
0000
1100
0101
,
0011
1000
0000
1000
0011
0000
0110
0000
0101
0010
0000
0010
0101
0000
1100
0000
,
0110
0001
0000
0001
0110
0000
1100
0000
0011
1000
0000
1000
0011
0000
1010
0000
,
0101
1000
0000
1000
0101
0000
0110
0000
0011
0100
0000
0100
0011
0000
1100
0000
,
0110
0001
0000
0001
0110
0000
1010
0000
1001
0100
0000
0100
1001
0000
0011
0000
,
1100
0001
0000
0001
1100
0000
0101
0000
0011
0100
0000
0100
0011
0000
0110
0000
,
2001
0000
0100
0000
3012
0100
1000
0000
,
0213
0000
1000
0000
0321
0100
1000
0030
,
0101
1000
0000
1000
0101
0000
0011
0000
1010
0100
0000
0100
1010
0000
0011
0000
,
2001
0000
0010
0000
3100
0010
0101
0000
,
0110
1100
0011
0000
1001
0000
0110
1100
,
0011
1001
0110
0000
0011
0000
1100
0101
,
0011
1010
1001
0000
1100
0000
0101
0011
,
0110
1010
0110
0000
0110
0000
0011
0110
,
0100
0000
1100
0000
1000
0000
1001
0010
0100
1000
0110
0000
0001
0010
1100
0000
,
0100
0000
0101
0000
0001
0000
0101
1000
0001
0100
0011
0000
0010
0100
1010
0000
,
1000
0000
1001
0000
0001
0000
0101
1000
0010
1000
0110
0000
1000
0010
0101
0000
,
0100
0000
0110
0000
0010
0000
1010
0001
0100
1000
0011
0000
0001
0100
1010
0000
,
0101
0011
1001
0000
0110
0000
1100
0101
,
0011
0110
1001
0000
1100
0000
0101
0011
,
0101
1010
0110
0000
0011
0000
1100
0101
,
0011
1010
0011
0000
0110
0000
1100
0011
,
0010
0000
0110
0000
0100
0000
1100
0001
0010
0100
0011
0000
0001
0100
0011
0000
,
0010
0000
0110
0000
0100
0000
1100
0001
0100
0010
0101
0000
1000
0001
0110
0000
,
0110
0001
0000
0001
0110
0000
1100
0000
0101
0010
0000
0010
0101
0000
1100
0000
,
0002
2003
3002
0003
,
2020
0000
0000
3030
0220
0000
0000
0330
,
2002
0000
0000
3003
2200
0000
0000
3300
,
0022
0000
0000
0033
0220
0000
0000
0330
,
2002
0000
0000
0000
0000
0000
0000
0000
0000
0000
0000
0000
3003
0000
0000
0000
0220
0330
0000
0000
0000
0000
0000
0000
2200
0000
0000
0000
0000
0000
0000
0000
,
0000
3300
0220
0000
0000
0330
2002
0000
,
0000
3003
2200
0000
0000
3300
0202
0303
,
2200
3300
0220
0000
0000
0330
2200
0000
,
0000
3300
2100
0010
,
3201
1000
0001
0000
1320
0000
0100
0000
,
1032
0100
0010
0000
2103
0000
0001
0000
,
3120
0001
1000
0000
0231
0000
1000
0000
,
0312
0000
1000
0000
0013
0000
0000
0000
0100
0000
1100
0000
1000
0000
1010
0100
,
0001
0010
1100
0000
0010
0100
1001
0000
0001
0000
0101
0000
0100
0000
0110
1000
,
0001
0010
1100
0000
0010
0001
0110
0000
2100
0000
0000
0000
3201
0000
0000
0000
,
1320
0000
0001
0000
1000
0000
0000
0000
0031
0000
0011
0000
0010
0000
0110
1000
,
0010
0001
1010
0000
0100
0010
1100
0000
0002
0000
0000
0000
0203
0000
0320
0000
,
0230
0000
0302
2003
3020
0000
0230
0000
0302
0000
0000
0000
0000
0000
2003
0000
,
3020
0000
0000
0000
0230
0000
0302
0000
0103
0000
0010
0000
1000
0000
0100
0010
,
0001
0000
0010
0000
0100
0010
0100
0010
0001
0000
1000
0000
0010
0000
0100
0001
,
0100
0000
0010
0000
1000
0100
0010
0001
0010
0000
0200
0000
0000
0000
0320
0000
,
0032
0000
0000
0000
2003
0000
3200
0000
1300
0000
0010
0000
0100
0000
0010
1000
,
0010
0000
0100
0000
0001
0010
0001
0100
0001
0000
0100
0000
0010
0000
1000
0001
,
1000
0000
0100
0000
0010
0001
1000
0100
0010
0000
0001
0000
0010
0000
0001
1000
,
0010
0000
0100
0000
0001
1000
0010
0100
1001
0010
0000
0010
1001
0000
1100
0000
,
0101
1000
0000
1000
0101
0000
0011
0000
0011
1000
0000
1000
0011
0000
0110
0000
,
1001
0010
0000
0010
1001
0000
0011
0000
0110
0001
0000
0001
0110
0000
1100
0000
,
0101
0010
0000
0010
0101
0000
1100
0000
0100
0000
0010
0000
0001
0000
0010
0100
,
0010
0000
0001
0000
1000
0100
0010
0100
1010
0001
0000
0001
1010
0000
1100
0000
,
0011
0100
0000
0100
0011
0000
0110
0000
1001
0100
0000
0100
1001
0000
0011
0000
,
0110
0001
0000
0001
0110
0000
1010
0000
1100
0001
0000
0001
1100
0000
0101
0000
,
0011
0100
0000
0100
0011
0000
1100
0000
0101
0010
0000
0010
0101
0000
1100
0000
,
1001
0010
0000
0010
1001
0000
0110
0000
2100
0000
0000
0000
0010
0000
0001
0000
,
3210
0000
0001
0010
0001
0000
1000
0000
0321
0000
0000
0000
0000
0000
1000
0000
,
0132
0000
0010
0100
2013
0000
0000
0001
,
3120
1000
0231
1000
,
0322
0000
0003
0000
0032
1000
0000
0100
,
1023
0000
0001
1000
0231
0000
0000
0010
,
2301
0000
0010
0100
3012
0000
0203
1000
,
0321
0100
2031
0100
,
3001
0000
0000
0000
0000
0000
0000
0000
0011
0100
0000
0010
1100
0000
0110
0000
,
0101
0010
0000
1000
0110
0000
0101
0000
1001
0100
0000
0001
0110
0000
1100
0000
,
0101
1000
0000
0001
0110
0000
1100
0000
0101
1000
0000
0001
1100
0000
0110
0000
,
0110
0001
0000
1000
0101
0000
0011
0000
1100
0010
0000
0001
0110
0000
1100
0000
,
0101
1000
0000
0100
0011
0000
0110
0000
0101
1000
0000
0100
1010
0000
0101
0000
,
1001
0010
0000
0001
0110
0000
1100
0000
0011
1000
0000
0010
0101
0000
1100
0000
,
0110
0001
0000
1000
0011
0000
0110
0000
0011
1000
0000
0100
1010
0000
0101
0000
,
0110
1000
0000
0010
1001
0000
0110
0000
2002
0000
0000
0000
3223
0000
0000
0000
,
2332
3003
MMMM
0000
;
