#TITLE:Royals;
#SUBTITLE:Sexuality Violation;
#ARTIST:Lorde;
#TITLETRANSLIT:;
#SUBTITLETRANSLIT:;
#ARTISTTRANSLIT:;
#CREDIT:;
#BANNER:Royals-bn.png;
#BACKGROUND:Royals-bg.png;
#LYRICSPATH:;
#CDTITLE:;
#MUSIC:Royals.ogg;
#OFFSET:0.391;
#SAMPLESTART:46.214;
#SAMPLELENGTH:15.000;
#SELECTABLE:YES;
#BPMS:0.000=170.000;
#STOPS:;
#BGCHANGES:;
// cache tags:
#FIRSTBEAT:4.000;
#LASTBEAT:531.000;
#SONGFILENAME:Songs/Sexuality Violation 2/Royals - [Valex]/Royals.sm;
#HASMUSIC:1;
#HASBANNER:1;
#MUSICLENGTH:190.275;
// end cache tags

//---------------dance-single - J. Twerkowitz----------------
#NOTES:
     dance-single:
     J. Twerkowitz:
     Challenge:
     13:
     0.909,1.000,0.116,0.105,0.996,1169.000,22.000,20.000,0.000,8.000:
0000
0000
0000
0000
,
1001
0000
0000
1000
0010
0000
0100
0000
,
0000
0000
0000
0001
0010
0000
0100
0000
,
1100
0000
0000
1000
0001
0000
0100
0000
,
0000
0000
0000
0010
1000
0000
0001
0100
,
0110
0000
0000
0010
1000
0000
0001
0000
,
0000
0000
0000
0010
0100
0000
1000
0000
,
1010
0000
0000
0010
0100
0000
0001
0000
,
0000
0000
0000
1000
0100
0010
0001
0000
,
1001
0000
0000
1000
0010
0000
0100
0000
,
0000
0000
0000
0001
0010
0000
0100
0000
,
1100
0000
0000
1000
0001
0000
0100
0000
,
0000
0000
0010
0100
0001
0010
0100
0000
,
1100
0000
0000
1000
0001
0000
0100
0000
,
0000
0000
0000
0010
1000
0000
0001
0000
,
0011
0000
0000
0010
0100
0000
1000
0000
,
0000
0010
0100
0001
0010
0100
1000
0000
,
0001
0100
0010
1000
0001
0000
0000
0000
1000
0100
0010
0001
1000
0000
0000
0000
,
0010
0100
0001
1000
0100
0010
0001
1000
0010
0100
0001
0100
0010
0000
0000
0000
,
1000
0001
0010
0100
1000
0000
0000
0000
0001
1000
0010
0100
0001
0000
0000
0000
,
1000
0100
0010
0100
1000
0001
0100
0010
1000
0001
0010
0100
1000
0000
0000
0000
,
0010
0100
0001
0100
0010
1000
0002
0000
0000
0000
0000
0000
0013
0000
0100
0000
,
0000
0000
1000
0001
0100
0010
1000
0001
,
0010
0100
1000
0001
0100
0010
0100
0001
1000
0100
0010
0001
0100
0010
1000
0000
,
0000
0001
0010
0001
0100
0010
1000
0000
,
0100
0010
0001
1000
0010
0000
0000
0000
0100
0010
1000
0001
0010
0000
0000
0000
,
0100
1000
0001
1000
0100
0010
0001
1000
0010
0100
0001
1000
0100
0000
0000
0000
,
0010
0100
1000
0001
0100
0000
0000
0000
0010
0100
0001
1000
0100
0000
0000
0000
,
0010
0001
1000
0010
0100
0010
1000
0001
0010
0100
1000
0001
0100
0000
0000
0000
,
0010
0100
0001
0100
0010
1000
0200
0000
0000
0000
0000
0000
0310
0000
0001
0000
,
0000
0000
1000
0010
0100
0010
1000
0001
,
0011
0010
0100
1000
0010
0000
0100
0001
,
0000
0000
0000
0000
1000
0000
0001
0010
0001
0000
1000
0000
0010
0000
0100
0000
,
0001
0100
0010
1000
0010
0100
0001
1000
0100
0010
0100
1000
0001
0010
0001
1000
,
0010
0100
0001
0100
0010
1000
0001
1000
0100
1000
0001
0010
0001
1000
0100
0010
,
0001
1000
0010
0100
0001
0000
0010
0100
,
0000
0000
0000
0000
1000
0000
0001
0100
0001
0000
1000
0000
0100
0000
0010
0000
,
0001
0000
0100
0010
1000
0000
0010
0100
,
0000
0000
0000
0000
0001
0000
1000
0100
1000
0000
0001
0000
0100
0000
0010
0000
,
1000
0000
0100
0010
0001
0000
1000
0010
,
0000
0000
0000
0000
0100
0000
0001
1000
0001
0000
0010
0000
0100
0000
1000
0000
,
0001
0100
0010
1000
0010
0100
0001
1000
0100
0010
0100
1000
0001
1000
0100
0010
,
0001
1000
0010
0100
0001
0100
0010
1000
0001
0010
0100
1000
0100
0010
0001
1000
,
0010
0100
0001
0010
0100
0000
1000
0001
,
0000
0000
0000
0000
0100
0000
0001
1000
0001
0000
0010
0000
0100
0000
1000
0000
,
0002
0100
0200
1000
,
2000
0010
0020
3333
,
1000
0000
0001
0010
0100
0000
1000
0001
,
0100
0000
0100
0000
0100
0010
1000
0000
,
1001
0000
0000
0001
0010
0000
0100
0000
,
0000
0000
0000
0010
0001
0000
1000
0000
,
1010
0000
0000
0010
0100
0000
0001
0000
,
0000
0000
0000
1000
0100
0000
0010
0001
,
1001
0000
1000
0000
0010
0000
0100
0001
,
1000
0000
0000
0000
0001
0010
0100
1000
0001
0000
0000
0000
1000
0010
0100
0001
,
1000
0000
0100
0010
0001
0000
0100
0000
,
0010
0000
0000
0000
1000
0010
0100
0010
1000
0000
0000
0000
0001
0010
0100
0010
,
0001
1000
0001
0000
0100
0000
0010
1000
,
0001
0000
0000
0000
0010
0100
1000
0001
0100
0000
0000
0000
0001
0000
1000
0000
,
0010
0100
0010
1000
0001
0010
0200
0000
0000
0000
0000
0000
1300
0001
0010
0001
,
1000
0000
0010
0100
0001
0000
1000
0000
,
1100
0100
0010
0001
,
1000
0010
1000
0001
0100
0010
0100
0001
0010
0100
0010
0001
1000
0100
0010
0100
,
1000
0000
0001
0100
0010
0000
1000
0000
,
0001
0010
0100
0000
1000
0000
0010
0000
,
0110
0000
0000
0000
0100
0001
1000
0100
0010
0000
0000
0000
0100
1000
0001
0100
,
0010
1000
0001
0010
0100
0000
1000
0000
,
1001
0000
0000
0000
0001
0010
0100
1000
0010
0000
0000
0000
1000
0010
0100
0001
,
0010
0100
0010
0001
0100
0010
1000
0000
,
0001
0010
0001
1000
0100
1000
0001
0100
0010
1000
0010
0100
0001
1000
0100
1000
,
0001
0100
0010
1000
0010
0100
0001
1000
0100
0010
0100
1000
0001
0100
0010
1000
,
0100
0010
0100
1000
0001
1000
0010
0100
0010
1000
0001
1000
0100
0010
0001
1000
,
0010
0100
0001
1000
0010
1000
0001
0010
0100
0010
0001
1000
0010
0100
0001
1000
,
0100
0010
0100
1000
0001
0000
0100
0000
0020
0000
0000
0000
1030
0000
0001
0000
,
0000
0000
0000
0000
0100
0000
0001
1000
0001
0000
0010
0000
0100
0000
1000
0000
,
0001
0100
0010
0000
0100
0001
0000
1000
,
0000
0100
0010
0100
1000
0001
0100
0000
,
0010
1000
0001
0100
0001
1000
0100
1000
0001
0010
0001
1000
0010
0100
0010
1000
,
0001
0010
0100
1000
0100
0010
0001
1000
0010
0100
0010
1000
0001
0010
0100
1000
,
0010
0100
0001
0100
0010
1000
0001
0010
0100
1000
0100
0010
0001
1000
0010
0100
,
0010
1000
0100
0010
0100
1000
0001
0100
0010
0100
0001
1000
0100
0010
0001
1000
,
0010
0100
0001
0010
0100
1000
0020
0000
0000
0000
0000
0000
1030
0000
0001
0000
,
0000
0000
0000
0000
0010
0000
0100
1000
0100
0000
0010
0000
0001
0000
1000
0000
,
1010
0010
0100
0001
1000
0000
0100
0010
,
0000
0000
0000
0000
0001
0000
1000
0010
1000
0000
0100
0000
0010
0000
0001
0000
,
1000
0010
0100
0010
1000
0001
0010
0001
0100
0010
1000
0001
1000
0010
0100
0001
,
0010
0100
1000
0001
0100
0010
1000
0001
0010
0100
0010
0001
1000
0100
1000
0001
,
0100
0010
1000
0001
1000
0100
0010
0001
1000
0010
0100
0010
1000
0001
0100
0001
,
0010
0100
1000
0001
0100
0010
0100
0001
1000
0100
0010
0100
1000
0001
0010
0001
,
1000
0000
0010
0100
0001
0000
1000
0100
,
0000
0000
0000
0000
0010
0000
0001
1000
0001
0000
0100
0000
0010
0000
1000
0000
,
0001
0000
0010
0100
1000
0000
0010
0100
,
0000
0000
0010
0000
1000
0000
0001
0010
0001
0000
1000
0000
0010
0000
0100
0000
,
0001
0100
0010
0100
0001
1000
0100
0010
0001
1000
0010
0100
0010
1000
0001
0100
,
0001
1000
0100
0010
0100
1000
0001
0100
0010
1000
0001
0100
0001
1000
0100
0010
,
0001
0010
0100
1000
0010
0100
0001
1000
0100
0010
0100
1000
0001
0100
0010
1000
,
0100
0010
0001
1000
0001
0100
0010
1000
0010
0100
0001
1000
0100
0010
0001
1000
,
0002
0100
0200
1000
,
2000
0010
0020
3333
,
0001
0000
1000
0010
0100
0000
0001
0010
,
0100
0000
0100
0000
0100
1000
0001
0000
,
0101
0000
0000
0000
0200
0000
0000
0310
,
1000
0000
0000
0000
0000
0000
0000
0001
,
1001
0000
0000
0000
2000
0000
0000
3100
,
0010
0000
0012
0000
,
1003
0000
0000
0010
0100
0001
0100
0010
,
1000
0001
1000
0000
0100
0000
0000
0010
,
0011
0000
0000
0001
1000
0010
0100
0001
,
1000
0100
0010
0100
1000
0001
0000
0000
,
0101
0000
0000
0000
0200
0000
0000
0310
,
1000
0000
0000
0000
0001
0000
0000
0010
,
0100
0000
0000
0000
2000
0000
0000
3010
,
0100
0000
0000
0001
0201
0010
0010
0000
,
0301
0000
0000
0000
1000
0100
1000
0001
,
0100
0010
1000
0000
0001
0010
0001
1000
,
0010
0100
0001
1000
0100
0000
0010
0100
,
0000
0000
1000
0001
0100
0010
2000
0000
,
3001
0010
0100
1000
0010
0100
0001
1000
0100
0010
0100
1000
0001
1000
0100
0010
,
0001
1000
0010
0100
0001
0100
0010
1000
0100
0010
0100
1000
0001
0100
0010
1000
,
0001
0010
0100
0010
0001
1000
0010
1000
0100
0010
0001
1000
0010
0100
0001
1000
,
0100
0010
0100
1000
0001
0100
0010
1000
0001
0010
0100
1000
0100
0010
0001
1000
,
0010
0100
0001
1000
0100
1000
0001
0100
0010
0100
0001
0010
0100
1000
0001
0100
,
0010
1000
0001
0010
0100
1000
0001
0100
0010
0100
0001
0010
0100
1000
0001
0100
,
0010
0100
0001
1000
0100
0010
0100
1000
0001
0100
0010
1000
0001
0010
0001
1000
,
0010
0100
0010
1000
0001
0010
0001
1000
0010
0100
0001
0010
0100
0010
0001
1000
,
0001
0100
0010
1000
0100
0010
0100
1000
0001
0100
0010
1000
0001
1000
0010
0100
,
0001
1000
0100
0010
0001
0010
0100
1000
0001
0100
0010
0100
0001
1000
0010
1000
,
0001
0010
0100
1000
0001
1000
0010
0100
0001
0010
0100
1000
0010
0100
0001
1000
,
0100
0010
0001
1000
0010
0100
0001
1000
0100
0010
0001
1000
0001
0100
0010
1000
,
0001
0100
0010
1000
0001
0010
0100
1000
0010
0100
0001
1000
0100
0010
0001
1000
,
0010
0100
0010
1000
0100
0010
0100
1000
0010
0100
0001
0010
0100
1000
0010
0100
,
0001
0100
0001
1000
0010
1000
0001
1000
0100
1000
0001
0010
0001
1000
0100
1000
,
0010
0000
0010
0000
0010
0100
0001
0000
;

//---------------dance-single - J. Twerkowitz + Gaze----------------
#NOTES:
     dance-single:
     J. Twerkowitz + Gaze:
     Hard:
     12:
     0.857,1.000,0.116,0.126,0.854,1096.000,22.000,24.000,0.000,12.000:

0000
0000
0000
0000
,
1001
0000
0000
1000
0010
0000
0100
0000
,
0000
0000
0000
0001
0010
0000
0100
0000
,
1100
0000
0000
1000
0001
0000
0100
0000
,
0000
0000
0000
0010
1000
0000
0001
0100
,
0110
0000
0000
0010
1000
0000
0001
0000
,
0000
0000
0000
0010
0100
0000
1000
0000
,
1010
0000
0000
0010
0100
0000
0001
0000
,
0000
0000
0000
1000
0100
0010
0001
0000
,
1001
0000
0000
1000
0010
0000
0100
0000
,
0000
0000
0000
0001
0010
0000
0100
0000
,
1100
0000
0000
1000
0001
0000
0100
0000
,
0000
0000
0010
0100
0001
0010
0100
0000
,
1100
0000
0000
1000
0001
0000
0100
0000
,
0000
0000
0000
0010
1000
0000
0001
0000
,
0011
0000
0000
0010
0100
0000
1000
0000
,
0000
0010
0100
0001
0010
0100
1000
0000
,
0001
0100
0010
1000
0001
0000
0000
0000
1000
0100
0010
0001
1000
0000
0000
0000
,
0010
0100
0001
1000
0100
0010
0001
1000
0010
0100
0001
0100
0010
0000
0000
0000
,
1000
0001
0010
0100
1000
0000
0000
0000
0001
1000
0010
0100
0001
0000
0000
0000
,
1000
0100
0010
0100
1000
0001
0100
0010
1000
0001
0010
0100
1000
0000
0000
0000
,
0010
0100
0001
0100
0010
1000
0002
0000
0000
0000
0000
0000
0013
0000
0100
0000
,
0000
0000
1000
0001
0100
0010
1000
0001
,
0010
0100
1000
0001
0100
0010
0100
0001
1000
0100
0010
0001
0100
0010
1000
0000
,
0000
0001
0010
0001
0100
0010
1000
0000
,
0100
0010
0001
1000
0010
0000
0000
0000
0100
0010
1000
0001
0010
0000
0000
0000
,
0100
1000
0001
1000
0100
0010
0001
1000
0010
0100
0001
1000
0100
0000
0000
0000
,
0010
0100
1000
0001
0100
0000
0000
0000
0010
0100
0001
1000
0100
0000
0000
0000
,
0010
0001
1000
0010
0100
0010
1000
0001
0010
0100
1000
0001
0100
0000
0000
0000
,
0010
0100
0001
0100
0010
1000
0200
0000
0000
0000
0000
0000
0310
0000
0001
0000
,
0000
0000
1000
0010
0100
0010
1000
0001
,
0011
0010
0100
1000
0010
0000
0100
0001
,
0000
0000
0000
0000
1000
0000
0001
0010
0001
0000
1000
0000
0010
0000
0100
0000
,
0001
0100
0010
1000
0010
0100
0001
1000
0100
0010
0100
1000
0001
0010
0001
1000
,
0010
0100
0001
0100
0010
1000
0001
1000
0100
1000
0001
0010
0001
1000
0100
0010
,
0001
1000
0010
0100
0001
0000
0010
0100
,
0000
0000
0000
0000
1000
0000
0001
0100
0001
0000
1000
0000
0100
0000
0010
0000
,
0001
0000
0100
0010
1000
0000
0010
0100
,
0000
0000
0000
0000
0001
0000
1000
0100
1000
0000
0001
0000
0100
0000
0010
0000
,
1000
0000
0100
0010
0001
0000
1000
0010
,
0000
0000
0000
0000
0100
0000
0001
1000
0001
0000
0010
0000
0100
0000
1000
0000
,
0001
0100
0010
1000
0010
0100
0001
1000
0100
0010
0100
1000
0001
1000
0100
0010
,
0001
1000
0010
0100
0001
0100
0010
1000
0001
0010
0100
1000
0100
0010
0001
1000
,
0010
0100
0001
0010
0100
0000
1000
0001
,
0000
0000
0000
0000
0100
0000
0001
1000
0001
0000
0010
0000
0100
0000
1000
0000
,
0002
0100
0200
1000
,
2000
0010
0020
3333
,
1000
0000
0001
0010
0100
0000
1000
0001
,
0100
0000
0100
0000
0100
0010
1000
0000
,
1001
0000
0000
0001
0010
0000
0100
0000
,
0000
0000
0000
0010
0001
0000
1000
0000
,
1010
0000
0000
0010
0100
0000
0001
0000
,
0000
0000
0000
1000
0100
0000
0010
0001
,
1001
0000
1000
0000
0010
0000
0100
0001
,
1000
0000
0000
0000
0001
0010
0100
1000
0001
0000
0000
0000
1000
0010
0100
0001
,
1000
0000
0100
0010
0001
0000
0100
0000
,
0010
0000
0000
0000
1000
0010
0100
0010
1000
0000
0000
0000
0001
0010
0100
0010
,
0001
1000
0001
0000
0100
0000
0010
1000
,
0001
0000
0000
0000
0010
0100
1000
0001
0100
0000
0000
0000
0001
0000
1000
0000
,
0010
0100
0010
1000
0001
0010
0200
0000
0000
0000
0000
0000
1300
0001
0010
0001
,
1000
0000
0010
0100
0001
0000
1000
0000
,
1100
0100
0010
0001
,
1000
0010
1000
0001
0100
0010
0100
0001
0010
0100
0010
0001
1000
0100
0010
0100
,
1000
0000
0001
0100
0010
0000
1000
0000
,
0001
0010
0100
0000
1000
0000
0010
0000
,
0110
0000
0000
0000
0100
0001
1000
0100
0010
0000
0000
0000
0100
1000
0001
0100
,
0010
1000
0001
0010
0100
0000
1000
0000
,
1001
0000
0000
0000
0001
0010
0100
1000
0010
0000
0000
0000
1000
0010
0100
0001
,
0010
0100
0010
0001
0100
0010
1000
0000
,
0001
0010
0001
1000
0100
1000
0001
0100
0010
1000
0010
0100
0001
1000
0100
1000
,
0001
0100
0010
1000
0010
0100
0001
1000
0100
0010
0100
1000
0001
0100
0010
1000
,
0100
0010
0100
1000
0001
1000
0010
0100
0010
1000
0001
1000
0100
0010
0001
1000
,
0010
0100
0001
1000
0010
1000
0001
0010
0100
0010
0001
1000
0010
0100
0001
1000
,
0100
0010
0100
1000
0001
0000
0100
0000
0020
0000
0000
0000
1030
0000
0001
0000
,
0000
0000
0000
0000
0100
0000
0001
1000
0001
0000
0010
0000
0100
0000
1000
0000
,
0001
0100
0010
0000
0100
0001
0000
1000
,
0000
0100
0010
0100
1000
0001
0100
0000
,
0010
1000
0001
0100
0001
1000
0100
1000
0001
0010
0001
1000
0010
0100
0010
1000
,
0001
0010
0100
1000
0100
0010
0001
1000
0010
0100
0010
1000
0001
0010
0100
1000
,
0010
0100
0001
0100
0010
1000
0001
0010
0100
1000
0100
0010
0001
1000
0010
0100
,
0010
1000
0100
0010
0100
1000
0001
0100
0010
0100
0001
1000
0100
0010
0001
1000
,
0010
0100
0001
0010
0100
1000
0020
0000
0000
0000
0000
0000
1030
0000
0001
0000
,
0000
0000
0000
0000
0010
0000
0100
1000
0100
0000
0010
0000
0001
0000
1000
0000
,
1010
0010
0100
0001
1000
0000
0100
0010
,
0000
0000
0000
0000
0001
0000
1000
0010
1000
0000
0100
0000
0010
0000
0001
0000
,
1000
0010
0100
0010
1000
0001
0010
0001
0100
0010
1000
0001
1000
0010
0100
0001
,
0010
0100
1000
0001
0100
0010
1000
0001
0010
0100
0010
0001
1000
0100
1000
0001
,
0100
0010
1000
0001
1000
0100
0010
0001
1000
0010
0100
0010
1000
0001
0100
0001
,
0010
0100
1000
0001
0100
0010
0100
0001
1000
0100
0010
0100
1000
0001
0010
0001
,
1000
0000
0010
0100
0001
0000
1000
0100
,
0000
0000
0000
0000
0010
0000
0001
1000
0001
0000
0100
0000
0010
0000
1000
0000
,
0001
0000
0010
0100
1000
0000
0010
0100
,
0000
0000
0010
0000
1000
0000
0001
0010
0001
0000
1000
0000
0010
0000
0100
0000
,
0001
0100
0010
0100
0001
1000
0100
0010
0001
1000
0010
0100
0010
1000
0001
0100
,
0001
1000
0100
0010
0100
1000
0001
0100
0010
1000
0001
0100
0001
1000
0100
0010
,
0001
0010
0100
1000
0010
0100
0001
1000
0100
0010
0100
1000
0001
0100
0010
1000
,
0100
0010
0001
1000
0001
0100
0010
1000
0010
0100
0001
1000
0100
0010
0001
1000
,
0002
0100
0200
1000
,
2000
0010
0020
3333
,
0001
0000
1000
0010
0100
0000
0001
0010
,
0100
0000
0100
0000
0100
1000
0001
0000
,
0101
0000
0000
0000
0200
0000
0000
0310
,
1000
0000
0000
0000
0000
0000
0000
0001
,
1001
0000
0000
0000
2000
0000
0000
3100
,
0010
0000
0012
0000
,
1003
0000
0000
0010
0100
0001
0100
0010
,
1000
0001
1000
0000
0100
0000
0000
0010
,
0011
0000
0000
0001
1000
0010
0100
0001
,
1000
0100
0010
0100
1000
0001
0000
0000
,
0101
0000
0000
0000
0200
0000
0000
0310
,
1000
0000
0000
0000
0001
0000
0000
0010
,
0100
0000
0000
0000
2000
0000
0000
3010
,
0100
0000
0000
0001
0201
0010
0010
0000
,
0301
0000
0000
0000
1000
0100
1000
0001
,
0100
0010
1000
0000
0001
0010
0001
1000
,
0010
0100
0001
1000
0100
0000
0010
0100
,
0000
0000
1000
0001
0100
0010
2000
0000
,
3001
0010
0100
1000
0010
0100
0001
1000
0100
0010
0100
1000
0001
1000
0100
0010
,
0001
1000
0010
0100
0001
0100
0010
1000
0100
0010
0100
1000
0001
0100
0010
1000
,
0001
0010
0100
0010
0001
1000
0010
1000
0100
0010
0001
1000
0010
0100
0001
1000
,
0100
0010
0100
1000
0001
0100
0010
1000
0001
0010
0100
1000
0100
0010
0001
1000
,
0001
0000
0100
0010
1000
0000
0001
0010
,
0000
0000
0000
0000
0100
0000
1000
0001
1000
0000
0010
0000
0100
0000
0001
0000
,
1000
0000
0100
0010
0001
0000
0100
0010
,
0000
0000
0000
0000
1000
0000
0001
0010
0001
0000
1000
0000
0010
0000
1000
0000
,
0001
0100
0010
1000
0100
0010
0100
1000
0001
0100
0010
1000
0001
1000
0010
0100
,
0001
1000
0100
0010
0001
0010
0100
1000
0001
0100
0010
0100
0001
1000
0010
1000
,
0001
0010
0100
1000
0001
1000
0010
0100
0001
0010
0100
1000
0010
0100
0001
1000
,
0100
0010
0001
1000
0010
0100
0001
1000
0100
0010
0001
1000
0001
0100
0010
1000
,
0002
0010
0020
1000
,
2000
0100
0200
3333
,
0001
0000
1000
0100
0010
0000
0001
0100
,
0010
0000
0010
0000
0010
1000
0001
0000
;
