#TITLE:V3;
#SUBTITLE:(O2 Jam Version);
#ARTIST:Beautiful Day;
#TITLETRANSLIT:;
#SUBTITLETRANSLIT:;
#ARTISTTRANSLIT:;
#CREDIT:;
#BANNER:V3-bn.png;
#BACKGROUND:V3-bg.png;
#LYRICSPATH:;
#CDTITLE:!joe.png;
#MUSIC:V3.mp3;
#OFFSET:0.020;
#SAMPLESTART:100.000;
#SAMPLELENGTH:12.000;
#SELECTABLE:YES;
#BPMS:0.000=160.000;
#STOPS:;
#BGCHANGES:;
// cache tags:
#FIRSTBEAT:2.000;
#LASTBEAT:450.000;
#SONGFILENAME:Songs/IzzySM Keyboard Mega Pack/V3/V3.sm;
#HASMUSIC:1;
#HASBANNER:1;
#MUSICLENGTH:171.894;
// end cache tags

//---------------dance-single - ----------------
#NOTES:
     dance-single:
     :
     Hard:
     12:
     1.000,1.000,1.000,0.023,1.000,1148.000,189.000,4.000,0.000,0.000:
0000
0000
1001
0000
,
0000
0000
0000
0011
1100
0000
0000
0000
,
0000
0000
0000
1100
0011
0000
0000
0000
,
0000
1100
1000
1100
0010
0011
0100
1010
,
0001
0011
0100
1010
1001
0000
0011
0000
,
1010
1100
1010
0011
,
0110
1100
1001
0011
,
1010
0000
1001
0000
0001
0010
1100
0100
,
0011
0100
1100
0010
0110
0000
0000
0000
,
1100
0000
0011
1000
1001
0000
0000
1100
,
0011
0100
1001
0010
0101
0000
0000
0000
,
0000
0000
0011
1100
0011
0000
1100
0000
,
1010
0000
1001
0100
0011
0000
0000
0000
,
1100
1010
0101
0000
,
0011
0000
1001
0000
,
1000
0100
0010
0001
0100
0010
1000
0100
0010
0001
1000
0100
0010
0001
1000
0001
,
0010
0100
1000
0001
0010
0100
1000
0001
0010
0100
1000
0001
1000
0000
0000
0000
,
0000
0000
0000
0000
,
0000
0000
1001
0000
1010
0000
1100
0000
0010
0000
0010
0100
0010
0000
0010
0000
,
0001
0000
0000
0000
0100
0000
0101
0000
0000
0000
0010
0100
0010
0000
0100
0000
,
0010
0000
0000
0000
0010
0000
1010
0000
0000
0000
0001
1000
0001
0000
0100
0000
,
0010
0000
1000
0000
0100
0000
0001
0000
0010
0000
0001
0000
0000
0000
0010
0001
,
0010
0000
0001
0000
0001
0010
0100
1000
0001
0000
1000
0000
0001
0000
1000
0000
,
0010
0000
0000
0000
1000
0100
0010
0100
0000
0000
1000
0100
0010
0000
1000
0000
,
0010
0000
0000
0000
0010
0100
0001
0100
0000
0000
1000
0100
0010
0000
0010
0001
,
1000
0000
1000
0010
0001
0000
0010
0100
,
1000
1000
0001
1100
0011
0000
0000
0011
,
1100
0000
0000
0000
0000
0000
1010
0000
0101
0000
0000
0000
0110
0000
0000
0001
,
0010
0100
1000
0001
0100
0010
1000
0010
1000
0100
0010
0001
0010
0100
1000
0100
,
0011
1100
0011
1100
0011
0000
1001
0000
,
1001
0000
0000
0000
1000
0010
0100
0001
0010
0000
0000
0000
1001
0000
0000
0000
,
1001
0000
0000
0000
0001
0010
0100
1000
0010
0100
0000
0000
0011
0000
0000
0000
,
1100
0000
0000
0000
1000
0000
1000
0000
0010
1000
0100
0010
0001
0010
0100
0010
,
0001
1000
0100
0010
0001
1000
0100
0010
0100
0000
0000
0000
1100
0001
0010
0001
,
1100
0000
0000
0000
0010
0000
0001
0000
0010
0001
0010
0100
1000
0100
0010
0001
,
0010
0001
1000
0010
0100
0001
0010
0100
1000
0000
0001
0000
0100
0000
0010
0000
,
0100
1000
0001
0100
0001
0010
0100
0001
,
0100
0001
0100
0010
0100
0001
0100
0010
0100
0000
0000
0000
0000
0000
0000
0000
,
0000
0000
0000
0000
0001
0010
0100
1000
0011
0000
0000
0000
0011
0000
0000
0000
,
1001
0000
0000
0000
1000
0100
0010
0001
1100
0000
0000
0000
1100
0000
0000
0000
,
1001
0000
0000
0000
0010
0000
0100
0000
0010
1000
0010
1000
0001
0010
0001
0010
,
0100
1000
0001
0100
0010
0100
0001
0010
0100
1000
0010
0100
0001
1000
0010
0100
,
0001
0000
1000
0110
0001
0010
0100
1001
,
0010
0100
1000
0110
0010
0001
0010
1100
,
0100
1000
0100
1010
0001
0010
0100
0101
,
0010
0100
1000
1001
1010
0101
0011
1100
,
0110
1001
0010
1100
0001
1001
0011
0100
,
0010
0110
0010
0100
0001
1100
0110
0100
,
0001
0011
0010
0100
0001
1100
0011
1100
,
0110
0000
1001
0000
0010
0000
0100
0000
0001
0010
0001
0100
0001
1000
0001
0100
,
0001
0010
0001
0010
0100
1000
0010
0100
0001
0000
0001
0000
1000
0000
0010
0000
,
0101
0000
1000
0000
0010
0000
0001
0010
0100
0000
0010
0000
0001
0100
0010
1000
,
0001
0100
0001
0010
0100
0010
0001
0100
0010
0000
0100
0000
0001
0000
0100
0000
,
0010
0000
0100
0000
0010
0000
1000
0001
0100
0000
0001
0000
1000
0001
0100
0010
,
1000
0001
0010
0100
1000
0001
1000
0001
1000
0000
0001
0000
1000
0000
0100
0000
,
0010
0000
0100
0000
0001
0000
1000
0000
0001
0010
0100
1000
0001
1000
0001
1000
,
0100
0010
0001
0100
0010
1000
0001
0010
0100
0000
0011
0000
0011
0000
1100
0000
,
0011
0011
1100
0011
0011
1100
1001
0101
,
0011
0101
1001
1001
1100
1001
1001
1100
,
1001
1001
0110
1001
1001
0011
1100
1010
,
0101
0000
1010
0000
1001
0000
0110
0000
0001
0010
0100
1000
0001
0010
0100
1000
,
0010
0100
0001
1000
0100
0010
0001
0010
0100
1000
0010
0100
0001
1000
0100
0010
,
0100
0010
0001
0010
0100
1000
0010
0100
0010
1000
0100
0010
0001
0010
0100
0010
,
0001
1000
0010
0100
0001
1000
0100
0010
0001
0010
0100
0010
0001
1000
0001
0100
,
0010
0100
0010
1000
0001
0100
0010
1000
0001
0100
0010
1000
0010
0100
0001
0010
,
0100
1000
0001
0010
0100
1000
0001
0100
0010
1000
0001
0100
0010
1000
0100
0010
,
0001
0100
0010
0100
0010
1000
0001
0100
0010
1000
0001
1000
0001
0010
0100
1000
,
0001
0100
0010
1000
0001
0100
0001
0100
0001
0100
0010
0100
0010
0100
0010
0100
,
0010
1000
0001
1000
0001
1000
0001
1000
0100
0010
0001
0010
0100
1000
0001
0010
,
0100
1000
0001
1000
0100
0010
0001
1000
0100
0010
0001
1000
0100
0010
0001
1000
,
0001
0010
0100
1000
0001
0010
0100
1000
0001
0010
0100
1000
0001
0010
0100
1000
,
0100
0010
0001
0010
0100
1000
0010
1000
0001
0100
0010
1000
0001
0010
0100
1000
,
0100
0010
0001
0010
0100
1000
0001
1000
0100
0010
0100
1000
0100
0010
0100
1000
,
0100
0010
0100
1000
0100
0010
0001
1000
0010
0100
0001
1000
0100
0010
0001
0010
,
0100
1000
0010
0100
0001
1000
0100
0010
0100
0010
0001
0010
0100
1000
0001
0010
,
0100
1000
0001
1000
0001
1000
0100
0010
0001
0100
0001
1000
0010
0100
0001
1000
,
0010
0100
0001
0010
0100
1000
0001
1000
0100
0010
0001
0100
0010
1000
0001
0100
,
0010
1000
0001
0010
0100
1000
0001
1000
0100
0010
0001
0100
0010
0100
0010
1000
,
0010
0100
0001
0010
0001
0100
0010
1000
0100
0010
0100
1000
0010
0100
0001
1000
,
0100
1000
0010
0100
0001
0100
0001
1000
0100
1000
0100
0010
0001
0010
0001
0100
,
0010
1000
0100
0010
0001
0100
0010
1000
0100
0010
0001
0010
0100
1000
0010
0100
,
0001
1000
0100
1000
0010
0100
0001
1000
0001
0100
0010
1000
0100
1000
0010
0100
,
0001
1000
0100
0010
0100
1000
0001
0010
0100
0010
0001
1000
0010
0100
0001
0100
,
0001
0100
0010
1000
0010
1000
0001
0100
0010
1000
0001
0100
0010
1000
0001
0100
,
0001
1000
0001
0100
0001
1000
0001
0100
0001
0010
0100
1000
0001
1000
0100
0010
,
0001
0010
0100
1000
0100
0010
0001
1000
0100
0010
0001
1000
0100
0010
0001
0100
,
0001
1000
0010
0100
0001
1000
0010
0100
2002
0000
0000
0000
0000
0000
0000
0000
,
0000
0000
0000
0000
0000
3003
0000
0000
0000
0000
1000
0000
0001
0000
0010
0000
,
1000
0001
1000
0100
0010
0001
0100
0010
1000
0001
1000
0100
0010
0001
0010
0100
,
1000
0001
1000
0010
1000
0001
1000
0010
0100
0010
1000
0000
0100
0001
0100
0000
,
1000
0100
1000
0000
0100
0010
0100
0000
0001
0010
0100
0010
0001
0010
0100
0010
,
0001
0000
0101
0000
1001
0000
0110
1000
,
0010
0100
0001
1000
0001
0100
0010
1000
0001
0010
0100
0000
0001
0000
1000
0000
,
0100
0010
0100
1000
0010
0100
0001
1000
0100
0010
0001
0000
1000
0000
0100
0000
,
0010
0100
0010
0000
0001
1000
0001
0000
0010
0001
0010
0000
0100
0010
0100
0000
,
1000
0001
1000
0000
0001
1000
0001
0000
1000
0001
1000
0000
0011
0000
0101
0000
,
1001
0000
0000
1100
1010
0000
0000
0011
,
0101
0000
1001
0000
0101
1100
1010
0101
,
0011
0000
1100
0000
0110
0000
1001
0000
1000
0001
0010
0001
1000
0001
0010
0001
,
1000
0000
0011
0000
0011
0000
1001
0110
,
1001
0001
1100
0010
1001
0001
1100
0110
,
1001
0100
0011
0010
1001
0100
1100
0011
,
0100
0001
0010
0100
1000
0100
0010
0100
1000
0001
0100
0010
1000
0001
0010
0100
,
0010
0001
1000
0000
0001
0000
1000
0000
0001
0000
0100
0000
0010
0000
0100
0000
,
0001
0010
0100
1000
0001
1000
0100
0010
0001
1000
0001
0010
0100
1000
0100
0010
,
0001
0000
1001
0010
1100
0000
1001
0100
,
0010
1000
0001
0100
0010
1000
0001
0100
0001
0010
0100
1000
0001
0100
0010
1000
,
0001
0000
0000
0000
1000
0100
0010
0001
1000
0000
0000
0000
0001
0010
0100
1000
,
0001
0000
1100
1100
0011
0011
0110
0110
,
1001
0110
1001
0110
1001
0110
1001
0110
,
1001
0000
0110
0000
0001
0010
0100
1000
0100
0010
0001
0010
0100
1000
0100
0010
,
2002
0000
0000
0000
,
0000
0000
0000
3003
0110
0000
0000
0000
;
