#TITLE:VikingFjord Retaliation;
#SUBTITLE:;
#ARTIST:Kommisar;
#TITLETRANSLIT:;
#SUBTITLETRANSLIT:;
#ARTISTTRANSLIT:;
#CREDIT:Mad Matt;
#BANNER:../Banner.png;
#BACKGROUND:../bg.png;
#LYRICSPATH:;
#CDTITLE:;
#MUSIC:VikingFjord Retaliation.ogg;
#OFFSET:-0.466;
#SAMPLESTART:19.272;
#SAMPLELENGTH:12.000;
#SELECTABLE:YES;
#DISPLAYBPM:255.000;
#BPMS:0.000=255.000;
#STOPS:;
#BGCHANGES:;
// cache tags:
#FIRSTBEAT:14.000;
#LASTBEAT:508.000;
#SONGFILENAME:Songs/Tachyon Epsilon/VikingFjord Retaliation - [Mad Matt]/VikingFjord Retaliation.sm;
#HASMUSIC:1;
#HASBANNER:1;
#MUSICLENGTH:121.208;
// end cache tags

//---------------dance-single - Mad Matt----------------
#NOTES:
     dance-single:
     Mad Matt:
     Easy:
     18:
     1.000,1.000,0.033,0.000,1.000,1133.000,4.000,0.000,0.000,0.000:















0000
0000
0000
0000
,
0000
0000
0000
0000
,
0000
0000
0000
0000
,
0000
0000
0000
0000
1000
0001
1000
0001
,
0100
0010
1000
0001
0100
0001
1000
0001
,
0010
0100
1000
0001
0100
0001
1000
0001
,
0100
0010
1000
0001
0100
0001
1000
0001
,
0100
0010
0100
0001
1000
0001
0100
0001
,
1000
0100
1000
0001
0100
0001
1000
0001
,
0100
0010
1000
0001
0100
0001
1000
0001
,
0010
0100
1000
0001
0100
0001
1000
0001
,
0100
0010
1000
0001
0100
0001
1000
0001
,
0100
0010
1000
0001
0100
0001
1000
0001
,
0010
0100
1000
0001
0100
0001
1000
0001
,
0100
0010
1000
0001
0100
0001
1000
0001
,
0100
0010
0100
0001
1000
0001
0100
0001
,
1000
0100
1000
0001
0100
0001
1000
0001
,
0100
0010
1000
0001
0100
0001
1000
0001
,
0010
0100
1000
0001
0100
0001
1000
0001
,
0100
0010
0100
0001
1000
0001
0100
0001
,
1000
0010
0100
0010
1000
0001
0100
0010
1000
0001
1000
0100
1000
0001
0010
0100
,
1000
0001
1000
0100
0010
0001
1000
0001
0100
0010
0100
0001
1000
0010
1000
0001
,
0100
0010
1000
0001
1000
0100
1000
0001
0010
0100
1000
0001
0010
0100
0010
0001
,
1000
0100
1000
0001
1000
0010
0100
0001
1000
0010
1000
0001
0100
0010
1000
0001
,
1000
0100
0010
0100
1000
0001
0010
0100
1000
0001
1000
0010
1000
0001
0100
0010
,
0100
0001
1000
0001
0100
0001
1000
0010
0100
0010
1000
0001
1000
0100
0010
0100
,
1000
0001
0010
0100
1000
0001
1000
0100
0010
0100
1000
0001
0010
0100
1000
0001
,
1000
0010
0100
0001
1000
0010
0100
0001
1000
0001
0010
0100
1000
0001
0010
0100
,
1000
0001
1000
0010
0100
0001
0100
0010
1000
0001
1000
0100
1000
0001
0010
0100
,
1000
0001
1000
0100
0010
0001
1000
0001
0100
0010
0100
0001
1000
0010
1000
0001
,
0100
0010
1000
0001
1000
0100
1000
0001
0010
0100
1000
0001
0010
0100
0010
0001
,
1000
0100
1000
0001
1000
0010
0100
0001
1000
0010
1000
0001
0100
0010
1000
0001
,
1000
0100
0010
0100
1000
0001
0010
0100
1000
0001
1000
0010
1000
0001
0100
0010
,
0100
0001
1000
0001
0100
0001
1000
0010
0100
0010
1000
0001
1000
0100
0010
0100
,
1000
0001
0010
0100
1000
0001
1000
0100
0010
0100
1000
0001
0010
0100
1000
0001
,
1000
0010
0100
0001
1000
0010
0100
0001
1000
0001
0010
0100
1000
0001
0010
0100
,
1000
0001
0100
0001
1000
0100
1000
0100
,
0010
0001
0100
0010
1000
0001
1000
0001
,
0100
0010
1000
0001
0010
0001
0010
0001
,
0100
0010
1000
0001
0010
0001
0010
0001
,
1000
0100
0010
0001
1000
0010
1000
0010
,
0100
0001
0010
0100
1000
0001
1000
0001
,
0010
0100
1000
0001
0100
0001
0100
0001
,
0010
0001
1000
0001
0100
0010
0100
0010
,
1000
0100
0010
0001
1000
0010
1000
0010
,
0100
0001
0010
0100
1000
0001
1000
0001
,
0010
0100
1000
0001
0100
0001
0100
0001
,
0010
0100
1000
0001
0100
0001
0100
0001
,
1000
0010
0100
0001
1000
0100
1000
0100
,
0010
0001
0100
0010
1000
0001
1000
0001
,
0100
0010
1000
0001
0010
0001
0010
0001
,
0100
0001
1000
0001
0010
0100
0010
0100
,
1000
0000
0010
0100
0010
0000
1000
0000
0001
0000
1000
0000
0010
0000
1000
0000
,
0001
0000
0010
0100
0010
0000
0001
0000
1000
0000
0001
0000
0010
0000
0001
0000
,
1000
0000
0010
0100
0010
0000
1000
0000
0001
0000
1000
0000
0010
0000
1000
0000
,
0001
0000
0010
0100
0010
0000
0001
0000
1000
0000
0001
0000
0010
0000
0001
0000
,
1000
0000
0100
0010
0100
0000
1000
0000
0001
0000
1000
0000
0100
0000
1000
0000
,
0001
0000
0100
0010
0100
0000
0001
0000
1000
0000
0001
0000
0100
0000
0001
0000
,
1000
0000
0100
0010
0100
0000
1000
0000
0001
0000
1000
0000
0100
0000
1000
0000
,
0001
0000
0100
0010
0100
0000
0001
0000
1000
0000
0001
0000
0100
0000
0001
0000
,
1000
0100
0010
0100
1000
0001
0010
0001
1000
0000
0100
0000
0010
0000
0100
0000
,
1000
0001
1000
0000
0010
0000
0100
0000
0010
0000
1000
0000
0100
0000
1000
0000
,
0001
0100
0010
0100
0001
1000
0001
0100
0010
0000
0100
0000
0010
0000
0100
0000
,
0001
1000
0001
0000
0010
0000
0100
0000
0010
0000
0001
0000
0100
0000
0001
0000
,
1000
0010
0100
0010
1000
0001
1000
0010
0100
0000
0010
0000
0100
0000
0010
0000
,
1000
0001
1000
0000
0100
0000
0010
0000
0100
0000
1000
0000
0010
0000
1000
0000
,
0001
0010
0100
0010
0001
1000
0001
0010
0100
0000
0010
0000
0100
0000
0010
0000
,
0001
1000
0001
0000
0100
0000
0001
0000
0010
0000
0100
0000
0010
0000
0001
0000
,
1000
0100
1000
0100
1000
0010
1000
0010
,
0100
0001
0010
0001
1000
0100
0010
0001
,
1000
0010
1000
0010
1000
0100
1000
0100
,
0010
0001
0100
0001
1000
0100
0010
0001
,
0100
0010
0100
0010
1000
0010
0100
0001
,
0010
0001
0100
0001
1000
0010
0100
0001
,
0010
0100
0010
0100
1000
0010
1000
0010
,
0100
0001
0010
0001
1000
0010
0100
0001
,
1000
0100
1000
0100
1000
0010
1000
0010
,
0100
0001
0010
0001
1000
0100
0010
0001
,
1000
0010
1000
0010
1000
0100
1000
0100
,
0010
0001
0100
0001
1000
0100
0010
0001
,
0100
0010
0100
0010
1000
0010
0100
0001
,
0010
0001
0100
0001
1000
0010
0100
0001
,
0010
0100
0010
0100
1000
0010
1000
0010
,
0100
0001
0010
0001
1000
0010
0100
0001
,
1000
0000
0000
0000
,
1001
0000
0000
0000
,
1001
0000
0000
0000
,
1001
0000
0000
0000
,
1000
0100
0010
0001
1000
0100
1000
0001
1000
0000
0010
0000
1000
0000
0001
0000
,
1000
0010
0100
0001
1000
0001
0100
0001
1000
0000
0001
0000
0100
0000
0001
0000
,
1000
0100
0010
0100
1000
0001
1000
0100
1000
0000
0001
0000
0010
0000
0001
0000
,
1000
0001
0010
0100
0010
0001
1000
0100
1000
0000
0001
0000
1000
0000
0100
0000
,
1000
0001
0100
0010
0100
0001
1000
0010
0100
0001
1000
0001
0010
0001
1000
0100
,
0010
0001
1000
0001
0010
0100
1000
0001
1000
0010
0100
0010
1000
0001
0100
0001
,
1000
0010
0100
0001
1000
0001
0010
0001
1000
0100
0010
0001
1000
0100
0010
0100
,
1000
0001
0010
0001
1000
0001
0100
0010
1000
0001
0100
0001
1000
0010
0100
0001
,
1000
0001
0010
0100
0010
0001
1000
0100
0010
0001
1000
0001
0100
0001
1000
0010
,
0100
0010
1000
0001
1000
0010
1000
0001
0100
0010
0100
0001
1000
0001
0010
0100
,
0010
0001
1000
0100
0010
0001
1000
0001
0010
0100
0010
0001
1000
0100
0010
0001
,
1000
0001
0100
0010
1000
0001
0100
0010
1000
0001
1000
0100
0010
0001
1000
0100
,
0010
0001
1000
0001
0100
0010
1000
0010
0100
0001
1000
0001
0010
0001
1000
0100
,
0010
0001
1000
0001
0010
0100
1000
0001
1000
0010
0100
0010
1000
0001
0100
0001
,
1000
0010
0100
0001
1000
0001
0010
0001
1000
0100
0010
0001
1000
0100
0010
0100
,
1000
0001
0010
0001
1000
0001
0100
0010
1000
0001
0100
0001
1000
0010
0100
0001
,
1000
0001
0010
0100
0010
0001
1000
0100
0010
0001
1000
0001
0100
0001
1000
0010
,
0100
0010
1000
0001
1000
0010
1000
0001
0100
0010
0100
0001
1000
0001
0010
0100
,
0010
0001
1000
0100
0010
0001
1000
0001
0010
0001
1000
0100
0010
0001
1000
0001
,
0100
0010
1000
0001
0100
0010
1000
0001
1000
0100
0010
0001
1000
0100
0010
0001
,
4000
0000
0000
0000
,
3040
0000
0000
0000
,
0430
0000
0000
0000
,
0000
0000
0000
0000
,
0304
0000
0000
0000
,
4003
0000
0000
0000
,
3040
0000
0000
0000
,
0430
0000
0000
0000
,
0304
0000
0000
0000
,
0043
0000
0000
0000
,
0430
0000
0000
0000
,
0000
0000
0000
0000
,
4300
0000
0000
0000
,
3004
0000
0000
0000
,
0043
0000
0000
0000
,
0430
0000
0000
0000
,
1300
0001
0100
0001
0100
0001
0100
0001
,
1000
0010
0100
0010
0100
0010
0100
0010
,
1000
0001
0100
0001
0100
0001
0100
0001
,
1000
0000
0000
0000
;

//---------------dance-single - Mad Matt----------------
#NOTES:
     dance-single:
     Mad Matt:
     Hard:
     20:
     1.000,1.000,0.033,0.000,1.000,1249.000,4.000,0.000,0.000,0.000:









0000
0000
0000
0000
,
0000
0000
0000
0000
,
0000
0000
0000
0000
,
0000
0000
0000
0000
1000
0001
1000
0001
,
0100
0010
1000
0001
0100
0001
1000
0001
,
0010
0100
1000
0001
0100
0001
1000
0001
,
0100
0010
1000
0001
0100
0001
1000
0001
,
0100
0010
0100
0001
1000
0001
0100
0001
,
1000
0100
1000
0001
0100
0001
1000
0001
,
0100
0010
1000
0001
0100
0001
1000
0001
,
0010
0100
1000
0001
0100
0001
1000
0001
,
0100
0010
1000
0001
0100
0001
1000
0001
,
0100
0010
1000
0001
0100
0001
1000
0001
,
0010
0100
1000
0001
0100
0001
1000
0001
,
0100
0010
1000
0001
0100
0001
1000
0001
,
0100
0010
0100
0001
1000
0001
0100
0001
,
1000
0100
1000
0001
0100
0001
1000
0001
,
0100
0010
1000
0001
0100
0001
1000
0001
,
0010
0100
1000
0001
0100
0001
1000
0001
,
0100
0010
0100
0001
1000
0001
0100
0001
,
1000
0010
0100
0010
1000
0001
0100
0001
1000
0100
1000
0001
0100
0010
1000
0001
,
0010
0100
1000
0001
0010
0100
1000
0001
0100
0001
1000
0001
0010
0100
1000
0001
,
0100
0010
0100
0001
1000
0100
1000
0001
0100
0010
1000
0001
0100
0010
1000
0001
,
1000
0100
1000
0001
0100
0010
1000
0001
1000
0100
0010
0001
1000
0010
0100
0001
,
1000
0001
0010
0100
1000
0001
0010
0100
1000
0001
0100
0010
1000
0100
1000
0001
,
0100
0010
1000
0001
0010
0001
1000
0001
0100
0010
1000
0001
1000
0100
0010
0100
,
1000
0001
0010
0100
1000
0001
0100
0010
1000
0010
0100
0001
1000
0100
1000
0001
,
1000
0010
0100
0001
1000
0010
0100
0001
1000
0001
0010
0100
1000
0001
0010
0100
,
1000
0001
0100
0010
1000
0001
0100
0001
1000
0100
1000
0001
0100
0010
1000
0001
,
0010
0100
1000
0001
0010
0100
1000
0001
0100
0001
1000
0001
0010
0100
1000
0001
,
0100
0010
0100
0001
1000
0100
1000
0001
0100
0010
1000
0001
0100
0010
1000
0001
,
1000
0100
1000
0001
0100
0010
1000
0001
1000
0100
0010
0001
1000
0010
0100
0001
,
1000
0001
0010
0100
1000
0001
0010
0100
1000
0001
0100
0010
1000
0100
1000
0001
,
0100
0010
1000
0001
0010
0001
1000
0001
0100
0010
1000
0001
1000
0100
0010
0100
,
1000
0001
0010
0100
1000
0001
0100
0010
1000
0010
0100
0001
1000
0100
1000
0001
,
1000
0010
0100
0001
1000
0010
0100
0001
1000
0001
0010
0100
1000
0001
0010
0100
,
1000
0010
0100
0001
1000
0100
1000
0100
,
0010
0001
0100
0010
1000
0001
1000
0001
,
0100
0010
1000
0001
0010
0001
0010
0001
,
0100
0010
1000
0001
0010
0001
0010
0001
,
1000
0100
0010
0001
1000
0010
1000
0010
,
0100
0001
0010
0100
1000
0001
1000
0001
,
0010
0100
1000
0001
0100
0001
0100
0001
,
0010
0001
1000
0001
0100
0010
0100
0010
,
1000
0100
0010
0001
1000
0010
1000
0010
,
0100
0001
0010
0100
1000
0001
1000
0001
,
0010
0100
1000
0001
0100
0001
0100
0001
,
0010
0100
1000
0001
0100
0001
0100
0001
,
1000
0010
0100
0001
1000
0100
1000
0100
,
0010
0001
0100
0010
1000
0001
1000
0001
,
0100
0010
1000
0001
0010
0001
0010
0001
,
0100
0001
1000
0001
0010
0100
0010
0100
,
1000
0000
0010
0100
0010
0000
1000
0000
0001
0000
1000
0000
0010
0000
1000
0000
,
0001
0000
0010
0100
0010
0000
0001
0000
1000
0000
0001
0000
0010
0000
0001
0000
,
1000
0000
0010
0100
0010
0000
1000
0000
0001
0000
1000
0000
0010
0000
1000
0000
,
0001
0000
0010
0100
0010
0000
0001
0000
1000
0000
0001
0000
0010
0000
0001
0000
,
1000
0000
0100
0010
0100
0000
1000
0000
0001
0000
1000
0000
0100
0000
1000
0000
,
0001
0000
0100
0010
0100
0000
0001
0000
1000
0000
0001
0000
0100
0000
0001
0000
,
1000
0000
0100
0010
0100
0000
1000
0000
0001
0000
1000
0000
0100
0000
1000
0000
,
0001
0000
0100
0010
0100
0000
0001
0000
1000
0000
0001
0000
0100
0000
0001
0000
,
1000
0100
0010
0100
1000
0001
1000
0010
0100
0000
0010
0000
0100
0000
0010
0000
,
1000
0001
1000
0000
0010
0000
0100
0000
0010
0000
1000
0000
0100
0000
1000
0000
,
0001
0100
0010
0100
0001
1000
0001
0010
0100
0000
0010
0000
0100
0000
0010
0000
,
0001
1000
0001
0000
0010
0000
0100
0000
0010
0000
0001
0000
0100
0000
0001
0000
,
1000
0010
0100
0010
1000
0001
1000
0100
0010
0000
0100
0000
0010
0000
0100
0000
,
1000
0001
1000
0000
0100
0000
0010
0000
0100
0000
1000
0000
0010
0000
1000
0000
,
0001
0010
0100
0010
0001
1000
0001
0100
0010
0000
0100
0000
0010
0000
0100
0000
,
0001
1000
0001
0000
0100
0000
0001
0000
0010
0000
0100
0000
0010
0000
0001
0000
,
1000
0100
0010
0001
1000
0001
0100
0010
0100
0001
1000
0001
0100
0010
1000
0001
,
1000
0100
0010
0001
1000
0100
0010
0001
1000
0001
0100
0010
1000
0010
0100
0001
,
1000
0001
0010
0100
1000
0001
0010
0100
0010
0001
1000
0001
0010
0100
1000
0001
,
1000
0010
0100
0001
0100
0010
1000
0001
1000
0100
0010
0100
1000
0001
1000
0010
,
0100
0001
0100
0010
1000
0001
1000
0100
0010
0001
1000
0001
0010
0100
1000
0001
,
1000
0010
0100
0001
1000
0001
0100
0010
1000
0001
1000
0100
0010
0100
1000
0001
,
1000
0010
0100
0001
1000
0001
0010
0100
0010
0001
1000
0001
0100
0010
1000
0001
,
1000
0010
0100
0001
0100
0010
1000
0001
,
1000
0010
0100
0001
1000
0001
0010
0100
0010
0001
1000
0001
0010
0100
1000
0001
,
1000
0010
0100
0001
1000
0010
0100
0001
1000
0001
0010
0100
1000
0100
0010
0001
,
1000
0001
0100
0010
1000
0001
0100
0010
0100
0001
1000
0001
0100
0010
1000
0001
,
1000
0100
0010
0001
0010
0100
1000
0001
1000
0010
0100
0010
1000
0001
1000
0100
,
0010
0001
0010
0100
1000
0001
1000
0010
0100
0001
1000
0001
0100
0010
1000
0001
,
1000
0100
0010
0001
1000
0001
0010
0100
1000
0001
1000
0010
0100
0010
1000
0001
,
1000
0100
0010
0001
1000
0001
0100
0010
0100
0001
1000
0001
0010
0100
1000
0001
,
1000
0100
0010
0001
0010
0100
1000
0001
,
1000
0000
0000
0000
,
1001
0000
0000
0000
,
1001
0000
0000
0000
,
1001
0000
0000
0000
,
0001
0100
0010
1000
0001
1000
0100
1000
0001
0000
0010
0000
0001
0000
1000
0000
,
0001
0010
0100
1000
0001
1000
0100
1000
0001
0000
1000
0000
0100
0000
1000
0000
,
0001
0100
0010
0100
0001
1000
0100
1000
0001
0000
1000
0000
0010
0000
1000
0000
,
0001
1000
0010
0100
0010
1000
0001
0010
0001
1000
0100
0010
0001
0010
0100
1000
,
0001
1000
0010
0100
0001
1000
0010
1000
0001
0010
0001
1000
0010
0100
0001
1000
,
0100
0010
0001
1000
0100
0010
0001
1000
0010
1000
0001
1000
0100
0010
0001
1000
,
0010
0100
0010
1000
0001
0010
0001
1000
0010
0100
0001
1000
0010
0100
0001
1000
,
0001
0010
0001
1000
0010
0100
0001
1000
0001
0010
0100
1000
0001
0100
0010
1000
,
0001
1000
0100
0010
0001
1000
0100
0010
0001
1000
0010
0100
0001
0010
0001
1000
,
0010
0100
0001
1000
0100
1000
0001
1000
0010
0100
0001
1000
0001
0010
0100
0010
,
0001
1000
0100
0010
0001
1000
0010
0100
0001
0100
0010
1000
0001
0010
0001
1000
,
0001
0100
0010
1000
0001
0100
0010
1000
0001
1000
0100
0010
0001
1000
0100
0010
,
0001
1000
0010
0100
0001
1000
0010
1000
0001
0010
0001
1000
0010
0100
0001
1000
,
0100
0010
0001
1000
0100
0010
0001
1000
0010
1000
0001
1000
0100
0010
0001
1000
,
0010
0100
0010
1000
0001
0010
0001
1000
0010
0100
0001
1000
0010
0100
0001
1000
,
0001
0010
0001
1000
0010
0100
0001
1000
0001
0010
0100
1000
0001
0100
0010
1000
,
0001
1000
0100
0010
0001
1000
0100
0010
0001
1000
0010
0100
0001
0010
0001
1000
,
0010
0100
0001
1000
0100
1000
0001
1000
0010
0100
0001
1000
0001
0010
0100
0010
,
0001
1000
0100
0010
0001
1000
0010
0100
0001
0100
0010
1000
0001
0010
0001
1000
,
0001
0100
0010
1000
0001
0100
0010
1000
0001
1000
0100
0010
0001
1000
0100
0010
,
0004
0000
0000
0000
,
0403
0000
0000
0000
,
0340
0000
0000
0000
,
0000
0000
0000
0000
,
4030
0000
0000
0000
,
3004
0000
0000
0000
,
0403
0000
0000
0000
,
0340
0000
0000
0000
,
4030
0000
0000
0000
,
3400
0000
0000
0000
,
0340
0000
0000
0000
,
0000
0000
0000
0000
,
0034
0000
0000
0000
,
4003
0000
0000
0000
,
3400
0000
0000
0000
,
0340
0000
0000
0000
,
0031
1000
0010
1000
0010
1000
0010
1000
,
0001
0100
0010
0100
0010
0100
0010
0100
,
0001
1000
0010
1000
0010
1000
0010
1000
,
0001
0000
0000
0000
;

//---------------dance-single - Mad Matt----------------
#NOTES:
     dance-single:
     Mad Matt:
     Medium:
     19:
     1.000,1.000,0.033,0.000,1.000,1203.000,4.000,0.000,0.000,0.000:










0000
0000
0000
0000
,
0000
0000
0000
0000
,
0000
0000
0000
0000
,
0000
0000
0000
0000
1000
0001
1000
0001
,
0100
0010
1000
0001
0100
0001
1000
0001
,
0010
0100
1000
0001
0100
0001
1000
0001
,
0100
0010
1000
0001
0100
0001
1000
0001
,
0100
0010
0100
0001
1000
0001
0100
0001
,
1000
0100
1000
0001
0100
0001
1000
0001
,
0100
0010
1000
0001
0100
0001
1000
0001
,
0010
0100
1000
0001
0100
0001
1000
0001
,
0100
0010
1000
0001
0100
0001
1000
0001
,
0100
0010
1000
0001
0100
0001
1000
0001
,
0010
0100
1000
0001
0100
0001
1000
0001
,
0100
0010
1000
0001
0100
0001
1000
0001
,
0100
0010
0100
0001
1000
0001
0100
0001
,
1000
0100
1000
0001
0100
0001
1000
0001
,
0100
0010
1000
0001
0100
0001
1000
0001
,
0010
0100
1000
0001
0100
0001
1000
0001
,
0100
0010
0100
0001
1000
0001
0100
0001
,
1000
0010
0100
0010
1000
0001
1000
0100
0010
0100
1000
0001
0010
0100
1000
0001
,
1000
0010
1000
0001
0100
0010
1000
0001
1000
0100
0010
0001
1000
0100
1000
0001
,
1000
0010
0100
0001
1000
0001
0100
0010
0100
0001
1000
0001
0010
0100
1000
0001
,
0010
0100
0010
0001
1000
0001
0100
0010
1000
0001
0100
0010
0100
0001
1000
0001
,
0010
0100
1000
0001
1000
0100
0010
0100
1000
0001
1000
0010
0100
0001
0100
0010
,
1000
0001
0100
0010
0100
0001
1000
0001
0010
0100
1000
0001
0010
0100
0010
0001
,
1000
0100
0010
0100
1000
0001
1000
0010
0100
0010
1000
0001
0100
0010
1000
0001
,
1000
0100
0010
0001
1000
0100
0010
0001
1000
0001
0100
0010
1000
0001
0100
0010
,
1000
0001
1000
0100
0010
0100
1000
0001
1000
0010
0100
0010
1000
0001
0100
0010
,
1000
0001
1000
0100
1000
0001
0010
0100
1000
0001
1000
0010
0100
0001
1000
0010
,
1000
0001
1000
0100
0010
0001
1000
0001
0010
0100
0010
0001
1000
0001
0100
0010
,
1000
0001
0100
0010
0100
0001
1000
0001
0010
0100
1000
0001
0010
0100
0010
0001
,
1000
0001
0100
0010
1000
0001
1000
0010
0100
0010
1000
0001
1000
0100
0010
0001
,
0010
0100
1000
0001
0010
0100
0010
0001
1000
0001
0100
0010
1000
0001
0100
0010
,
0100
0001
1000
0010
0100
0010
1000
0001
1000
0100
0010
0001
0010
0100
1000
0001
,
1000
0010
0100
0001
1000
0010
0100
0001
1000
0001
0010
0100
1000
0001
0010
0100
,
1000
0001
0100
0001
1000
0100
1000
0100
,
0010
0001
0100
0010
1000
0001
1000
0001
,
0100
0010
1000
0001
0010
0001
0010
0001
,
0100
0010
1000
0001
0010
0001
0010
0001
,
1000
0100
0010
0001
1000
0010
1000
0010
,
0100
0001
0010
0100
1000
0001
1000
0001
,
0010
0100
1000
0001
0100
0001
0100
0001
,
0010
0001
1000
0001
0100
0010
0100
0010
,
1000
0100
0010
0001
1000
0010
1000
0010
,
0100
0001
0010
0100
1000
0001
1000
0001
,
0010
0100
1000
0001
0100
0001
0100
0001
,
0010
0100
1000
0001
0100
0001
0100
0001
,
1000
0010
0100
0001
1000
0100
1000
0100
,
0010
0001
0100
0010
1000
0001
1000
0001
,
0100
0010
1000
0001
0010
0001
0010
0001
,
0100
0001
1000
0001
0010
0100
0010
0100
,
1000
0000
0010
0100
0010
0000
1000
0000
0001
0000
1000
0000
0010
0000
1000
0000
,
0001
0000
0010
0100
0010
0000
0001
0000
1000
0000
0001
0000
0010
0000
0001
0000
,
1000
0000
0010
0100
0010
0000
1000
0000
0001
0000
1000
0000
0010
0000
1000
0000
,
0001
0000
0010
0100
0010
0000
0001
0000
1000
0000
0001
0000
0010
0000
0001
0000
,
1000
0000
0100
0010
0100
0000
1000
0000
0001
0000
1000
0000
0100
0000
1000
0000
,
0001
0000
0100
0010
0100
0000
0001
0000
1000
0000
0001
0000
0100
0000
0001
0000
,
1000
0000
0100
0010
0100
0000
1000
0000
0001
0000
1000
0000
0100
0000
1000
0000
,
0001
0000
0100
0010
0100
0000
0001
0000
1000
0000
0001
0000
0100
0000
0001
0000
,
1000
0100
0010
0100
1000
0001
1000
0100
0010
0000
0100
0000
0010
0000
0100
0000
,
1000
0001
1000
0000
0010
0000
0100
0000
0010
0000
1000
0000
0100
0000
1000
0000
,
0001
0100
0010
0100
0001
1000
0001
0100
0010
0000
0100
0000
0010
0000
0100
0000
,
0001
1000
0001
0000
0010
0000
0100
0000
0010
0000
0001
0000
0100
0000
0001
0000
,
1000
0010
0100
0010
1000
0001
1000
0010
0100
0000
0010
0000
0100
0000
0010
0000
,
1000
0001
1000
0000
0100
0000
0010
0000
0100
0000
1000
0000
0010
0000
1000
0000
,
0001
0010
0100
0010
0001
1000
0001
0010
0100
0000
0010
0000
0100
0000
0010
0000
,
0001
1000
0001
0000
0100
0000
0001
0000
0010
0000
0100
0000
0010
0000
0001
0000
,
1000
0100
0010
0001
1000
0001
0010
0100
0010
0001
1000
0001
0100
0010
1000
0001
,
1000
0000
0010
0000
0100
0000
0001
0000
0100
0010
0100
0000
0001
0000
1000
0000
,
0001
0100
0010
1000
0001
1000
0010
0100
0010
1000
0001
1000
0100
0010
0001
1000
,
0001
0000
0010
0000
0100
0000
0010
0000
0001
1000
0001
0000
0010
0000
0100
0000
,
1000
0100
0010
0001
1000
0001
0010
0100
0010
0001
1000
0001
0100
0010
1000
0001
,
1000
0000
0100
0000
0010
0000
0100
0000
1000
0001
1000
0000
0001
0000
0100
0000
,
0001
0100
0010
1000
0001
1000
0010
0100
0010
1000
0001
1000
0100
0010
0001
1000
,
0001
0010
0100
1000
0100
0010
0001
1000
,
0001
0010
0100
1000
0001
1000
0100
0010
0100
1000
0001
1000
0010
0100
0001
1000
,
0001
0000
0010
0000
0100
0000
1000
0000
0100
0010
0100
0000
1000
0000
0001
0000
,
1000
0010
0100
0001
1000
0001
0100
0010
0100
0001
1000
0001
0010
0100
1000
0001
,
1000
0000
0100
0000
0010
0000
0100
0000
1000
0001
1000
0000
0010
0000
0100
0000
,
0001
0100
0010
1000
0001
1000
0010
0100
0010
1000
0001
1000
0100
0010
0001
1000
,
0001
0000
0010
0000
0100
0000
0010
0000
0001
1000
0001
0000
1000
0000
0100
0000
,
1000
0100
0010
0001
1000
0001
0010
0100
0010
0001
1000
0001
0100
0010
1000
0001
,
1000
0100
0010
0001
0010
0100
0010
0001
,
1000
0000
0000
0000
,
1001
0000
0000
0000
,
1001
0000
0000
0000
,
1001
0000
0000
0000
,
0001
0100
0010
1000
0001
0100
0001
1000
0001
0000
0010
0000
0001
0000
1000
0000
,
0001
0010
0100
1000
0001
1000
0100
1000
0001
0000
1000
0000
0100
0000
1000
0000
,
0001
0100
0010
0100
0001
1000
0001
0100
0001
0000
1000
0000
0010
0000
1000
0000
,
0001
1000
0010
0100
0010
1000
0001
0100
0001
0000
1000
0000
0001
0000
0100
0000
,
0001
0100
0010
0100
0001
1000
0001
0010
0100
0010
0001
1000
0100
0010
0001
1000
,
0001
0100
0001
1000
0010
0100
0001
1000
0001
0010
0100
1000
0001
0010
0001
1000
,
0001
0100
0010
1000
0001
1000
0010
0100
0010
1000
0001
1000
0100
0010
0001
1000
,
0100
0010
0100
1000
0001
1000
0010
0100
0001
1000
0010
0100
0010
1000
0001
1000
,
0100
0010
0001
1000
0001
0010
0100
0010
0001
1000
0001
0100
0010
1000
0010
0100
,
0001
1000
0010
0100
0010
1000
0001
1000
0100
0010
0001
1000
0100
0010
0100
1000
,
0001
0010
0100
0010
0001
1000
0001
0100
0010
0100
0001
1000
0010
0100
0001
1000
,
0001
0010
0100
1000
0001
0010
0100
1000
0001
1000
0010
0100
0001
1000
0010
0100
,
0001
1000
0001
0010
0100
0010
0001
1000
0001
0100
0010
0100
0001
1000
0010
0100
,
0001
1000
0001
0010
0001
1000
0100
0010
0001
1000
0001
0100
0010
1000
0001
0100
,
0001
1000
0001
0010
0100
1000
0001
1000
0100
0010
0100
1000
0001
1000
0010
0100
,
0001
1000
0010
0100
0010
1000
0001
1000
0100
0010
0001
1000
0100
0010
0100
1000
,
0001
1000
0010
0100
0001
1000
0001
0100
0010
0100
0001
1000
0001
0010
0100
1000
,
0100
0010
0001
1000
0100
0010
0100
1000
0001
1000
0010
0100
0001
1000
0010
0100
,
0010
1000
0001
0100
0010
0100
0001
1000
0001
0010
0100
1000
0100
0010
0001
1000
,
0001
0100
0010
1000
0001
0100
0010
1000
0001
1000
0100
0010
0001
1000
0100
0010
,
0004
0000
0000
0000
,
0403
0000
0000
0000
,
0340
0000
0000
0000
,
0000
0000
0000
0000
,
4030
0000
0000
0000
,
3004
0000
0000
0000
,
0403
0000
0000
0000
,
0340
0000
0000
0000
,
4030
0000
0000
0000
,
3400
0000
0000
0000
,
0340
0000
0000
0000
,
0000
0000
0000
0000
,
0034
0000
0000
0000
,
4003
0000
0000
0000
,
3400
0000
0000
0000
,
0340
0000
0000
0000
,
0031
1000
0010
1000
0010
1000
0010
1000
,
0001
0100
0010
0100
0010
0100
0010
0100
,
0001
1000
0010
1000
0010
1000
0010
1000
,
0001
0000
0000
0000
;

//---------------dance-single - Aoreo----------------
#NOTES:
     dance-single:
     Aoreo:
     Beginner:
     16:
     1.000,1.000,0.025,0.116,0.578,987.000,3.000,14.000,0.000,0.000:





0000
0000
0000
0000
,
0000
0000
0000
0000
,
0000
0000
0000
0000
,
0000
0000
0000
0000
1000
0001
1000
0001
,
0100
0010
1000
0001
0100
0001
1000
0001
,
0010
0100
1000
0001
0100
0001
1000
0001
,
0100
0010
1000
0001
0100
0001
1000
0001
,
0100
0010
0100
0001
1000
0001
0100
0001
,
1000
0100
1000
0001
0100
0001
1000
0001
,
0100
0010
1000
0001
0100
0001
1000
0001
,
0010
0100
1000
0001
0100
0001
1000
0001
,
0100
0010
1000
0001
0100
0001
1000
0001
,
0100
0010
1000
0001
0100
0001
1000
0001
,
0010
0100
1000
0001
0100
0001
1000
0001
,
0100
0010
1000
0001
0100
0001
1000
0001
,
0100
0010
0100
0001
1000
0001
0100
0001
,
1000
0100
1000
0001
0100
0001
1000
0001
,
0100
0010
1000
0001
0100
0001
1000
0001
,
0010
0100
1000
0001
0100
0001
1000
0001
,
0100
0010
0100
0001
1000
0001
0100
0001
,
1000
0010
1000
0001
0100
0001
1000
0001
,
0010
0100
1000
0001
0100
0001
1000
0001
,
0100
0010
1000
0001
0100
0001
1000
0001
,
0100
0010
0100
0001
1000
0001
0100
0001
,
1000
0100
1000
0001
0100
0001
1000
0001
,
0100
0010
1000
0001
0100
0001
1000
0001
,
0010
0100
1000
0001
0100
0001
1000
0001
,
1000
0100
0010
0001
1000
0010
0100
0001
1000
0100
0010
0001
1000
0010
0100
0001
,
1000
0010
1000
0001
0100
0001
1000
0001
,
0010
0100
1000
0001
0100
0001
1000
0001
,
0100
0010
1000
0001
0100
0001
1000
0001
,
0100
0010
0100
0001
1000
0001
0100
0001
,
1000
0100
1000
0001
0100
0001
1000
0001
,
0100
0010
1000
0001
0100
0001
1000
0001
,
0010
0100
1000
0001
0100
0001
1000
0001
,
1000
0010
0100
0001
1000
0010
0100
0010
1000
0001
0010
0001
1000
0100
0010
0001
,
1000
0001
0100
0001
1000
0100
1000
0100
,
0010
0001
0100
0010
1000
0001
1000
0001
,
0100
0010
1000
0001
0010
0001
0010
0001
,
0100
0010
1000
0001
0010
0001
0010
0001
,
1000
0100
0010
0001
1000
0010
1000
0010
,
0100
0001
0010
0100
1000
0001
1000
0001
,
0010
0100
1000
0001
0100
0001
0100
0001
,
0010
0001
1000
0001
0100
0010
0100
0010
,
1000
0100
0010
0001
1000
0010
1000
0010
,
0100
0001
0010
0100
1000
0001
1000
0001
,
0010
0100
1000
0001
0100
0001
0100
0001
,
0010
0100
1000
0001
0100
0001
0100
0001
,
1000
0010
0100
0001
1000
0100
1000
0100
,
0010
0001
0100
0010
1000
0001
1000
0001
,
0100
0010
1000
0001
0010
0001
0010
0001
,
0100
0001
1000
0001
0010
0100
0010
0100
,
1000
0000
0010
0100
0010
0000
1000
0000
0001
0000
1000
0000
0010
0000
1000
0000
,
0001
0000
0010
0100
0010
0000
0001
0000
1000
0000
0001
0000
0010
0000
0001
0000
,
1000
0000
0010
0100
0010
0000
1000
0000
0001
0000
1000
0000
0010
0000
1000
0000
,
0001
0000
0010
0100
0010
0000
0001
0000
1000
0000
0001
0000
0010
0000
0001
0000
,
1000
0000
0100
0010
0100
0000
1000
0000
0001
0000
1000
0000
0100
0000
1000
0000
,
0001
0000
0100
0010
0100
0000
0001
0000
1000
0000
0001
0000
0100
0000
0001
0000
,
1000
0000
0100
0010
0100
0000
1000
0000
0001
0000
1000
0000
0100
0000
1000
0000
,
0001
0000
0100
0010
0100
0000
0001
0000
1000
0000
0001
0000
0100
0000
0001
0000
,
1000
0100
0010
0100
1000
0001
0010
0001
1000
0000
0100
0000
0010
0000
0100
0000
,
1000
0001
1000
0000
0010
0000
0100
0000
0010
0000
1000
0000
0100
0000
1000
0000
,
0001
0100
0010
0100
0001
1000
0001
0100
0010
0000
0100
0000
0010
0000
0100
0000
,
0001
1000
0001
0000
0010
0000
0100
0000
0010
0000
0001
0000
0100
0000
0001
0000
,
1000
0010
0100
0010
1000
0001
1000
0010
0100
0000
0010
0000
0100
0000
0010
0000
,
1000
0001
1000
0000
0100
0000
0010
0000
0100
0000
1000
0000
0010
0000
1000
0000
,
0001
0010
0100
0010
0001
1000
0001
0010
0100
0000
0010
0000
0100
0000
0010
0000
,
0001
1000
0001
0000
0100
0000
0001
0000
0010
0000
0100
0000
0010
0000
0001
0000
,
1000
0010
0100
0010
1000
0001
0100
0001
1000
0100
0010
0001
1000
0100
1000
0001
,
0100
0001
0010
0001
1000
0100
0010
0001
,
1000
0001
0100
0001
1000
0010
0100
0001
1000
0100
0010
0100
1000
0001
0010
0100
,
1000
0001
0100
0001
1000
0100
0010
0001
,
0100
0001
1000
0010
0100
0010
1000
0001
1000
0100
0010
0001
1000
0100
1000
0001
,
0100
0010
0100
0001
1000
0010
0100
0001
,
1000
0100
0010
0001
1000
0100
1000
0001
0100
0010
0100
0001
1000
0010
0100
0001
,
1000
0001
0010
0001
1000
0010
0100
0001
,
1000
0100
0010
0001
1000
0001
0100
0010
0100
0001
1000
0001
0010
0100
1000
0001
,
0100
0001
0010
0001
1000
0100
0010
0001
,
1000
0100
0010
0100
1000
0001
0100
0010
0100
0001
1000
0100
0010
0001
1000
0001
,
0100
0001
0100
0001
1000
0100
0010
0001
,
0100
0001
1000
0010
0100
0010
1000
0001
0100
0001
1000
0100
0010
0001
1000
0100
,
1000
0001
0100
0001
1000
0010
0100
0001
,
0010
0100
1000
0001
0100
0010
0100
0001
1000
0100
0010
0001
1000
0001
0100
0010
,
1000
0001
0010
0001
1000
0010
0100
0001
,
1000
0000
0000
0000
,
1001
0000
0000
0000
,
1001
0000
0000
0000
,
1001
0000
0000
0000
,
1000
0100
0010
0001
1000
0100
1000
0001
1000
0000
0010
0000
1000
0000
0001
0000
,
1000
0010
0100
0001
1000
0001
0100
0001
1000
0000
0001
0000
0100
0000
0001
0000
,
1000
0100
0010
0100
1000
0001
1000
0100
1000
0000
0001
0000
0010
0000
0001
0000
,
1000
0001
0010
0100
0010
0001
1000
0100
1000
0000
0001
0000
1000
0000
0100
0000
,
1000
0010
1000
0001
0100
0001
1000
0001
,
0010
0100
1000
0001
0100
0001
1000
0001
,
0100
0010
1000
0001
0100
0001
1000
0001
,
0100
0010
0100
0001
1000
0001
0100
0001
,
1000
0100
1000
0001
0100
0001
1000
0001
,
0100
0010
1000
0001
0100
0001
1000
0001
,
0010
0100
1000
0001
0100
0001
1000
0001
,
1000
0010
0100
0001
1000
0100
0010
0001
1000
0010
0100
0001
1000
0100
0010
0001
,
1000
0010
1000
0001
0100
0001
1000
0001
,
0010
0100
1000
0001
0100
0001
1000
0001
,
0100
0010
1000
0001
0100
0001
1000
0001
,
0100
0010
0100
0001
1000
0001
0100
0001
,
1000
0100
1000
0001
0100
0001
1000
0001
,
0100
0010
1000
0001
0100
0001
1000
0001
,
0010
0100
1000
0001
0100
0001
1000
0001
,
1000
0001
0100
0010
0100
0001
1000
0010
1000
0001
0010
0100
1000
0001
0010
0001
,
2000
0000
0000
0000
,
3020
0000
0000
0000
,
0230
0000
0000
0000
,
0000
0000
0000
0000
,
0302
0000
0000
0000
,
2003
0000
0000
0000
,
3020
0000
0000
0000
,
0230
0000
0000
0000
,
0302
0000
0000
0000
,
0023
0000
0000
0000
,
0230
0000
0000
0000
,
0000
0000
0000
0000
,
2300
0000
0000
0000
,
3002
0000
0000
0000
,
0023
0000
0000
0000
,
0230
0000
0000
0000
,
1300
0001
0100
0001
0100
0001
0100
0001
,
1000
0010
0100
0010
0100
0010
0100
0010
,
1000
0001
0100
0001
0100
0001
0100
0001
,
1000
0000
0000
0000
;

//---------------dance-single - Mad Matt----------------
#NOTES:
     dance-single:
     Mad Matt:
     Challenge:
     21:
     1.000,1.000,0.033,0.000,1.000,1249.000,4.000,0.000,0.000,0.000:

0000
0000
0000
0000
,
0000
0000
0000
0000
,
0000
0000
0000
0000
,
0000
0000
0000
0000
1000
0001
1000
0001
,
0100
0010
1000
0001
0100
0001
1000
0001
,
0010
0100
1000
0001
0100
0001
1000
0001
,
0100
0010
1000
0001
0100
0001
1000
0001
,
0100
0010
0100
0001
1000
0001
0100
0001
,
1000
0100
1000
0001
0100
0001
1000
0001
,
0100
0010
1000
0001
0100
0001
1000
0001
,
0010
0100
1000
0001
0100
0001
1000
0001
,
0100
0010
1000
0001
0100
0001
1000
0001
,
0100
0010
1000
0001
0100
0001
1000
0001
,
0010
0100
1000
0001
0100
0001
1000
0001
,
0100
0010
1000
0001
0100
0001
1000
0001
,
0100
0010
0100
0001
1000
0001
0100
0001
,
1000
0100
1000
0001
0100
0001
1000
0001
,
0100
0010
1000
0001
0100
0001
1000
0001
,
0010
0100
1000
0001
0100
0001
1000
0001
,
0100
0010
0100
0001
1000
0001
0100
0001
,
1000
0010
0100
0001
0010
0001
1000
0010
1000
0100
1000
0001
0100
0010
1000
0001
,
0010
0100
1000
0010
0100
0001
1000
0100
0010
0100
1000
0010
0100
0001
1000
0001
,
0010
0100
0010
0001
0100
0010
1000
0100
1000
0010
1000
0001
0010
0100
0010
0001
,
0100
0010
1000
0100
1000
0001
0100
0010
1000
0100
0010
0001
1000
0010
0100
0001
,
1000
0100
0010
0001
0100
0001
1000
0100
1000
0010
1000
0001
0010
0100
1000
0001
,
0100
0010
1000
0100
0010
0001
1000
0010
0100
0010
1000
0100
0010
0001
1000
0001
,
0100
0010
0100
0001
0010
0100
1000
0010
1000
0100
1000
0001
0100
0010
0100
0001
,
0010
0100
1000
0010
0100
0001
1000
0100
0010
0001
0100
0010
1000
0001
0010
0100
,
1000
0001
0100
0010
1000
0100
1000
0001
0100
0001
0010
0001
1000
0010
0100
0001
,
1000
0100
0010
0001
0100
0010
1000
0001
0010
0100
0010
0001
0100
0010
1000
0001
,
1000
0100
0010
0100
1000
0010
0100
0001
0010
0001
0100
0001
1000
0100
0010
0100
,
1000
0010
0100
0001
0010
0001
1000
0010
0100
0001
0010
0100
1000
0001
0100
0010
,
1000
0001
0010
0100
1000
0010
1000
0001
0010
0001
0100
0001
1000
0100
0010
0001
,
1000
0010
0100
0001
0010
0100
1000
0001
0100
0010
0100
0001
0010
0100
1000
0001
,
1000
0010
0100
0010
1000
0100
0010
0001
0100
0001
0010
0001
1000
0010
0100
0010
,
1000
0100
0010
0001
0100
0010
1000
0001
0010
0100
1000
0010
0100
0001
1000
0100
,
0010
0001
0100
0001
1000
0100
1000
0100
,
0010
0001
0100
0010
1000
0001
1000
0001
,
0100
0010
1000
0001
0010
0001
0010
0001
,
0100
0010
1000
0001
0010
0001
0010
0001
,
1000
0100
0010
0001
1000
0010
1000
0010
,
0100
0001
0010
0100
1000
0001
1000
0001
,
0010
0100
1000
0001
0100
0001
0100
0001
,
0010
0001
1000
0001
0100
0010
0100
0010
,
1000
0100
0010
0001
1000
0010
1000
0010
,
0100
0001
0010
0100
1000
0001
1000
0001
,
0010
0100
1000
0001
0100
0001
0100
0001
,
0010
0100
1000
0001
0100
0001
0100
0001
,
1000
0010
0100
0001
1000
0100
1000
0100
,
0010
0001
0100
0010
1000
0001
1000
0001
,
0100
0010
1000
0001
0010
0001
0010
0001
,
0100
0001
1000
0001
0010
0100
0010
0100
,
1000
0000
0010
0100
0010
0000
1000
0000
0001
0000
1000
0000
0010
0000
1000
0000
,
0001
0000
0010
0100
0010
0000
0001
0000
1000
0000
0001
0000
0010
0000
0001
0000
,
1000
0000
0010
0100
0010
0000
1000
0000
0001
0000
1000
0000
0010
0000
1000
0000
,
0001
0000
0010
0100
0010
0000
0001
0000
1000
0000
0001
0000
0010
0000
0001
0000
,
1000
0000
0100
0010
0100
0000
1000
0000
0001
0000
1000
0000
0100
0000
1000
0000
,
0001
0000
0100
0010
0100
0000
0001
0000
1000
0000
0001
0000
0100
0000
0001
0000
,
1000
0000
0100
0010
0100
0000
1000
0000
0001
0000
1000
0000
0100
0000
1000
0000
,
0001
0000
0100
0010
0100
0000
0001
0000
1000
0000
0001
0000
0100
0000
0001
0000
,
1000
0100
0010
0100
1000
0001
1000
0010
0100
0000
0010
0000
0100
0000
0010
0000
,
1000
0001
1000
0000
0010
0000
0100
0000
0010
0000
1000
0000
0100
0000
1000
0000
,
0001
0100
0010
0100
0001
1000
0001
0010
0100
0000
0010
0000
0100
0000
0010
0000
,
0001
1000
0001
0000
0010
0000
0100
0000
0010
0000
0001
0000
0100
0000
0001
0000
,
1000
0010
0100
0010
1000
0001
1000
0100
0010
0000
0100
0000
0010
0000
0100
0000
,
1000
0001
1000
0000
0100
0000
0010
0000
0100
0000
1000
0000
0010
0000
1000
0000
,
0001
0010
0100
0010
0001
1000
0001
0100
0010
0000
0100
0000
0010
0000
0100
0000
,
0001
1000
0001
0000
0100
0000
0001
0000
0010
0000
0100
0000
0010
0000
0001
0000
,
1000
0100
0010
0100
1000
0001
1000
0010
0100
0001
1000
0001
0010
0100
0010
0001
,
0100
0010
1000
0001
1000
0100
0010
0001
1000
0010
0100
0001
1000
0100
1000
0010
,
1000
0001
0010
0100
1000
0001
1000
0010
0100
0001
1000
0100
0010
0100
1000
0001
,
1000
0010
0100
0001
0010
0001
1000
0010
1000
0100
0010
0100
1000
0001
0100
0010
,
1000
0001
0010
0100
1000
0001
1000
0010
0100
0001
1000
0001
0010
0100
0010
0001
,
0100
0010
1000
0001
1000
0100
0010
0001
1000
0010
0100
0001
1000
0100
1000
0010
,
1000
0001
0010
0100
1000
0001
1000
0010
0100
0001
1000
0100
0010
0100
1000
0001
,
1000
0010
0100
0001
0100
0010
1000
0001
,
1000
0010
0100
0010
1000
0001
1000
0100
0010
0001
1000
0001
0100
0010
0100
0001
,
0010
0100
1000
0001
1000
0010
0100
0001
1000
0100
0010
0001
1000
0010
1000
0100
,
1000
0001
0100
0010
1000
0001
1000
0100
0010
0001
1000
0010
0100
0010
1000
0001
,
1000
0100
0010
0001
0100
0001
1000
0100
1000
0010
0100
0010
1000
0001
0010
0100
,
1000
0001
0100
0010
1000
0001
1000
0100
0010
0001
1000
0001
0100
0010
0100
0001
,
0010
0100
1000
0001
1000
0010
0100
0001
1000
0100
0010
0001
1000
0010
1000
0100
,
1000
0001
0100
0010
1000
0001
1000
0100
0010
0001
1000
0010
0100
0010
1000
0001
,
1000
0100
0010
0001
0010
0100
1000
0001
,
1000
0000
0000
0000
,
1001
0000
0000
0000
,
1001
0000
0000
0000
,
1001
0000
0000
0000
,
0001
0100
0010
1000
0001
1000
0100
0010
0001
0000
0100
0000
0010
0000
1000
0000
,
0001
0010
0100
1000
0001
1000
0010
0100
0001
0000
1000
0000
0100
0000
1000
0000
,
0001
0100
0010
0100
0001
1000
0100
0010
0001
0000
1000
0000
0010
0000
1000
0000
,
0001
1000
0010
0100
0010
1000
0001
0010
0100
1000
0010
0100
0001
1000
0100
0010
,
0001
0100
0010
1000
0100
1000
0001
0100
0001
0010
0001
1000
0010
0100
0001
1000
,
0100
0010
0001
0100
0010
1000
0001
0010
0100
0010
0001
0100
0010
1000
0001
1000
,
0100
0010
0100
1000
0010
0100
0001
0010
0001
0100
0001
1000
0100
0010
0100
1000
,
0010
0100
0001
0010
0001
1000
0010
0100
0001
0010
0100
1000
0001
0100
0010
1000
,
0001
0010
0100
1000
0010
1000
0001
0010
0001
0100
0001
1000
0100
0010
0001
1000
,
0010
0100
0001
0010
0100
1000
0001
0100
0010
0100
0001
0010
0100
1000
0001
1000
,
0010
0100
0010
1000
0100
0010
0001
0100
0001
0010
0001
1000
0010
0100
0010
1000
,
0100
0010
0001
0100
0010
1000
0001
0010
0100
1000
0010
0100
0001
1000
0100
0010
,
0001
1000
0010
0100
0001
0010
0001
1000
0010
1000
0100
1000
0001
0100
0010
1000
,
0001
0010
0100
1000
0010
0100
0001
1000
0100
0010
0100
1000
0010
0100
0001
1000
,
0001
0010
0100
0010
0001
0100
0010
1000
0100
1000
0010
1000
0001
0010
0100
0010
,
0001
0100
0010
1000
0100
1000
0001
0100
0010
1000
0100
0010
0001
1000
0010
0100
,
0001
1000
0100
0010
0001
0100
0001
1000
0100
1000
0010
1000
0001
0010
0100
1000
,
0001
0100
0010
1000
0100
0010
0001
1000
0010
0100
0010
1000
0100
0010
0001
1000
,
0001
0100
0010
0100
0001
0010
0100
1000
0010
1000
0100
1000
0001
0100
0010
0100
,
0001
0010
0100
1000
0010
0100
0001
1000
0100
0010
0001
0100
0010
1000
0100
1000
,
0004
0000
0000
0000
,
0403
0000
0000
0000
,
0340
0000
0000
0000
,
0000
0000
0000
0000
,
4030
0000
0000
0000
,
3004
0000
0000
0000
,
0403
0000
0000
0000
,
0340
0000
0000
0000
,
4030
0000
0000
0000
,
3400
0000
0000
0000
,
0340
0000
0000
0000
,
0000
0000
0000
0000
,
0034
0000
0000
0000
,
4003
0000
0000
0000
,
3400
0000
0000
0000
,
0340
0000
0000
0000
,
0031
1000
0010
1000
0010
1000
0010
1000
,
0001
0100
0010
0100
0010
0100
0010
0100
,
0001
1000
0010
1000
0010
1000
0010
1000
,
0001
0000
0000
0000
;
