#TITLE:Speed Racer;
#SUBTITLE:(Club Mix);
#ARTIST:Alpha Team;
#TITLETRANSLIT:;
#SUBTITLETRANSLIT:;
#ARTISTTRANSLIT:;
#CREDIT:JOE2 for the song ^_^;
#BANNER:speed.png;
#BACKGROUND:speedBG.png;
#LYRICSPATH:;
#CDTITLE:;
#MUSIC:speed.ogg;
#OFFSET:0.080;
#SAMPLESTART:39.724;
#SAMPLELENGTH:12.000;
#SELECTABLE:YES;
#BPMS:0.000=150.060,121.000=75.030,123.000=150.060,247.000=75.030,249.000=150.060;
#STOPS:;
#BGCHANGES:;
// cache tags:
#FIRSTBEAT:5.000;
#LASTBEAT:249.000;
#SONGFILENAME:Songs/Rodd's Revival/Speed Racer (Club Mix)(Rodd Steps)/Speed Racer (Club Mix)(Rodd Steps).sm;
#HASMUSIC:1;
#HASBANNER:1;
#MUSICLENGTH:100.982;
// end cache tags

//---------------dance-single - R. Farias----------------
#NOTES:
     dance-single:
     R. Farias:
     Challenge:
     10:
     0.976,1.000,0.356,0.416,1.000,607.000,36.000,42.000,0.000,0.000:

0000
0000
0000
0000
,
0000
0000
0000
0000
0001
0100
0010
1000
0100
0000
0010
0001
0000
0001
0100
0000
,
0010
0000
0100
0001
1000
0100
0010
0001
0010
0000
0100
1000
0000
0001
0100
0000
,
0010
0000
1000
0010
1000
0100
1000
0100
1000
0000
0001
0100
0000
0010
1000
0000
,
0100
0000
0010
0000
0002
0000
0000
0000
0000
0000
0000
0003
4000
0004
0000
0000
,
0000
0000
0000
0000
,
0000
3000
0003
0000
0100
0010
0100
0010
0100
0000
0010
1000
0000
1000
0100
0000
,
0010
0000
0001
0010
0001
0010
0001
0100
0010
0000
0100
0001
0000
1000
0100
0000
,
0010
0002
0200
0000
0000
0003
0320
0000
,
0000
0000
0000
0000
1030
0100
0010
0001
0010
0100
1000
0001
0100
0010
1000
0001
,
0100
0010
0100
0001
1000
0100
0010
0001
0010
0100
1000
0001
1000
0001
1000
0100
,
0010
0100
1000
0001
0100
0010
1000
0100
1000
0010
0100
0001
0010
0001
0100
0001
,
1000
0100
0010
0001
1000
0100
0010
0001
0100
0010
1000
0001
0100
0010
1000
0100
,
0010
0100
1000
0100
0010
0001
0010
0100
0010
0001
0010
0100
1000
0001
0100
0010
,
1000
0001
1000
0100
0010
0100
1000
0001
0100
0001
1000
0100
0010
0001
0010
0100
,
1000
0001
0100
0010
1000
0001
0100
0010
0100
0010
0100
0001
1000
0100
0010
0001
,
1000
0100
0010
0001
0010
0100
1000
0001
0010
0100
1000
0000
0002
0000
0000
0000
,
0000
0000
0000
0000
0000
0000
0000
0000
0000
0000
0000
0000
0103
0000
0000
0000
0010
0000
0000
0000
1000
0000
0000
0000
0100
0000
0000
0000
0010
0000
0000
0000
0001
0000
0000
0000
0010
0000
0000
0000
0000
0000
0000
0000
0000
0210
0000
0000
,
0000
0000
0000
0000
0000
0000
0000
0000
0000
0300
0000
0000
0010
0000
0000
0000
0001
0000
0000
0000
0100
0000
0000
0000
0010
0000
0000
0000
1000
0000
0000
0000
0001
0000
0000
0000
0200
0000
0000
0000
0000
0000
0000
0000
0000
0020
0000
0000
,
0300
0000
0000
0030
1000
0000
0100
0000
0010
0000
0001
0000
0100
0000
0010
0000
,
0100
0001
1000
0100
1000
0010
0100
0001
,
0010
1000
0010
0001
0100
1000
0100
0010
,
1000
0100
1000
0001
0100
0001
0010
0001
,
1000
0000
0001
0000
0100
0000
0010
1000
0100
0000
0010
0001
0100
0000
0010
0100
,
0010
0000
1000
0010
1000
0000
0100
1000
0100
0000
1000
0001
1000
0000
0001
0100
,
0001
0100
0010
1000
0100
0010
0001
0010
,
0100
1000
0002
0000
0103
0000
0020
0000
,
0000
0000
0000
0030
1000
0100
0010
0001
0010
0100
1000
0001
0100
0000
0010
1000
,
0000
1000
0100
0000
0010
0001
0010
0100
1000
0001
0100
0010
0100
0000
0001
1000
,
0000
0001
1000
0000
0100
0010
0001
0100
0010
1000
0001
0100
0010
0000
1000
0100
,
0000
0010
0001
0000
0200
0000
0320
0000
2030
0000
3001
0000
0100
0010
1000
0001
,
0100
0010
1000
0001
0100
0000
0010
0100
0000
0100
0001
0000
1000
0100
0010
0001
,
0010
0100
1000
0001
0100
0000
0010
1000
0000
1000
0010
0000
0100
0001
1000
0010
,
0100
0001
1000
0100
0010
0000
0001
0100
0000
0001
0100
0000
0202
0000
0000
0000
,
0003
0000
0300
0000
0210
0000
0000
0000
0000
0000
0000
0000
0310
1000
0100
0010
,
0001
0000
0100
0010
1000
0001
0100
0010
1000
0000
1100
0000
0100
0010
0001
0010
,
0100
0000
1000
0001
0100
0010
0100
0001
1000
0000
1001
0000
1000
0100
0010
0100
,
1000
0000
0001
0100
0010
0100
0001
1000
0100
0000
0110
0000
0010
0001
1000
0001
,
0100
0000
0010
0100
0001
1000
0100
0010
0001
0000
0101
0000
0100
0010
0100
0001
,
1000
0000
0100
0010
0100
1000
0001
0100
0010
0000
1010
0000
1000
0100
1000
0001
,
0100
0000
0010
0100
0001
1000
0100
0010
0001
0000
0011
0000
0001
0100
0001
0100
,
0001
0000
0100
0010
0100
0010
0100
0010
0100
0000
0110
0000
4040
0000
0000
0000
,
0000
0000
0000
0000
0000
0000
0000
0000
0000
0000
3030
0000
1000
0000
0000
1100
,
0000
0000
0110
0000
0000
0011
0000
0000
0101
0000
0100
0000
0010
0000
0000
0110
,
0000
0000
1010
0000
0000
1100
0000
0000
0110
0000
0010
0000
0001
0000
0000
1001
,
0000
0000
0101
0000
0000
0110
0000
0000
1010
0000
1100
0000
0200
0000
0000
0320
,
0000
0000
0032
0000
0000
0203
0000
0000
1300
0000
0100
0000
0020
0000
0000
2030
,
0000
0000
3200
0000
0000
0302
0000
0000
0103
0000
0010
0000
0002
0000
0000
0203
,
0000
0000
0320
0000
0000
2030
0000
0000
3100
0000
0010
0000
0200
0000
0000
0320
,
0000
0000
0032
0000
0000
0203
0000
0000
0310
0000
1000
0000
4004
0000
0000
0000
,
0000
0000
0000
0000
0000
0000
0000
0000
0000
0000
3003
0000
0001
0100
0010
1000
,
0200
0000
0310
0001
0010
0100
1000
0001
0100
0000
0110
0000
0010
1000
0100
0010
,
0200
0000
1300
0001
0100
0010
1000
0100
0010
0000
0011
0000
0001
0100
0010
0100
,
0002
0000
1003
0100
1000
0010
0100
0001
1000
0000
1100
0000
0100
0010
0100
1000
,
0002
0000
0103
0010
0100
0001
1000
0100
0010
0000
0110
0000
0010
0001
0100
0010
,
0200
0000
0301
1000
0100
0010
0001
1000
0100
0000
1100
0000
0100
0010
0100
1000
,
0002
0000
0103
0010
0100
0001
1000
0100
0010
0000
0110
0000
0010
0001
0100
0010
,
2000
0000
3100
0010
0100
1000
0001
0100
0010
0000
1010
0000
4400
0000
0000
0000
,
0000
0000
0000
0000
0000
0000
0000
0000
0000
3300
0000
0000
0100
0010
0100
0010
,
0100
0000
0010
0001
0000
0001
0100
0000
0010
0000
0110
0000
0010
1000
0100
0010
,
0100
0000
1000
0001
0000
0001
0100
0000
0010
0000
1010
0000
1000
0010
1000
0010
,
1000
0000
0100
0010
0000
0010
0100
0000
1000
0000
1001
0000
0002
0000
0203
0000
,
0320
0030
0000
0000
;
