#TITLE:The Crunch;
#SUBTITLE:;
#ARTIST:Mayhem;
#TITLETRANSLIT:;
#SUBTITLETRANSLIT:;
#ARTISTTRANSLIT:;
#CREDIT:;
#BANNER:../fallback - bn.png;
#BACKGROUND:../fallback - bg.png;
#LYRICSPATH:;
#CDTITLE:;
#MUSIC:The Crunch.ogg;
#OFFSET:-0.500;
#SAMPLESTART:7.623;
#SAMPLELENGTH:12.000;
#SELECTABLE:YES;
#BPMS:0.000=130.000;
#STOPS:;
#BGCHANGES:;
// cache tags:
#FIRSTBEAT:8.000;
#LASTBEAT:312.750;
#SONGFILENAME:Songs/Beast Aoreo BEAST!/The Crunch - [Aoreo]/The Crunch.sm;
#HASMUSIC:1;
#HASBANNER:1;
#MUSICLENGTH:145.015;
// end cache tags

//---------------dance-single - J. Nero----------------
#NOTES:
     dance-single:
     J. Nero:
     Challenge:
     11:
     0.978,0.890,0.407,0.462,1.000,867.000,59.000,67.000,4.000,0.000:
0000
0000
0000
0000
,
0000
0000
0000
0000
,
1100
0000
0100
1000
0010
0000
0100
0000
0001
0000
1001
0000
1100
0000
1000
0010
,
0100
0000
0001
0010
0100
0000
1000
0000
0010
0000
1010
0000
0101
0000
0100
0000
,
0002
0023
0000
0030
0200
2300
0000
3000
0000
0000
0000
0000
0000
0000
0000
0000
,
2020
3030
0000
0220
0330
0000
0202
0303
0000
2002
3003
0000
2000
3020
0000
0030
,
0200
0302
0000
0003
0020
0230
0000
0300
0000
0000
0000
0000
0000
0000
0000
0000
,
2200
3300
0000
2020
3030
0000
0220
0330
0000
0202
0303
0000
0002
2003
0000
3000
,
0100
1000
0010
0100
0001
1000
0100
1000
0001
0010
0100
1000
0010
0000
0100
0000
,
0001
0100
0100
1000
0100
0100
0001
0100
0100
1000
0100
0100
0001
0000
1000
0000
,
0010
0100
0001
1000
0100
1000
0010
0100
0001
0010
0100
1000
0010
0000
0100
0000
,
0001
0010
0010
1000
0010
0010
0001
0010
0010
1000
0010
0010
0002
0000
0000
0003
,
0000
0000
0000
0000
0000
0000
1000
0010
,
0100
0000
0001
2000
0000
3000
0000
0000
0001
0100
0000
0000
0001
0000
1000
0000
,
0010
0100
0010
0000
0100
0001
0000
0001
0020
0000
0000
0030
0200
0000
1300
0000
,
1010
0000
0000
0100
0001
0000
0000
0000
0000
0010
0100
0000
1000
0000
0010
0000
,
0100
0001
0010
0000
0100
1000
0000
0010
0100
0000
0000
0001
1000
0000
0100
0000
,
1100
0000
1000
0010
0100
0000
0010
0000
0000
0100
0001
0000
0010
0000
0100
1000
,
0010
0000
0100
0000
0001
1000
0000
1000
0100
0000
0000
0010
0100
0000
1000
0001
,
0100
0000
0010
1000
0001
0000
0100
0000
0000
0010
1000
0000
0100
0000
1000
0001
,
0100
0000
0001
0000
0010
0100
0000
0100
1000
0000
0000
0010
0100
0000
0001
0000
,
1001
0000
0000
0000
0000
0000
0000
0000
MMMM
0000
0000
0000
0000
0000
0000
0000
1000
0000
0001
0000
1000
0000
0000
0000
0001
0000
0100
0001
0100
0000
0000
0000
,
1001
0000
0000
0000
1000
0000
0010
0000
0100
0000
0001
0000
0010
0000
0000
0000
0100
0000
0000
0000
1000
0100
1000
0000
0010
0000
0100
0000
0001
0000
0000
0000
,
0001
0000
0000
0000
0010
0000
0100
0000
1000
0000
0000
0000
0010
0000
0000
0000
0100
0000
0000
0000
0001
0100
0001
0000
1000
0000
0100
0000
1000
0000
0000
0000
,
0020
0000
0000
0000
0130
0000
0001
0000
0010
0000
0000
0000
0010
0000
0000
0000
0100
0000
0000
0000
1000
0001
1000
0000
0001
0000
0100
0000
0010
0000
0000
0000
,
1010
0000
0000
0000
1000
0000
0100
0000
0010
0000
0000
0000
0001
0000
0000
0000
0100
0000
0000
0000
0010
1000
0100
0000
1000
0000
0010
0000
0100
0000
0000
0000
,
0101
0000
0000
0000
0001
0000
1000
0000
0100
0000
0000
0000
1000
0000
0000
0000
0110
0000
0000
0000
0010
0100
0001
0000
0100
0000
0010
0000
1000
0000
0000
0000
,
1100
0000
0000
0000
0100
0000
0010
0000
0001
0000
0000
0000
0010
0000
0000
0000
0110
0000
0000
0000
0100
1000
0100
0000
1000
0000
0001
0000
0100
0000
0000
0000
,
0110
0000
0000
0000
0010
0000
1000
0000
0001
0000
0000
0000
0010
0000
0000
0000
0011
0000
0000
0000
0001
1000
0001
0000
0010
0000
0100
0000
1000
0000
0000
0000
,
1010
0000
0000
0000
0000
0000
0010
0000
0000
0100
0000
0000
0001
0000
0000
0000
0000
0000
1000
0000
0000
0000
0000
0000
1001
0000
0000
0000
0000
0000
0001
0000
0100
0000
0010
0000
1000
0000
0000
0001
0000
0000
0100
0000
0000
0000
0000
0000
,
0101
0000
0000
0000
0001
0000
0010
0000
0100
0000
0000
0000
1000
0000
0000
0000
0010
0000
0000
0000
0100
0001
0010
0000
0001
0000
0100
0000
0010
0000
0000
0000
,
1010
0000
0000
0000
1000
0000
0001
0000
0010
0000
0000
0000
0100
0000
0000
0000
1100
0000
0000
0000
1000
0010
0100
0000
0001
0000
0100
0000
0001
0000
0000
0000
,
0101
0000
0000
0000
0100
0000
0010
0000
1000
0000
0000
0000
0001
0000
0000
0000
0011
0000
0000
0000
0010
0100
1000
0000
0010
0000
0100
0000
0010
0000
0000
0000
,
0110
0000
0000
0000
0100
0000
0001
0000
1000
0000
0000
0000
0100
0000
0000
0000
1100
0000
0000
0000
1000
0001
1000
0000
0100
0000
0010
0000
0001
0000
0000
0000
,
0101
0000
0000
0000
0100
0000
0010
0000
1000
0000
0000
0000
0001
0000
0000
0000
0101
0000
0000
0000
0100
0001
0100
0000
0001
0000
0010
0000
0100
0000
0000
0000
,
1100
0000
0000
0000
1000
0000
0001
0000
0010
0000
0000
0000
0001
0000
0000
0000
0011
0000
0000
0000
0010
0100
1000
0000
0010
0000
1000
0000
0010
0000
0000
0000
,
0200
0000
0000
0000
0301
0000
0010
0000
0100
0000
0000
0000
0010
0000
0000
0000
0110
0000
0000
0000
0100
1000
0100
0000
0010
0000
0001
0000
1000
0000
0000
0000
,
1001
0000
0000
0000
0000
0000
0001
0000
0000
0100
0000
0000
0010
0000
0000
0000
0000
0000
1000
0000
0000
0000
0000
0000
0002
0000
0000
0000
0000
0000
0203
0000
0000
0000
0000
0000
0310
0000
1000
0000
0001
0000
0100
0000
0000
0000
0000
0000
,
0110
0000
0001
1000
0001
0000
0010
0000
0110
0000
0100
1000
0010
0100
0001
0000
,
0001
0000
1000
0100
1000
0000
0001
0000
0101
0000
0100
0010
1000
0010
0100
0000
,
0100
0000
0001
0010
0001
0000
1000
0000
1100
0000
0100
0010
0001
1000
0010
0000
,
0010
0000
1000
0001
0100
0000
0010
0000
0010
1000
0100
0010
0001
1000
0010
0100
,
0010
1000
0100
0010
0001
0010
0100
1000
0100
1000
0001
1000
0010
0100
0010
1000
,
0100
1000
0001
0010
0001
1000
0010
1000
0100
0010
0100
0010
0001
0010
0100
1000
,
0100
1000
0001
1000
0010
0100
0010
1000
0001
1000
0100
0010
0100
0010
0001
0010
,
0100
1000
0001
0100
0010
0100
0001
0010
0001
1000
0100
1000
0001
0100
0001
1000
,
0010
0100
0001
0010
0100
1000
0001
0100
0010
0100
0001
0010
0100
1000
0001
1000
,
0010
0100
0010
1000
0100
1000
0001
0100
0001
1000
0010
1000
0001
0010
0001
1000
,
0100
1000
0010
0100
0001
0010
0100
1000
0001
0010
0001
1000
0100
0010
0100
1000
,
0001
0100
0001
1000
0100
1000
0010
0100
0010
1000
0001
1000
0100
0010
0100
0010
,
0001
0000
0010
0100
0010
0000
0100
0000
1000
0000
1010
0000
0101
0000
0001
0000
,
1000
0100
0100
0001
0100
0100
1000
0010
0100
0000
0010
0000
0101
0000
0100
0000
,
0010
1000
0010
1000
0001
0100
0001
0100
0010
0100
0010
1000
0100
1000
0100
1000
,
0001
0100
0100
1000
0100
0100
0001
1000
0010
0000
0110
0000
0101
0000
0000
0000
,
0001
0000
0000
1000
0020
0000
0130
0000
0001
0010
0000
0010
0100
0000
1100
0000
,
1000
0000
0010
0000
0100
0000
0001
0000
1000
0000
0000
0010
0000
0010
0100
0000
,
0001
0000
0000
1000
0010
0000
0100
0000
0001
1000
0000
0100
0010
0000
0100
0000
,
1001
0000
1000
0000
0010
0100
0000
0010
0100
0000
0000
0001
0000
0000
1000
0000
,
0001
0000
0000
0010
0100
0000
1000
0000
0010
0100
0000
0001
1000
0000
0010
0000
,
1000
0100
1000
0000
0100
0010
0000
0010
0001
0000
0100
0010
0000
1000
0010
0000
,
0110
0000
0000
0100
0001
0000
1000
0000
0001
0010
0000
0010
0100
0000
1000
0000
,
0010
0100
0001
0000
1000
0100
0000
0100
0010
0000
0100
1000
0000
1000
0010
0000
,
0100
0020
0000
0030
0100
0002
0000
0003
0000
0000
0000
0000
0000
0000
0000
0000
,
2020
3030
0000
0220
0330
0000
0202
0303
0000
2002
3003
0000
2000
3020
0000
0030
,
0200
0302
0000
0003
0020
0230
0000
0300
0000
0000
0000
0000
0000
0000
0000
0000
,
2200
3300
0000
2020
3030
0000
0220
0330
0000
0202
0303
0000
0002
2003
3000
0000
,
0100
1000
0010
0100
0001
0010
0100
1000
0010
0100
0001
1000
0001
0000
0001
0000
,
1000
0100
0100
0001
0100
0100
1000
0100
0100
0001
0100
0100
1000
0000
1000
0000
,
0010
0100
0001
1000
0100
0010
0001
0010
0100
1000
0010
1000
0010
0000
1000
0000
,
0001
0100
0100
1000
0100
0100
0001
0100
0100
1000
0100
0100
0001
0000
0000
0000
,
1000
0010
0100
0001
0010
0001
0100
0001
0010
0100
1000
0100
1000
0010
0100
0010
,
1000
0001
0100
0010
0100
0010
1000
0100
1000
0100
0010
0001
0010
0100
1000
0010
,
1000
0010
0100
0001
1000
0010
0100
0001
1000
0100
0010
0001
0010
0100
1000
0100
,
1000
0001
1000
0001
0100
0001
0100
0010
0100
0010
1000
0010
1000
0001
0010
0100
,
1000
0100
0010
0001
0100
0010
1000
0001
0100
0010
1000
0100
1000
0100
0010
0100
,
0010
0001
0010
0001
0100
0001
0100
0010
1000
0010
0100
0001
1000
0100
0010
0100
,
1000
0010
0100
0010
0100
0001
0010
0100
1000
0010
0100
0001
1000
0100
1000
0010
,
0100
0000
0000
0001
0000
0000
1000
0000
0000
0001
0000
0000
0100
0000
0000
0010
0000
0000
1000
0000
0000
0001
0000
0000
0020
0000
0000
0000
0000
0000
0230
0000
0000
0000
0000
0000
1300
0000
0001
0000
1000
0000
0001
0000
0000
0000
0000
0000
,
2000
3020
0000
0030
0000
0000
0000
0000
0000
0000
0000
0000
0000
0000
0000
0000
;
