#TITLE:Spark Mandrill;
#SUBTITLE:;
#ARTIST:Capcom;
#TITLETRANSLIT:;
#SUBTITLETRANSLIT:;
#ARTISTTRANSLIT:;
#CREDIT:;
#BANNER:Spark Mandrill.png;
#BACKGROUND:Spark Mandrill BG.png;
#LYRICSPATH:;
#CDTITLE:!XMaxX.png;
#MUSIC:Spark Mandrill.mp3;
#OFFSET:-0.040;
#SAMPLESTART:36.799;
#SAMPLELENGTH:15.000;
#SELECTABLE:YES;
#BPMS:0.000=163.050;
#STOPS:;
#BGCHANGES:;
// cache tags:
#FIRSTBEAT:0.500;
#LASTBEAT:284.500;
#SONGFILENAME:Songs/keyboard/Spark Mandrill (Megaman X)/Spark Mandrill.sm;
#HASMUSIC:1;
#HASBANNER:1;
#MUSICLENGTH:106.953;
// end cache tags

//---------------dance-single - ----------------
#NOTES:
     dance-single:
     :
     Hard:
     10:
     0.747,0.831,0.290,0.365,0.425,489.000,31.000,39.000,0.000,0.000:
0000
1000
0100
1000
0100
0010
0100
0020
,
0000
0000
0100
0000
0100
0000
0100
0030
,
0100
0001
0100
0010
1000
0001
0100
0010
,
1000
0000
0100
0200
0000
0000
0000
0310
,
0001
0010
0001
0000
1001
0000
0000
0000
1001
0000
0000
0000
0001
0100
0010
1000
,
0002
1000
1000
1000
,
1003
0010
0100
0001
1000
0010
0100
0000
,
0001
0000
1000
0001
0000
0100
0010
1000
,
0000
0000
2002
0000
0000
0000
3003
0000
1001
0000
0000
0000
1000
0010
0100
0001
,
2000
0001
0001
0001
,
3001
0100
0010
1000
0010
1000
0100
0000
,
0010
0000
0001
0200
0000
0300
0000
0100
,
0010
1000
0010
0000
1010
0000
0000
0000
1100
0000
0000
0000
1000
0100
1000
0100
,
0020
0001
0001
0001
,
0031
0100
0010
1000
0001
0100
0010
0000
,
1000
0000
0001
0100
0000
0100
0010
2000
,
0000
3001
0200
0301
,
1001
0000
0001
1000
0001
0000
0100
0000
0010
0000
1000
0000
0100
0000
1000
0000
,
0020
0230
0302
2003
,
3020
0000
0000
0230
0000
0000
0310
0000
,
1000
0100
1000
0000
0000
0000
0001
0100
0001
0000
0010
1000
0010
0000
0000
0000
,
1001
0000
0000
0000
1001
0000
0000
0000
1000
0000
0001
1000
0001
0000
0100
0000
,
0010
1000
0100
0010
0001
1000
0001
0010
,
0100
1000
0100
0010
0001
0100
0010
2002
,
0000
0000
0000
0000
,
3003
0000
0000
0000
2002
0000
0000
0000
3003
0000
0000
0000
0001
0100
0001
0000
,
0010
0000
1000
0000
0100
0000
0010
0000
0000
0000
0000
0000
0001
1000
0001
0000
,
0100
0000
0000
0000
0010
1000
0010
1000
0100
1000
0100
0010
0001
0010
0001
0000
,
1000
0001
0100
0010
1000
0001
0100
0010
,
0100
0000
0000
0000
0000
0000
0010
0100
0010
0000
0000
0000
0000
0000
0100
0010
,
0100
0000
0000
0000
0000
0000
0010
1000
0010
1000
0100
0010
0001
0010
0001
0000
,
0000
0001
0100
0010
1000
0100
0010
0001
,
0000
0000
0001
1000
0001
1000
0001
1000
0001
0000
0000
0000
0000
0000
0000
0000
,
1000
0001
1000
0000
0000
0100
0010
0100
0000
0000
0110
0000
0010
1000
0100
0000
,
0010
0001
0010
0001
1000
0100
1000
0100
0010
0001
0010
0001
1000
0100
1000
0010
,
0200
0000
0010
0000
0010
0000
0310
0100
,
0010
1000
0010
0100
0001
1000
0010
0100
,
0001
0000
0010
0020
0000
0000
0000
0130
,
1000
0100
1000
0000
1001
0000
0000
0000
1001
0000
0000
0000
1000
0010
0100
0001
,
2000
0000
0001
0000
0001
0000
3001
0100
,
0001
0100
0010
1000
0001
0100
0010
0000
,
1001
0000
0001
1000
0000
0010
0100
0001
,
0000
0000
2002
0000
0000
0000
3003
0000
1001
0000
0000
0000
0001
0100
0010
1000
,
0002
0000
1000
0000
1000
0000
1003
0100
,
1000
0010
0100
0001
0100
0001
0010
0000
,
0100
0000
1000
0020
0000
0030
0000
0010
,
0100
0001
0100
0000
0110
0000
0000
0000
1001
0000
0000
0000
0001
0010
0001
0010
,
0200
0000
1000
0000
1000
0000
1300
0100
,
1000
0010
0100
0001
1000
0010
0100
0000
,
1001
0000
1000
0010
0000
0010
0100
0002
,
0000
0000
1003
0000
0020
0000
0100
0030
,
0110
0000
1000
0001
1000
0000
0010
0000
0100
0000
0001
0000
0010
0000
0001
0000
,
0200
0320
2030
3002
,
0203
0000
0000
0320
0000
0000
0130
0000
,
0001
0010
0001
0000
0000
0000
1000
0010
1000
0000
0100
0001
0100
0000
0000
0000
,
1001
0000
0110
0000
1001
0000
0000
0000
0001
0000
1000
0001
1000
0000
0010
0000
,
0100
0001
0010
0100
1000
0001
1000
0100
,
0010
0001
0010
0100
1000
0010
0100
1001
,
0001
0100
0001
0100
0010
1000
0010
1000
0100
0010
0001
1000
0100
0010
0001
1000
,
0001
0000
0000
0000
2002
0000
0000
0000
3003
0000
0000
0000
1000
0010
1000
0000
,
0100
0000
0001
0000
0010
0000
0100
0000
0000
0000
0000
0000
1000
0001
1000
0000
,
0010
0000
0000
0000
0100
0001
0100
0001
0010
0001
0010
0100
1000
0100
1000
0000
,
0001
1000
0010
0100
0001
1000
0010
0100
,
0010
0000
0000
0000
0110
0000
0100
0010
0100
0000
0000
0000
0110
0000
0010
0100
,
0010
0000
0000
0000
0110
0000
0100
0001
0100
0001
0010
0100
1000
0100
1000
0000
,
0000
1000
0010
0100
0001
0010
0100
1000
,
0000
0000
1000
0001
1000
0001
1000
0001
1000
0000
0000
0000
0110
0000
0000
0000
,
0001
1000
0001
0000
0000
0010
0100
0010
0000
0000
0110
0000
0100
0001
0010
0000
,
0100
1000
0100
1000
0001
0010
0001
0010
0100
1000
0100
1000
0001
0010
0001
0010
,
0100
0010
0200
0000
0000
0000
0000
0000
0000
0000
0000
0000
0000
0000
0000
0000
,
0000
0000
0000
0000
,
0000
0300
0000
0000
0000
0000
0000
0000
;

//---------------dance-single - ----------------
#NOTES:
     dance-single:
     :
     Beginner:
     3:
     0.190,0.323,0.439,0.000,0.000,95.000,47.000,0.000,0.000,0.000:
0000
0000
0000
1001
,
0000
0000
0000
0000
,
0001
0000
1000
0000
,
1001
0000
0000
0000
,
1001
0000
0000
0000
,
1001
0000
0000
0000
,
1000
0000
0000
0000
,
0001
0000
0000
0000
,
1001
0000
0000
0000
,
1001
0000
0000
0000
,
0001
0000
1000
0000
,
1001
0000
0000
0000
,
0110
0000
0000
0000
,
1001
0000
0000
0000
,
0001
0000
1000
0000
,
1001
0000
0110
0000
,
1001
0000
1001
0000
,
0001
0000
1000
0000
,
0010
0000
0100
0000
,
0100
0000
0000
0000
,
1001
0000
0000
1001
,
0000
0000
1000
0000
,
0001
0000
1000
0000
,
0001
0000
0000
1001
,
0000
0000
0000
0000
,
0000
1001
0000
0001
,
0000
1000
0000
0001
,
0000
1000
0000
0001
,
0000
0100
0000
0010
,
0000
0000
0110
0000
,
0110
0000
1001
0000
,
1001
0000
1001
0000
,
1001
0000
0000
0000
,
0000
0000
0000
0000
,
0000
0000
0000
0000
,
1001
0000
0000
0000
,
0001
0000
1000
0000
,
1001
0000
0000
0000
,
1001
0000
0000
0000
,
1001
0000
0000
0000
,
1000
0000
0000
0000
,
0001
0000
0000
0000
,
1001
0000
0000
0000
,
1001
0000
0000
0000
,
0001
0000
1000
0000
,
1001
0000
0000
0000
,
0110
0000
0000
0000
,
1001
0000
0000
0000
,
0001
0000
1000
0000
,
1001
0000
0110
0000
,
1001
0000
1001
0000
,
0001
0000
1000
0000
,
0010
0000
0100
0000
,
0100
0000
0000
0000
,
1001
0000
0000
1001
,
0000
0000
1000
0000
,
0001
0000
1000
0000
,
0001
0000
0000
1001
,
0000
0000
0000
0000
,
0000
1001
0000
0001
,
0000
1000
0000
0001
,
0000
1000
0000
0001
,
0000
0100
0000
0010
,
0000
0000
0110
0000
,
0110
0000
1001
0000
,
1001
0000
1001
0000
,
1001
0000
0000
0000
,
0000
0000
0000
0000
,
0000
0000
0000
0000
,
1001
0000
0000
0000
;

//---------------dance-single - ----------------
#NOTES:
     dance-single:
     :
     Easy:
     5:
     0.355,0.465,0.477,0.467,0.000,165.000,51.000,50.000,0.000,0.000:
0000
0000
0000
0000
0000
0000
0000
2002
,
0000
0000
0000
0000
0000
0000
0000
3003
,
0001
1000
1000
0001
,
1001
0000
2000
0000
0000
0000
0000
3000
,
1001
0000
0000
0110
,
2002
0000
0000
3003
,
1000
0010
0100
0001
,
1001
0000
0110
0000
,
1001
0000
0000
0000
,
2002
0000
0000
3003
,
0001
0100
0010
1000
,
1001
0100
0000
0000
,
0000
0110
0000
0000
,
2002
0000
0000
3003
,
0010
1000
0001
1000
,
1001
0000
0110
0000
,
2002
3003
2002
3003
,
0001
1000
0001
1000
,
0020
0230
0320
0130
,
0020
0000
0000
0230
0000
0000
0310
0000
,
1001
0000
0001
1001
,
0000
0000
1000
0100
,
0010
0001
0001
0001
,
0010
0100
1000
2002
,
0000
0000
0000
3003
,
0000
2002
3003
0001
,
1000
0001
1000
0001
,
0100
0010
1000
0100
,
0010
0001
1000
0001
,
1000
0000
1001
0000
,
1001
0000
1001
1001
,
0001
1000
0001
1000
,
2002
0000
0000
0000
,
0000
0000
0000
0000
,
3003
0000
0000
0000
,
2002
0000
0000
3003
,
1000
0001
0001
1000
,
1001
0000
0002
0000
0000
0000
0000
0003
,
1001
0000
0000
0110
,
2002
0000
0000
3003
,
0001
0100
0010
1000
,
1001
0000
0110
0000
,
1001
0000
0000
0000
,
2002
0000
0000
3003
,
1000
0010
0100
0001
,
1001
0010
0000
0000
,
0000
0110
0000
0000
,
2002
0000
0000
3003
,
0100
0001
1000
0001
,
1001
0000
0110
0000
,
2002
3003
2002
3003
,
1000
0001
1000
0001
,
0200
0320
0230
0310
,
0200
0000
0000
0320
0000
0000
0130
0000
,
1001
0000
1000
1001
,
0000
0000
0001
0010
,
0100
1000
1000
1000
,
0100
0010
0001
2002
,
0000
0000
0000
3003
,
0000
2002
3003
1000
,
0001
1000
0001
1000
,
0010
0100
0001
0010
,
0100
1000
0001
1000
,
0001
0000
1001
0000
,
1001
0000
1001
1001
,
1000
0001
1000
0001
,
2002
0000
0000
0000
,
0000
0000
0000
0000
,
3003
0000
0000
0000
,
2002
0000
0000
0000
,
0000
0000
0000
0000
,
3003
0000
0000
0000
;

//---------------dance-single - ----------------
#NOTES:
     dance-single:
     :
     Medium:
     7:
     0.449,0.498,0.234,0.393,0.000,269.000,25.000,42.000,0.000,0.000:
0000
0010
1000
0100
1000
0100
0010
0002
,
0000
0000
0000
0000
0000
0000
0000
0003
,
0001
1000
0001
0000
1000
0001
1000
0000
,
1001
0000
1000
2000
0000
0000
0000
3010
,
0001
1000
0000
0000
0000
0000
0001
1000
,
0002
0000
0000
0003
,
1000
0010
0100
0000
0001
0100
0010
0000
,
1001
0000
0001
0100
0000
0100
0010
1000
,
0000
2002
0000
3003
0000
0000
1000
0001
,
2000
0000
0000
3000
,
0001
1000
0001
0000
1000
0001
1000
0000
,
1001
0000
0001
0200
0000
0300
0000
0100
,
0010
1000
0100
0000
0000
0000
1000
0001
,
2000
0000
0000
3000
,
0010
0100
0010
0000
0001
1000
0001
0000
,
1001
0000
0001
1000
0000
1000
0001
2000
,
0000
0000
3002
0003
,
0001
1000
0100
0000
0001
1000
0010
0100
,
0020
2030
3002
2003
,
3020
0000
0000
0230
0000
0000
0310
0000
,
1001
0000
0000
0001
0001
1000
1000
0000
,
0000
0000
0000
0000
1000
0001
1000
0000
,
0001
1000
0100
0000
0001
1000
0001
0000
,
1000
0001
1000
0000
0001
0100
0010
2000
,
0000
0000
0000
0000
,
3000
0000
2002
0000
3003
0000
0001
0100
,
0010
1000
0100
0010
0000
0000
0001
1000
,
0100
0000
0010
1000
0100
0010
0001
0000
,
1000
0001
0100
0000
0001
1000
0100
0010
,
0100
0000
0110
0000
,
0110
0000
0000
0000
0110
1001
0110
0000
,
0001
1000
0100
0000
1000
0001
0010
0200
,
0000
0000
0000
0000
,
0000
0000
0000
0000
,
0000
0000
0000
0000
0000
0000
0000
0300
,
0002
0000
0000
0003
,
0001
1000
0001
0000
1000
0001
1000
0000
,
1001
0000
1000
2000
0000
0000
0000
3010
,
0001
1000
0000
0000
0000
0000
0001
1000
,
0002
0000
0000
0003
,
1000
0010
0100
0000
0001
0100
0010
0000
,
1001
0000
0001
0100
0000
0100
0010
1000
,
0000
2002
0000
3003
0000
0000
1000
0001
,
2000
0000
0000
3000
,
0001
1000
0001
0000
1000
0001
1000
0000
,
1001
0000
0001
0200
0000
0300
0000
0100
,
0010
1000
0100
0000
0000
0000
1000
0001
,
2000
0000
0000
3000
,
0010
0100
0010
0000
0001
1000
0001
0000
,
1001
0000
0001
1000
0000
1000
0001
2000
,
0000
0000
3002
0003
,
0001
1000
0100
0000
0001
1000
0010
0100
,
0020
2030
3002
2003
,
3020
0000
0000
0230
0000
0000
0310
0000
,
1001
0000
0000
0001
0001
1000
1000
0000
,
0000
0000
0000
0000
1000
0001
1000
0000
,
0001
1000
0100
0000
0001
1000
0001
0000
,
1000
0001
1000
0000
0001
0100
0010
2000
,
0000
0000
0000
0000
,
3000
0000
2002
0000
3003
0000
0001
0100
,
0010
1000
0100
0010
0000
0000
0001
1000
,
0100
0000
0010
1000
0100
0010
0001
0000
,
1000
0001
0100
0000
0001
1000
0100
0010
,
0100
0000
1001
0000
,
1001
0000
0000
0000
1001
0110
1001
0000
,
0001
1000
0100
0000
1000
0001
0010
0200
,
0000
0000
0000
0000
,
0000
0000
0000
0000
,
0000
0000
0000
0000
0000
0000
0000
0300
,
2002
0000
0000
0000
,
0000
0000
0000
0000
,
3003
0000
0000
0000
;
