#TITLE:Holy War;
#SUBTITLE:Holy War (2002);
#ARTIST:Dragonland;
#TITLETRANSLIT:;
#SUBTITLETRANSLIT:;
#ARTISTTRANSLIT:;
#CREDIT:;
#BANNER:holywar-bn.PNG;
#BACKGROUND:holywar-bg.PNG;
#LYRICSPATH:;
#CDTITLE:omegaspike_cdtitle.PNG;
#MUSIC:Dragon_Land_-_Holy_War.mp3;
#OFFSET:-0.360;
#SAMPLESTART:316.621;
#SAMPLELENGTH:12.000;
#SELECTABLE:YES;
#BPMS:0.000=160.110,948.000=80.095,956.000=160.105;
#STOPS:;
#BGCHANGES:;
// cache tags:
#FIRSTBEAT:0.000;
#LASTBEAT:1052.000;
#SONGFILENAME:Songs/Astronomic Metal Collection/(OMEGAspike)Holy War/Dragon_Land_-_Holy_War.sm;
#HASMUSIC:1;
#HASBANNER:1;
#MUSICLENGTH:407.962;
// end cache tags

//---------------dance-single - ----------------
#NOTES:
     dance-single:
     :
     Hard:
     10:
     1.000,1.000,0.461,0.152,1.000,2891.000,188.000,62.000,0.000,0.000:
1001
0000
0000
0000
0000
0000
0000
0110
,
1010
0000
0000
0000
,
2200
0000
0000
3300
0220
0000
0330
0011
,
0101
0000
0000
0000
,
2020
0000
0000
0000
0000
0000
0000
3030
,
1001
0000
0000
0000
0110
0000
0000
0000
1000
0100
0010
0100
0020
0000
0000
0030
,
0001
0100
0001
1000
0010
1000
0001
0100
0001
0010
0100
1000
0010
1000
0001
0100
,
0001
0010
0100
0010
0001
1000
0010
0100
0010
1000
0001
0100
0001
0010
0100
1000
,
0100
0010
0100
0010
0100
0010
0100
0010
0001
0100
0001
0100
0001
1000
0001
1000
,
0100
0010
0001
1000
0010
0100
0001
1000
0001
0010
0100
1000
0100
0010
0001
1000
,
0010
0100
0010
1000
0001
0100
0001
0010
0100
1000
0001
1000
0010
0100
0001
0010
,
0100
1000
0100
0010
0001
0010
0100
1000
0100
0010
0001
0010
0100
1000
0100
0010
,
0001
0100
0010
1000
0001
0100
1001
0000
0000
0000
0000
0000
,
1001
0000
1001
0000
0100
0001
0100
0000
1000
0000
0110
0000
0001
1000
0001
0000
,
0010
0000
1100
0000
0010
0100
0001
0000
1000
0000
0011
0000
0100
0001
1000
0000
,
0010
0000
1010
0000
0100
0001
1000
0000
0001
0000
1100
0000
0010
0001
0100
0000
,
1000
0000
0110
0000
0001
1000
0001
0000
0100
0000
1001
0000
0100
0010
0001
0000
,
0010
0000
1100
0000
0010
0100
0001
0000
1000
0000
0101
0000
1000
0001
1000
0000
,
0001
0000
0110
0000
1000
0010
1000
0000
0100
0000
1001
0000
0010
0100
0001
0000
,
1000
0000
0011
0000
0100
0001
1000
0000
0010
0000
1001
0000
0010
0100
0010
0000
,
1000
0000
0110
0000
0001
0100
0001
0000
1000
0000
0101
0000
1000
0001
1000
0001
,
0100
0000
1010
0000
0100
0001
0100
0000
0010
0000
1001
0000
1000
0100
0010
0000
,
0100
0000
0011
0000
0100
0001
0100
0000
0010
0000
1001
0000
0010
0001
1000
0000
,
0100
0000
0011
0000
0010
0100
1000
0000
0010
0000
1001
0000
0100
0001
1000
0000
,
0010
0000
0101
0000
1000
0100
0010
0000
0100
0000
0011
0000
0100
1000
0100
0000
,
0010
0000
0101
0000
1000
0010
1000
0000
0010
0000
0101
0000
1000
0001
1000
0000
,
0001
0000
1100
0000
0001
0010
0100
0000
1000
0000
0011
0000
1000
0100
0010
0000
,
0001
0000
1001
0000
0100
0001
1000
0000
0010
0000
1010
0000
0100
0001
0100
0000
,
0010
0000
1100
0000
0010
0100
0001
0000
1000
0000
0011
0000
0100
0001
1000
0000
,
0100
0010
0001
0010
0100
0010
0100
1000
0100
0010
0100
0010
0001
0100
0010
1000
,
0100
0010
0001
1000
0010
1000
0001
0100
0001
0010
0100
1000
0010
0100
0001
0010
,
1100
0000
0000
0000
,
1001
0010
0100
1000
0010
1000
0001
0100
0001
0010
0100
1000
0100
0010
0001
0100
,
0001
1000
0001
0100
0010
1000
0001
0100
0001
0010
0100
1000
0100
0000
0010
0000
,
0001
1000
0010
0100
0010
1000
0001
0100
0001
0010
0100
1000
0001
1000
0100
0010
,
0100
0010
0001
0100
0010
1000
0010
0100
0001
1000
0001
1000
0200
0000
0000
0000
,
0310
0001
0100
0010
1000
0010
0100
0001
0010
0100
1000
0001
1000
0100
0010
0001
,
1000
0010
0100
0010
0100
0001
0100
0010
0100
0010
1000
0100
0010
0000
0001
0000
,
0010
0100
1000
0100
0010
0100
0010
0001
0010
0100
0010
0100
1000
0100
0010
0001
,
0010
0100
0010
0100
1000
0100
0010
0100
1001
0000
0000
0000
0000
0000
0000
0000
,
1001
0000
1001
0000
0010
1000
0010
0000
0001
0000
0110
0000
1000
0001
1000
0000
,
0100
0000
0011
0000
0100
0010
1000
0000
0001
0000
1100
0000
0010
1000
0001
0000
,
0100
0000
0101
0000
0010
1000
0001
0000
1000
0000
0011
0000
0100
1000
0010
0000
,
0001
0000
0110
0000
1000
0001
1000
0000
0010
0000
1001
0000
0010
0100
1000
0000
,
0100
0000
0011
0000
0100
0010
1000
0000
0001
0000
1010
0000
0001
1000
0001
0000
,
1000
0000
0110
0000
0001
0100
0001
0000
0010
0000
1001
0000
0100
0010
1000
0000
,
0001
0000
1100
0000
0010
1000
0001
0000
0100
0000
1001
0000
0100
0010
0100
0000
,
0001
0000
0110
0000
1000
0010
1000
0000
0001
0010
0100
1000
0001
1000
0001
1000
,
0010
0000
0101
0000
0010
1000
0010
0000
0100
0000
1001
0000
0001
0010
0100
0000
,
0010
0000
1100
0000
0010
1000
0010
0000
0100
0000
1001
0000
0100
1000
0001
0000
,
0010
0000
1100
0000
0100
0010
0001
0000
0100
0000
1001
0000
0010
1000
0001
0000
,
0100
0000
1010
0000
0001
0010
0100
0000
0010
0000
1100
0000
0010
0001
0010
0000
,
0100
0000
1010
0000
0001
0100
0001
0000
0100
0000
1010
0000
0001
1000
0001
0000
,
1000
0000
0011
0000
1000
0100
0010
0000
0001
0000
1100
0000
0001
0010
0100
0000
,
1000
0000
1001
0000
0010
1000
0001
0000
0100
0000
0101
0000
0010
1000
0010
0000
,
0100
0000
0011
0000
0100
0010
1000
0000
0001
0010
0100
1000
0010
1000
0100
0010
,
1001
0000
0100
0001
0100
0000
0001
1000
0100
0000
0010
0001
0100
0000
0010
1000
,
0001
0000
0100
0001
1000
0000
0100
0010
0001
0000
0100
0010
1000
0000
0001
0100
,
1001
0000
0100
0010
0100
0000
0100
0010
0100
0000
0010
0100
0010
0000
0010
0100
,
1001
0000
0000
0110
0000
0000
1010
0000
0101
0000
0000
1001
0000
0000
1100
0000
,
1001
0000
0010
1000
0010
0000
1000
0001
0010
0000
0100
1000
0010
0000
0100
0001
,
1000
0000
0010
1000
0001
0000
0010
0100
1000
0000
0010
0100
0001
0000
1000
0010
,
1001
0000
0001
0100
0001
0000
0001
0100
0001
0000
0100
0001
0100
0000
0100
0010
,
1000
0100
0010
0001
1000
0001
0100
0001
1000
0010
0100
0001
1000
0100
0010
0100
,
0010
0000
0011
0000
0100
0010
1000
0000
0001
0000
1010
0000
0100
0001
1000
0000
,
0001
0000
1100
0000
0010
0100
0001
0000
1000
0000
0011
0000
0100
0001
1000
0000
,
0001
0000
1100
0000
0010
0100
0001
0000
1000
0000
0110
0000
0001
1000
0001
0000
,
1100
0000
0000
0110
0000
0000
0011
0000
0110
0000
0000
1010
0000
0000
0101
0000
,
1001
0000
0110
0000
1000
0001
0100
0000
0001
0000
0110
0000
1000
0010
0100
0000
,
0001
0000
1100
0000
0001
1000
0001
0000
1000
0000
0110
0000
0001
0010
0100
0000
,
1001
0100
0001
1000
0001
0010
0100
1000
0010
1000
0001
0100
0001
1000
0100
0010
,
0001
0100
0001
1000
0001
0100
0010
1000
0100
0010
0100
1000
0100
0010
0100
1000
,
0001
0010
0100
1000
0010
0100
0001
0010
0100
1000
0010
0100
0001
0010
0100
1000
,
0001
0100
0010
1000
0100
0010
0001
0100
0010
1000
0100
0010
0001
0100
0010
1000
,
0100
0010
0001
0100
0010
0100
0001
0010
0100
0010
0001
0100
0010
0100
0001
0010
,
0100
1000
0100
0010
0100
1000
0010
0100
0010
1000
0100
0010
0100
1000
0010
0100
,
0001
1000
0010
0100
0001
1000
0100
0010
0001
1000
0010
0100
0001
1000
0100
0010
,
0001
0100
0010
1000
0010
0100
0001
0010
0001
0100
0010
1000
0010
0100
0001
0010
,
0100
1000
0001
1000
0100
1000
0001
0100
0001
0010
0001
1000
0001
0010
0001
1000
,
0001
0010
0100
0010
0100
1000
0100
0010
0100
0010
0001
0100
0010
1000
0100
0010
,
0001
0010
0100
1000
0010
0100
0001
0010
0100
1000
0010
0100
0001
0010
0100
1000
,
0001
0100
0010
1000
0100
0010
0001
0100
0010
1000
0100
0010
0001
0100
0010
1000
,
0100
0010
0001
0100
0010
0100
0001
0010
0100
0010
0001
0100
0010
0100
0001
0010
,
0100
1000
0100
0010
0100
1000
0010
0100
0010
1000
0100
0010
0100
1000
0010
0100
,
0001
1000
0010
0100
0001
1000
0100
0010
0001
1000
0010
0100
0001
1000
0100
0010
,
0001
0100
0010
1000
0010
0100
0001
0010
0001
0100
0010
1000
0010
0100
0001
0010
,
0100
1000
0001
1000
0100
1000
0001
0100
0001
0010
0001
1000
0001
0010
0001
1000
,
0101
0000
0000
0000
,
1001
0100
0010
0001
0100
0001
1000
0010
1000
0100
0010
0001
0010
0100
1000
0010
,
1000
0001
1000
0010
0100
0001
1000
0010
1000
0100
0010
0001
0010
0100
0010
0100
,
1001
0000
0000
0000
0110
0000
0000
0000
0011
0000
0100
1000
0010
0100
0001
0010
,
0100
1000
0010
0100
0001
0100
0010
1000
0100
0010
0001
1000
0001
0010
0100
1000
,
0001
0100
0010
0100
0010
1000
0010
0100
0010
0100
0001
0010
0100
1000
0001
1000
,
0101
0000
0101
0000
1000
0001
0020
0000
,
0130
1000
0010
0100
0001
0100
0010
1000
0100
0010
0001
1000
0001
0010
0100
1000
,
0001
0100
0010
0100
0010
1000
0010
0100
0010
0100
0001
0010
0100
1000
0001
1000
,
0101
0000
0000
0000
1010
0000
0000
0000
0001
1000
0001
1000
0001
0100
0010
1000
,
0001
0010
0100
1000
0001
0010
0001
1000
0100
0010
0001
1000
0100
1000
0001
0010
,
0100
1000
0010
0100
0001
0100
0010
1000
0001
0010
0001
1000
0010
0100
0001
1000
,
0001
0010
0100
1000
0010
0100
0010
1000
0100
0010
0001
1000
0010
1000
0001
0100
,
0010
1000
0001
0100
0001
1000
0110
0000
0000
0000
0000
0000
,
1001
0000
0000
0001
0000
0000
0010
0000
0100
0000
1000
0000
0010
0000
0100
0000
,
1010
0000
0000
0000
0000
0000
0000
0000
0000
0010
0000
0000
0000
0000
0000
0000
0000
0000
0100
0000
0000
0000
0000
0000
0010
0000
0000
0000
0001
0000
0000
0000
0010
0000
0000
0000
0100
0000
0000
1000
0000
0000
0100
0000
0000
1000
0000
0000
,
0100
0010
0001
0100
0010
0100
0001
0010
0100
1000
0010
0100
0010
1000
0100
0010
,
0100
1000
0010
0100
0001
0100
0001
1000
0001
0010
0001
1000
0010
1000
0100
0010
,
0001
0000
0000
1000
0000
0000
0010
0000
0100
0000
0001
0000
0100
0000
0010
0000
,
1000
0000
0000
0100
0000
0000
0010
0000
0001
0000
0010
0000
0100
1000
0001
1000
,
0100
0010
0001
0100
0001
1000
0010
0100
0001
0100
0010
1000
0001
0010
0001
1000
,
0100
0010
0001
0010
0100
0010
0001
0010
0100
1000
0100
0010
0100
1000
0010
0100
,
0001
0000
0000
0001
0000
0000
0001
0000
0010
0000
0100
0000
1000
0000
0100
0000
,
0010
0000
0000
0000
0000
0000
0000
0000
0000
0000
0000
0000
0000
0000
0000
0000
0000
0000
0000
0000
0000
0000
0000
0000
0000
0000
0000
0000
0000
0000
0000
0000
0000
0000
0000
0000
0010
0000
0001
0000
0010
0000
0100
0000
0000
1000
0000
0000
,
0100
0000
0000
0100
0000
0000
0100
0000
0010
0000
0001
0000
1000
0000
0001
0000
,
0010
0000
0000
0000
0000
0000
0100
1000
0001
1000
0100
1000
,
0100
0000
0010
0000
0001
0000
0010
0000
0000
0100
0000
0000
1000
0000
0000
0000
0000
0000
0001
0000
0000
0000
0000
0000
0200
0000
0000
0000
0000
0000
0000
0000
0000
0000
0000
0000
0000
0000
0000
0000
0000
0000
0000
0000
0000
0000
0000
0000
,
0320
0000
0000
2030
0000
0000
3100
0000
0000
0001
1000
0100
0010
0001
1000
0100
,
0010
0000
0000
0001
0000
0000
1000
0000
0000
0100
0000
0000
0010
0000
0000
0001
0000
0000
1000
0000
0000
0100
0000
0000
0020
0000
0000
0000
0000
0000
0031
0000
0000
0000
0000
0000
0000
0000
0000
0000
0000
0000
0100
0000
1000
0000
0100
0000
,
0010
0000
0000
0001
0010
0100
0010
0000
0000
0100
1000
0100
0010
0000
0000
0001
0010
0100
0010
0000
0000
0100
0000
0000
,
2000
0000
3000
1000
0100
0000
0010
0000
,
0002
0000
0000
0013
0001
0010
0100
0010
0100
1000
0000
0000
,
0200
0000
0302
2003
,
3100
0000
0000
0000
0000
0000
0010
0000
0001
0000
1000
0000
0100
0000
0000
0010
0000
0000
0001
0000
0000
0100
0000
0000
0010
0000
0000
1000
0000
0000
0100
0000
0000
0010
0000
0000
0001
0000
0000
0000
0000
0000
0100
0000
0000
0000
0000
0000
,
0020
0000
0000
0000
0000
0000
1030
0100
2000
0000
0000
0000
0000
0000
0000
0000
,
3100
0010
0001
1000
0100
0010
0001
1000
0100
0010
0001
1000
0100
0010
0001
1000
0100
0010
0001
1000
0100
0010
0001
0010
,
0100
0000
0000
1000
0000
0000
1000
0000
1000
0000
1000
0000
1000
0000
1000
0100
,
0010
0001
0010
0001
0100
0001
1000
0010
1000
0100
0010
0100
,
0002
0000
0000
0000
,
1003
0000
0100
0010
0001
0000
0010
0000
0100
1000
0100
0000
1000
0100
1000
0000
,
0022
0000
0000
0000
,
0000
0000
0000
0000
0030
0000
0000
0103
,
2000
0000
0000
0000
0000
0000
0000
3000
,
0000
0000
0000
0000
0000
0000
0000
0000
0000
0000
0000
0000
0000
0000
1000
0000
0000
0100
0000
0000
0010
0000
0000
0001
0000
0000
0010
0000
0000
0100
0000
0000
,
2000
0000
0000
0000
0000
0000
3100
0020
0000
0000
0000
0000
0000
0000
0000
0000
,
0000
0000
0000
0000
0000
0000
0000
0000
0000
0000
0000
0000
0030
0000
0000
0000
0000
0000
0001
0000
0010
0000
0001
0000
0100
0000
0000
0000
0000
0000
0000
0000
0000
0010
0000
0000
0000
0000
0000
0000
0000
0000
1000
0000
0000
0000
0000
0000
,
0200
0000
0000
0000
0000
0000
0000
0000
0000
0000
0000
0000
0000
0300
0010
0001
,
0010
0100
1000
0100
0010
0100
0010
0001
,
0020
0000
0000
0000
0000
0000
0000
0000
0000
0000
0000
0000
0000
0130
0000
0000
,
0000
0000
0000
0000
0000
1000
0100
0010
,
0002
0000
0000
0000
0000
0000
0003
0000
0000
0000
0100
0000
0010
0000
1000
0000
0000
0000
0000
0100
0000
0000
0000
0000
0020
0000
0000
0000
0000
0000
0000
0000
,
0000
0000
0000
0000
0000
0000
0030
0100
,
0010
0000
0100
0000
0001
0000
1000
0000
0001
0000
0100
0000
0010
0000
1000
0000
0001
0000
0010
0000
0200
0000
0000
0000
1300
0000
0001
0000
0000
0100
0000
0001
,
0000
0100
0010
1000
0001
0010
0100
0020
0000
0000
0000
0000
0000
0000
0030
0000
,
1000
0100
0010
0002
0000
0103
0010
2000
,
0000
3100
0010
0001
0010
0100
1000
0100
,
0020
0000
0000
0000
0031
0100
0010
2000
,
0000
3100
0010
0002
0000
0013
0100
2000
,
0000
0000
0000
0000
0000
0000
0000
3200
,
0000
0000
0320
0032
0000
0103
0010
2000
,
0000
0000
0000
0000
0000
0000
0000
0000
0000
0000
0000
0000
0000
0000
0000
0000
0000
0000
0000
0000
0000
0000
0000
0000
3000
0000
0000
0000
0000
0000
0100
0000
0000
0010
0000
0000
0001
0000
1000
0000
0001
0000
0100
0000
0010
0000
1000
0000
,
0001
1000
0001
0010
0100
1000
0100
0010
0001
1000
0010
0100
0010
1000
0010
0100
0001
1000
0001
0100
0010
2000
0000
0000
,
0000
0000
0000
0000
0000
0000
3100
0010
0001
1000
0100
0010
0001
1000
0100
0010
0001
1000
0100
0010
0001
0010
0100
1000
,
0001
0010
0100
1000
0001
0010
0100
1000
0010
0100
0001
0010
0100
1000
0001
0100
0010
0200
0000
0000
0000
0000
0000
0000
,
0310
0100
0010
0100
0010
1000
0010
1000
0010
0100
0010
0100
0010
1000
0010
1000
,
0100
0010
0100
0010
0001
0010
0001
0010
0100
0010
0100
0010
0001
0010
0001
0010
,
0200
0000
0000
0000
0000
0000
0000
0300
,
0200
0000
0000
1300
2000
0000
3100
0000
,
0001
0100
0100
0001
1000
1000
0001
0010
,
0001
0100
0100
0001
1000
1000
0001
0010
,
0100
0000
0000
1000
0000
0000
0100
0000
0010
0000
0001
0000
0100
0000
0010
0000
1000
0000
0001
0000
0100
0000
0010
0000
1000
0000
0001
0000
0010
0000
0100
0000
1000
0000
0010
0000
0100
0000
0001
0000
1000
0000
0001
0000
0010
0000
0100
0000
,
1000
0100
0010
0100
0010
0001
0010
0100
0010
0100
1000
0010
0100
0001
1000
0001
,
0010
0000
0000
0100
0000
0000
1000
0000
0200
0000
0000
0000
0000
0000
0000
0000
,
0000
0000
0000
0300
0000
0000
0000
0000
,
0000
0000
0000
0020
0000
0000
0000
0000
0000
0000
0000
0000
0000
0000
0000
0000
,
0130
1000
0100
0010
0001
0100
0010
1000
0010
1000
0010
1000
,
0001
0100
0001
1000
0001
0010
0100
1000
0100
1000
0100
1000
,
0010
0100
0010
1000
0001
1000
0001
0010
0001
0010
0001
0010
,
0100
1000
0010
1000
0001
0100
0001
1000
0001
1000
0001
1000
,
0100
0010
0100
0010
0001
0100
0010
1000
0010
1000
0010
1000
,
0001
0010
0100
0010
0001
1000
0100
0010
0100
0010
0100
0010
,
0001
0100
0010
1000
0001
1000
0001
0010
0001
0010
0001
0010
,
0100
1000
0100
1000
0100
0010
0100
0010
0100
0010
0001
0010
,
0100
1000
0001
1000
0100
1000
0001
1000
0100
1000
0001
0100
,
0010
1000
0001
1000
0010
1000
0001
1000
0010
1000
0001
1000
,
0100
0010
0100
1000
0100
0010
0100
1000
0100
0010
0100
1000
,
0001
0100
0010
0100
0001
0100
0010
0100
0001
0100
0010
0100
,
1000
0001
0010
0001
1000
0001
1000
0001
0010
0001
1000
0001
,
1000
0010
1000
0100
1000
0010
1000
0010
1000
0100
1000
0010
,
0100
0001
0100
0010
1000
0010
0100
0001
0100
0010
1000
0010
,
1000
0100
1000
0100
0010
0100
0010
0001
0010
0100
0010
0100
,
1000
0000
0010
1000
0010
1000
0002
0000
0000
0000
0000
0000
,
0000
0000
0000
0000
,
0013
0000
0100
1000
0100
1000
0020
0000
0000
0000
0000
0000
,
0000
0000
0000
0000
,
0130
0000
0001
1000
0001
0010
0200
0000
0000
0000
0000
0000
,
0000
0000
0000
0000
,
1300
0000
0001
1000
0010
0100
0002
0000
0000
0000
0000
0000
,
0103
0010
1000
0001
0001
0001
0010
0100
1000
0010
0010
0010
,
0100
0000
0010
1000
0010
1000
0010
0000
0100
0001
0100
0001
,
0100
0000
0010
1000
0001
0010
0100
0000
1000
0100
0010
0001
,
0100
0000
0010
1000
0001
0100
0001
0000
0010
0100
1000
0100
,
0010
0000
0001
0010
0100
0010
0100
0000
0100
1000
0100
0010
,
0001
0000
0100
0001
1000
0010
1000
0000
0100
0010
0001
1000
,
0001
0000
0100
0001
1000
0010
1000
0000
0010
0100
0001
0010
,
0100
0000
1000
0100
0010
0100
0010
0000
0010
0001
0100
0010
,
1000
0100
0010
0001
1000
0001
0100
0001
1000
0001
0010
0100
1000
0100
0010
0100
,
0010
0000
0000
0001
0000
0000
0010
0000
0000
0100
0000
0000
0010
0000
0000
0001
0000
0000
0010
0000
0100
0000
1000
0000
,
0100
0000
0010
0000
0100
0000
0010
0000
0001
0010
0001
0010
0200
0000
0300
0000
,
1001
0100
0001
1000
0001
0010
0100
1000
,
0100
0000
0010
0000
0100
0000
0010
0000
0001
0100
0001
1000
0020
0000
0000
0000
,
1030
0000
0000
0100
0000
0000
0010
0000
0000
0100
0000
0000
0001
0000
0000
0010
0000
0000
0100
0000
0010
0000
1000
0000
,
0100
0000
0010
0000
0100
0000
0010
0000
0001
0010
0001
0100
0020
0000
0030
0000
,
0010
1000
0001
1000
0001
0100
0001
1000
0010
0100
0001
0010
0100
1000
0100
0010
0001
0100
0001
1000
0010
0100
0010
1000
,
0001
0100
0010
1000
0001
1000
0001
0010
0100
1000
0100
0010
0001
0010
0001
0100
0010
1000
0010
1000
0001
0100
0001
1000
,
0200
0000
0000
0000
0000
0000
0000
0301
0010
0001
0010
0100
0000
0000
0000
0000
,
1001
0000
1001
0000
0100
0001
0100
0000
1000
0000
0110
0000
0001
1000
0001
0000
,
0010
0000
1100
0000
0010
0100
0001
0000
1000
0000
0011
0000
0100
0001
1000
0000
,
0010
0000
1010
0000
0100
0001
1000
0000
0001
0000
1100
0000
0010
0001
0100
0000
,
1000
0000
0110
0000
0001
1000
0001
0000
0100
0000
1001
0000
0100
0010
0001
0000
,
0010
0000
1100
0000
0010
0100
0001
0000
1000
0000
0101
0000
1000
0001
1000
0000
,
0001
0000
0110
0000
1000
0010
1000
0000
0100
0000
1001
0000
0010
0100
0001
0000
,
1000
0000
0011
0000
0100
0001
1000
0000
0010
0000
1001
0000
0010
0100
0010
0000
,
1000
0000
0110
0000
0001
0100
0001
0000
1000
0100
0010
0001
1000
0001
1000
0001
,
0100
0000
1010
0000
0100
0001
0100
0000
0010
0000
1001
0000
1000
0100
0010
0000
,
0100
0000
0011
0000
0100
0001
0100
0000
0010
0000
1001
0000
0010
0001
1000
0000
,
0100
0000
0011
0000
0010
0100
1000
0000
0010
0000
1001
0000
0100
0001
1000
0000
,
0010
0000
0101
0000
1000
0100
0010
0000
0100
0000
0011
0000
0100
1000
0100
0000
,
0010
0000
0101
0000
1000
0010
1000
0000
0010
0000
0101
0000
1000
0001
1000
0000
,
0001
0000
1100
0000
0001
0010
0100
0000
1000
0000
0011
0000
1000
0100
0010
0000
,
0001
0000
1001
0000
0100
0001
1000
0000
0010
0000
1010
0000
0100
0001
0100
0000
,
0010
0000
1100
0000
0010
0100
0001
0000
1000
0000
0011
0000
0100
0001
1000
0000
,
0011
0100
1000
0101
1000
0001
0110
1000
,
0110
0001
1000
0101
0010
1000
0011
0100
,
1010
0000
0100
0001
0100
0000
0001
0100
0001
0000
0100
0001
0100
0000
0001
1000
,
0110
0000
0000
0011
0000
0000
0110
0000
1100
0000
0000
0101
0000
0000
1001
0000
,
0110
1000
0001
0010
1100
0010
0101
1000
,
0011
0100
1000
0011
1000
0001
0110
1000
,
0011
0000
0110
0000
0011
0000
0100
1000
0001
0000
0100
0001
1000
0000
0010
1000
,
0001
0010
0100
1000
0010
0100
0010
0100
0001
1000
0001
0010
0100
1000
0001
0100
,
0010
1000
0001
0100
0010
1000
0001
0010
0100
1000
0010
1000
0100
0010
0001
0100
,
0001
0010
0100
0010
0001
0100
0010
1000
0100
0010
0100
1000
0010
0100
0001
0010
,
0100
1000
0001
1000
0100
1000
0001
0100
0001
1000
0001
0100
0001
1000
0010
0100
,
1001
0000
0000
0101
0000
0000
1001
0000
1010
0000
0000
0110
0000
0000
0011
0000
,
0110
1000
0001
0100
0001
1000
0010
0100
0001
0010
0100
1000
0100
0010
0001
0100
,
0010
1000
0001
1000
0001
0100
0001
1000
0100
0010
0001
1000
0001
0010
0100
0010
,
1000
0001
0100
0001
0010
0100
1000
0100
0010
0001
0100
0001
1000
0010
0100
0001
,
0010
0100
0010
0100
1000
0100
0010
0100
0010
0100
1000
0100
0010
0100
1000
0010
,
0100
0001
0100
0010
0100
0001
1000
0001
0100
0001
1000
0010
0100
0001
0010
0100
,
2001
0000
0000
0000
0000
0000
0000
0000
0000
0000
0000
0000
0000
0000
0000
3000
,
1001
0000
0000
0000
0000
0000
0000
0110
1010
0000
0000
0000
0000
0000
0000
0000
,
0022
0000
0000
0000
0000
0000
0000
0033
0220
0000
0000
0000
0000
0000
0000
0330
,
1000
0001
0100
0001
1000
0001
0010
0100
1000
0010
1000
0001
1000
0100
0010
0001
,
0010
0100
0010
0100
1000
0001
0100
0001
1000
0010
0100
0001
1000
0001
0010
0100
,
1000
0001
0100
0001
1000
0010
1000
0001
0100
0001
1000
0100
0010
0001
0010
0100
,
1000
0010
1000
0001
0100
0001
0010
0100
1000
0100
0010
0100
1000
0010
0100
0001
,
1000
0001
0100
0001
1000
0100
1000
0001
0010
0001
0100
0010
1000
0100
1000
0010
,
0100
0001
0100
0010
1000
0010
1000
0001
0010
0001
1000
0100
1000
0010
0100
0001
,
1000
0100
1000
0100
0010
0100
0010
0001
0100
0010
0100
0010
1000
0001
0010
0100
,
1000
0001
1000
0001
0100
0001
0100
0001
1000
0100
0010
0100
0010
0001
0010
0100
,
1000
0001
0100
0001
1000
0001
0010
0100
1000
0010
1000
0001
1000
0100
0010
0001
,
0010
0100
0010
0100
1000
0001
0100
0001
1000
0010
0100
0001
1000
0001
0010
0100
,
1000
0001
0100
0001
1000
0010
1000
0001
0100
0001
1000
0100
0010
0001
0010
0100
,
1000
0010
1000
0001
0100
0001
0010
0100
1000
0100
0010
0100
1000
0010
0100
0001
,
1000
0001
0100
0001
1000
0100
1000
0001
0010
0001
0100
0010
1000
0100
1000
0010
,
0100
0001
0100
0010
1000
0010
1000
0001
0010
0001
1000
0100
1000
0010
0100
0001
,
1000
0100
1000
0100
0010
0100
0010
0001
0100
0010
0100
0010
1000
0001
0010
0100
,
1000
0001
1000
0001
0100
0001
0100
0001
1000
0100
0010
0100
0010
0001
0010
0100
,
1000
0001
1000
0010
1000
0001
0010
0100
0010
0001
0010
0100
1000
0010
1000
0010
,
0100
0001
0100
0010
1000
0010
0100
0001
0010
0100
0010
0100
1000
0100
0010
0001
,
0010
0100
1000
0010
1000
0001
0100
0001
1000
0100
0010
0100
1000
0010
0100
0001
,
0010
0100
1000
0001
0100
0001
1000
0010
1000
0001
0100
0001
0010
0100
1000
0100
,
0010
0100
0010
0001
0010
0100
0010
0100
1000
0010
1000
0010
0100
0001
1000
0001
,
0010
0100
0010
0100
1000
0010
1000
0001
0100
0001
1000
0001
0010
0100
0010
0001
,
1000
0001
1000
0100
1000
0010
0100
0001
0010
0100
1000
0001
0100
0001
1000
0010
,
1000
0001
1000
0001
0010
0001
1000
0001
0100
0010
0100
0010
1000
0010
0100
0001
,
1100
0000
0000
0000
;
