#TITLE:Stronghold;
#SUBTITLE:;
#ARTIST:Across The Kingdom;
#TITLETRANSLIT:;
#SUBTITLETRANSLIT:;
#ARTISTTRANSLIT:;
#CREDIT:;
#BANNER:../BN.png;
#BACKGROUND:../BG.png;
#LYRICSPATH:;
#CDTITLE:../CDTitleKIRBY.png;
#MUSIC:Stronghold.ogg;
#OFFSET:-0.084;
#SAMPLESTART:41.598;
#SAMPLELENGTH:27.000;
#SELECTABLE:YES;
#BPMS:0.000=185.000;
#STOPS:;
#BGCHANGES:;
// cache tags:
#FIRSTBEAT:32.000;
#LASTBEAT:674.000;
#SONGFILENAME:Songs/Index Gradation/Stronghold - [Kirby5464]/Stronghold.sm;
#HASMUSIC:1;
#HASBANNER:1;
#MUSICLENGTH:220.577;
// end cache tags

//---------------dance-single - ----------------
#NOTES:
     dance-single:
     :
     Challenge:
     14:
     0.987,1.000,0.209,0.449,0.471,1361.000,46.000,99.000,1.000,0.000:
0000
0000
0000
0000
,
0000
0000
0000
0000
,
0000
0000
0000
0000
,
0000
0000
0000
0000
,
0000
0000
0000
0000
,
0000
0000
0000
0000
,
0000
0000
0000
0000
,
0000
0000
0000
0000
,
1000
0010
0100
0002
,
0000
0103
0010
1000
0200
0000
0300
0000
,
0001
0010
0100
2000
,
0000
3010
0100
0001
0020
0000
0030
0000
,
0200
0300
2000
3000
,
0002
2003
3002
0000
0203
0000
0300
0000
,
0020
2030
3200
0320
0032
2003
3020
0230
,
0302
0000
0000
0203
,
0310
1000
0001
1000
0100
0010
0001
1000
,
0010
0100
0001
0010
0001
1000
0100
1000
,
0010
0000
0100
0000
0010
1000
0100
0010
0100
1000
0001
0010
0001
0100
0010
0100
,
0001
1000
0001
0010
0100
1000
0010
0100
0010
1000
0100
1000
0001
0100
0001
0010
,
0100
1000
0010
0100
0010
1000
0100
1000
,
0001
0010
0001
1000
0010
0100
0001
0010
,
0100
0000
1000
0000
0001
0000
0100
0000
0010
1000
0100
0010
0001
1000
0100
1000
,
0001
0100
0001
0010
0100
1000
0010
0100
0010
1000
0001
1000
0010
0100
0001
1000
,
0010
0100
0010
1000
0001
1000
0100
0010
,
0001
1000
0100
0010
0100
1000
0001
0100
,
0001
0000
0010
0000
0100
0000
1000
0000
0001
0010
0001
1000
0010
1000
0100
0010
,
0001
1000
0100
1000
0010
0100
0010
1000
0001
0010
0100
1000
0010
0100
0010
1000
,
0001
0010
0001
1000
0010
0100
0001
0010
,
0100
0010
0001
1000
0100
1000
0010
0100
,
0010
0000
1000
0000
0001
0000
0010
0000
0001
1000
0100
0010
0001
1000
0100
1000
,
0001
0100
0010
1000
0001
1000
0010
0100
0001
0010
0100
1000
0010
0100
0010
1000
,
0001
0010
0100
1000
0010
0100
0010
1000
,
0001
0010
0100
1000
0010
0100
0010
1000
,
0100
1000
0001
0100
0001
1000
0100
0010
,
0001
1000
0100
0010
0100
1000
0001
0100
,
0001
1000
0100
1000
0010
0100
0010
1000
,
0001
0010
0100
1000
0010
0100
0010
1000
,
0001
0010
0101
1000
0110
0001
1010
0100
,
1001
0000
0010
0000
0101
0000
1000
0000
0010
0100
0010
1000
0001
0010
0100
1000
,
0010
1000
0001
0100
0010
1000
0100
1000
,
0001
0100
0001
0010
0100
1000
0010
0100
,
0010
1000
0100
1000
0001
0010
0001
1000
,
0100
0010
0001
1000
0010
0100
0001
0010
,
0100
1000
0010
0100
0010
1000
0100
1000
,
0001
0010
0001
1000
0100
0010
0001
1000
,
0010
0100
1010
0100
1001
0010
1100
0010
,
0101
0010
1001
0010
0100
1000
0001
0100
,
0001
1000
0000
0001
0100
0010
1000
0100
,
0040
0034
4003
3040
,
0130
0010
0000
1000
0100
0010
0001
1000
,
0002
0203
0300
0020
2030
3000
0020
0230
,
0301
1000
0000
0010
0100
0010
1000
0001
,
0400
0340
4030
3004
,
1003
0010
0000
0100
0001
1000
0010
0100
,
0020
2030
3000
0002
0203
0300
0020
0230
,
0301
1000
0000
0001
0100
0001
1000
0100
,
0040
0034
4003
3040
,
0130
0001
0000
1000
0010
0100
0001
1000
,
0020
0230
0300
0002
2003
3000
0020
2030
,
3100
0010
0000
0001
0100
0010
1000
0001
,
0400
0340
4030
3004
,
1003
0001
0000
0100
0010
0100
0001
1000
,
0001
0010
0100
1000
0010
0100
0010
1000
,
0100
1000
0001
0100
0001
0010
0100
1000
,
0001
0010
0100
0010
0001
1000
0100
1000
,
0010
0000
0100
0000
0010
0000
1000
0000
0001
0010
0100
1000
0010
0100
0010
1000
,
0100
0010
0001
1000
0100
1000
0001
0010
0001
1000
0010
0100
0001
0010
0001
1000
,
0010
1000
0001
0100
0010
1000
0100
0010
,
0001
1000
0100
1000
0001
0100
0001
0010
,
0100
0000
1000
0000
0010
0000
0100
0000
0010
1000
0100
0010
0100
1000
0001
0100
,
0001
0010
0100
1000
0010
0100
0010
1000
0100
1000
0001
0010
0001
1000
0010
0100
,
0001
1000
0001
0100
0010
0100
0001
0010
,
0100
1000
0010
0100
0010
1000
0100
1000
,
0001
0010
0001
1000
0100
0010
0001
1000
,
0010
0100
0001
0010
0100
0010
0001
1000
,
0100
1000
0010
0100
0010
1000
0001
0010
,
0100
1000
0001
0100
0010
1000
0001
0100
,
0010
1000
0101
0010
1100
0001
0110
0001
,
1010
0000
0100
0000
1001
0000
0010
0000
0100
0001
0010
0100
1000
0010
0100
0001
,
1000
0100
0010
0001
1000
0010
0100
0001
,
0010
0100
1000
0010
0100
0010
1000
0100
,
1000
0001
0010
0100
0010
0001
1000
0100
,
1000
0001
0100
0010
1000
0100
0010
0100
,
1000
0001
0010
0100
1000
0010
0100
0010
,
1000
0100
1000
0001
0010
0001
1000
0010
,
0100
0001
0110
1000
0101
0010
1001
0100
,
1010
0000
0100
0000
0011
0000
1000
0000
0010
0100
0001
0010
0001
1000
0010
0100
,
0001
1000
0000
0001
0100
0010
1000
0100
,
0040
0034
4003
3040
,
0130
0010
0000
1000
0100
0010
0001
1000
,
0002
0203
0300
0020
2030
3000
0020
0230
,
0301
1000
0000
0010
0100
0010
1000
0001
,
0400
0340
4030
3004
,
1003
0010
0000
0100
0001
1000
0010
0100
,
0020
2030
3000
0002
0203
0300
0020
0230
,
0301
1000
0001
0010
0100
1000
0010
0100
,
0010
0000
1000
0000
0100
0000
1000
0000
0001
0100
0001
0000
1000
0010
1000
0000
,
0001
1000
0010
0100
0010
1000
0100
1000
,
0001
0000
0010
0000
0001
0000
1000
0000
0010
0100
0010
0000
1000
0001
1000
0000
,
0020
0230
0320
2030
3002
0023
0230
2300
,
3020
0000
0230
0000
0320
0000
2030
0000
3001
0010
0001
0000
1000
0010
0100
0000
,
0002
0203
0302
2003
3200
0320
0230
2300
,
3001
0010
0100
1000
0001
0100
0010
1000
0001
0200
0000
0000
,
0310
1000
0100
1000
0001
0010
0100
1000
,
0010
0100
0010
1000
0001
1000
0010
0100
,
0001
0010
0100
1000
0010
0100
0010
1000
,
0100
0010
1000
0000
0001
0100
0001
0000
1000
0100
1000
0000
0001
0010
0001
0000
,
1000
0100
0010
0001
1000
0010
0100
0001
1000
0001
0010
0100
1000
0010
0100
0010
,
1000
0100
1000
0001
0010
0001
1000
0010
1000
0001
0100
0010
1000
0100
0010
0100
,
1000
0001
0010
0001
1000
0010
1000
0100
0010
0001
1000
0010
0100
0001
0010
0100
,
1000
0001
1000
0000
0010
0100
0010
0000
1000
0100
1000
0000
0001
0010
0001
0000
,
1000
0100
0010
0001
0100
0010
1000
0001
,
0100
0010
1000
0001
0010
0100
1000
0010
0100
0010
1000
0100
1000
0001
0010
0001
,
1000
0100
0010
0001
1000
0010
0100
0001
0010
0001
1000
0100
1000
0010
0100
0010
1000
0001
1000
0000
0000
0002
0000
0000
,
0203
0320
2030
3200
0320
0032
2003
3020
,
0130
0001
0010
0100
1000
0010
0100
0010
,
1000
0100
1000
0001
0010
0001
1000
0010
,
0100
0001
0010
0100
1000
0010
0100
0010
,
1000
0100
0010
0100
1000
0001
0010
0001
,
1000
0100
1000
0010
0100
0010
1000
0001
,
1000
0100
0010
0001
1000
0010
0100
0001
,
1000
0010
1001
0100
1010
0001
0110
1000
,
0011
0000
1000
0000
0101
0000
0010
0000
1000
0100
0010
0001
1000
0010
0100
0001
,
1000
0010
0100
0001
0010
0100
1000
0010
,
0100
0010
1000
0100
1000
0001
0100
0001
,
0010
0100
1000
0001
0010
0100
0010
0001
,
1000
0010
0100
0001
0010
0100
1000
0010
,
0100
0010
1000
0100
1000
0001
0100
0001
,
0010
0100
1000
0010
0100
0001
1000
0010
,
0100
0001
1100
0010
0101
1000
0110
1000
,
0011
0100
1001
0100
0002
0203
0320
2030
,
3001
0010
0100
0010
0001
1000
0100
1000
,
0001
0100
0001
0010
0100
1000
0010
0100
,
0010
1000
0100
1000
0001
0010
0001
1000
,
0100
0010
0001
1000
0010
0100
0001
1000
,
0001
0010
0100
1000
0010
0100
0010
1000
,
0100
1000
0001
0010
0001
1000
0100
0010
,
0001
1000
0110
1000
0011
0100
1001
0010
,
0101
0000
0010
0000
1100
0000
0001
0000
1000
0100
0010
0001
1000
0010
0100
0001
,
1000
0010
0100
0001
0010
0001
1000
0010
,
0100
0001
1000
0001
0010
0100
1000
0010
,
0100
0010
1000
0001
1000
0100
0010
0001
,
0100
0010
0100
0001
0010
0001
1000
0100
,
1000
0001
0100
0010
1000
0100
0010
0100
,
1000
0001
0010
0001
1000
0010
0100
0001
,
1000
0010
1001
0100
0011
1000
0110
1000
,
0101
0010
1100
0010
0200
0302
0023
0230
,
1300
0001
0010
0001
1000
0010
1000
0100
,
0010
0001
1000
0100
0010
0100
1000
0001
,
0100
0000
0010
0000
1000
0000
0001
0000
0100
0010
1000
0100
0010
0001
1000
0100
,
1000
0001
0100
0001
0010
0100
1000
0010
0100
0001
1000
0010
0100
0010
1000
0001
,
0100
0001
1000
0001
0010
0100
1000
0010
,
0100
0010
1000
0001
1000
0100
0010
0001
,
1000
0000
0010
0000
0100
0000
0001
0000
1000
0100
0010
0001
1000
0100
0010
0100
,
1000
0001
0100
0001
0010
0100
1000
0010
0100
0010
1000
0100
1000
0001
0010
0001
,
1000
0010
0100
0001
0010
0100
1000
0010
,
0100
0010
1000
0100
1000
0001
0010
0001
,
1000
0000
0100
0000
0010
0000
0001
0000
0100
0010
1000
0100
1000
0001
0100
0001
,
0010
0100
1000
0010
0100
0010
1000
0001
0010
0100
0010
0001
1000
0100
1000
0010
,
0100
0001
0010
0100
1000
0001
0010
0001
,
1000
0100
1000
0010
0100
0010
1000
0100
,
0010
0000
0001
0000
0100
0010
0100
0001
1000
0001
0010
0100
1000
0001
0010
0100
,
0010
0001
1000
0100
1000
0001
0100
0001
0010
0100
1000
0010
0100
0010
1000
0001
,
0200
0320
2030
3002
0023
0230
2300
3002
,
0203
0000
0000
0000
,
0302
2003
3000
0000
0000
0000
0000
0000
,
0000
0000
0000
0000
,
0000
0000
00M0
0000
,
0000
0000
0000
0000
;
