#TITLE:Fly Above;
#SUBTITLE:;
#ARTIST:Sota Fujimori;
#TITLETRANSLIT:;
#SUBTITLETRANSLIT:;
#ARTISTTRANSLIT:;
#CREDIT:;
#BANNER:Fly Above-bn.png;
#BACKGROUND:Fly Above-bg.jpg;
#LYRICSPATH:;
#CDTITLE:Type MARS.png;
#MUSIC:Fly Above.mp3;
#OFFSET:-0.440;
#SAMPLESTART:72.440;
#SAMPLELENGTH:26.600;
#SELECTABLE:YES;
#BPMS:0.000=150.000,3.000=300.000,3.500=150.000,3.750=75.000,4.000=150.000,179.000=300.000,179.500=150.000,179.750=75.000,180.000=150.000,242.500=75.000,242.750=150.000,243.000=300.000,243.500=150.000,306.500=75.000,307.000=300.000,308.000=150.000;
#STOPS:;
#BGCHANGES:;
// cache tags:
#FIRSTBEAT:0.000;
#LASTBEAT:308.000;
#SONGFILENAME:Songs/Definitive Keyboard Megapack/Fly Above(typeMARS)/Fly Above.sm;
#HASMUSIC:1;
#HASBANNER:1;
#MUSICLENGTH:130.097;
// end cache tags

//---------------dance-single - ----------------
#NOTES:
     dance-single:
     :
     Hard:
     10:
     0.904,0.947,1.000,0.261,0.538,648.000,141.000,34.000,0.000,0.000:
0001
0000
0000
0000
0000
0000
0010
0000
0000
0100
0000
0000
1000
0000
0000
0000
0000
0000
0010
0000
0000
0100
0000
0000
0001
0000
0010
0000
0100
0000
0010
0000
0100
0000
1000
0000
0002
0000
0000
0000
0000
0000
0000
0000
0000
0000
0003
0000
,
1100
0000
0000
0110
0000
0000
0011
0000
0100
0000
1000
0000
0010
0001
0100
0010
,
1100
0000
0000
0101
0000
0000
1001
0000
0010
0000
0100
0000
0001
0010
0100
1000
,
0011
0000
0000
1100
0000
0000
0110
0000
0001
0000
0100
0000
0010
1000
0001
0000
,
1100
0000
0000
0110
0000
0000
0101
0000
0010
0100
1000
0000
0001
0010
0100
0000
,
0011
0000
0000
1100
0000
0000
0011
0000
1000
0000
0010
0000
0100
0001
1000
0010
,
1100
0000
0000
0011
0000
0000
1001
0000
0010
0100
0000
0001
0100
0010
1000
0001
,
0110
0000
0000
1100
0000
0000
0101
0000
0010
1000
0001
0000
0100
0001
0000
1000
,
0022
0000
0033
2002
0000
3003
2200
0000
3300
0220
0000
0330
1001
0000
0101
0000
,
1001
0010
0001
0100
0010
1000
0001
0100
,
0010
0000
0100
0000
0001
0000
1000
0000
0010
0100
0000
0100
0001
1000
0001
0000
,
0100
1000
0010
0100
0001
0010
0001
0100
,
1000
0000
0010
0000
0001
0000
0100
0000
0010
1000
0000
1000
0001
0000
0001
0100
,
0010
0000
0100
0000
1000
0000
0010
0000
0001
0000
0100
0000
0010
0100
1000
0001
,
0100
0000
0010
0000
0001
0000
1000
0000
0010
1000
0100
0000
0010
0001
0000
0001
,
0100
0000
0010
1000
0001
0000
0100
0000
0010
0000
1000
0001
0100
0000
0010
0000
,
0100
0000
0001
1000
0010
0000
0100
0001
1000
0000
0010
0000
0200
0320
2030
0000
,
3001
0000
0010
0000
0001
0000
0100
0000
0010
1000
0001
0000
0100
0000
0010
0001
,
1000
0000
0100
0000
1000
0000
0010
0000
0100
0001
1000
0000
0010
0001
0100
0000
,
0010
0000
1000
0000
0100
0000
1000
0001
0100
0000
0010
0000
0001
0000
0100
0010
,
1000
0000
0001
0000
0100
0000
0010
1000
0001
0000
0100
0001
1000
0000
0010
0000
,
0100
0000
0010
0001
0100
0000
0010
0000
1000
0000
0010
1000
0100
0000
0010
0000
,
0100
0000
0001
0000
0010
0000
1000
0000
0001
0100
0010
0000
1000
0001
0100
0000
,
0010
0000
0001
0000
0100
0000
0010
0000
1000
0000
0010
0000
0100
0000
0001
0100
,
0010
0000
1000
0000
0100
0000
0010
0001
0100
0000
0010
0000
1000
0100
0010
0001
,
0100
0110
1000
1001
,
0101
0000
0100
0110
0000
1010
0000
0001
,
1001
0000
0010
0110
0000
1000
1100
0001
,
0101
0000
0010
0110
0000
1000
1001
0000
,
0110
0000
0101
0000
0010
1000
1100
0001
,
0101
0000
0010
0110
0000
1100
0000
0101
,
1001
0000
0010
0110
0000
0001
0101
1000
,
1010
0000
0100
0110
0000
0001
1001
0000
,
0110
0000
0000
0011
0000
0000
0110
0000
0010
1000
0001
0000
0100
0010
1000
0001
,
0110
0000
0000
1100
0000
0000
0101
0000
0010
0001
0100
0000
0010
1000
0001
0100
,
0011
0000
0000
1100
0000
0000
1001
0000
0010
0001
0100
0000
0010
1000
0100
0001
,
1100
0000
0000
0110
0000
0000
0011
0000
0100
1000
0000
0010
0100
0001
0010
0100
,
1001
0000
0000
0011
0000
0000
1100
0000
0010
0001
0100
0000
0010
1000
0001
0100
,
1001
0000
0000
0110
0000
0000
0101
0000
0010
1000
0001
0000
0100
0001
0000
1000
,
0110
0000
0000
0101
0000
0000
1100
0000
0010
0100
0000
0001
0100
1000
0010
0000
,
0202
0000
0303
2200
0000
3300
0202
0000
0303
0220
0000
0330
1100
0000
0101
0000
,
1001
0000
0010
0001
0100
0000
0010
0000
0100
0000
0010
1000
0100
0000
0001
0000
,
0100
0000
0010
1000
0001
0000
0100
0000
0010
0000
0100
0001
1000
0000
0010
0000
,
0100
0000
0001
0100
1000
0000
0010
0000
0100
0000
0001
0100
0010
0000
1000
0000
,
0010
0000
0100
0001
0100
0000
0010
1000
0100
0010
0001
0100
2002
0000
0000
3003
,
0110
0001
0110
1100
0000
0001
1001
0100
,
0110
0001
0100
0110
0000
0010
1000
0001
,
1001
0000
0000
0000
0101
0000
0000
0000
1010
0000
0000
0110
0000
0000
0101
0000
,
1001
0010
0100
1001
0000
0010
0001
0100
,
0110
1000
0101
1001
0010
0100
1001
0010
,
0101
0000
0100
0000
0010
0000
0110
0000
1000
0000
0001
0010
0100
1000
0010
0000
,
0101
0000
0010
0001
0100
0000
0010
0000
1100
0000
0010
1000
0001
0000
0100
0000
,
0110
0000
0001
0000
0100
0000
0010
1000
0001
0000
0100
0010
1000
0001
0010
0100
,
1000
0010
0100
0011
0100
0010
1001
0100
,
1001
0000
0010
0000
0001
0000
1100
0000
0010
0000
0100
0000
0001
0010
0001
0100
,
0010
0000
1000
0000
1100
0000
0001
0000
0110
0000
0000
1100
0000
0000
1001
0000
,
0110
0000
0001
1000
0100
0000
0110
0000
0001
0100
0010
0001
0100
0000
0010
0000
,
1100
0001
0110
0110
0001
0100
1010
0100
,
1001
0000
0010
0000
0001
0000
0110
0000
1000
0001
0100
0010
0100
0000
0001
0000
,
1001
0000
0010
1000
0001
0000
0100
0000
0110
0000
0010
0001
1000
0000
0010
0000
,
0110
1000
1100
0100
0110
0110
0000
0110
,
1001
0010
1001
0000
0010
0001
0100
0010
,
2000
0000
0000
0000
3200
0000
0310
0001
,
0100
0010
0110
0000
1000
0100
0110
0010
,
0002
0000
0000
0000
0000
0000
1003
0010
0200
0000
0000
0000
0310
0000
0001
0000
,
0100
0001
1001
0000
0110
1000
1100
0001
,
0200
0000
0010
0000
2300
0000
0001
0001
,
3020
0000
0100
1000
0230
0000
0301
1000
,
1002
0010
0203
0320
0100
2030
0000
0001
,
3001
0000
0000
0010
0000
0000
0001
0000
0100
0000
0010
1000
0001
0000
0100
0000
,
0010
0000
0000
1000
0000
0000
0100
0000
0001
0000
0010
0000
0001
1000
0100
0000
,
0010
0000
0000
0100
0000
0000
1000
0000
0001
0000
0100
0000
0010
1000
0001
0100
,
0010
0000
0000
1000
0000
0000
0100
0000
0010
0001
0100
0000
0010
1000
0001
0000
,
0100
0000
0000
0010
0000
0000
1000
0000
0001
0000
0100
0000
0010
0001
0000
0100
,
0010
0000
0000
0001
0000
0000
0100
0000
0010
1000
0001
0000
0100
0001
1000
0000
,
0110
0001
1000
0100
1001
0010
1000
0001
,
1001
0100
0110
1001
0100
0110
0000
0000
,
1001
0000
0000
0000
;

//---------------dance-single - ----------------
#NOTES:
     dance-single:
     :
     Challenge:
     12:
     1.000,1.000,1.000,0.684,0.680,757.000,273.000,89.000,0.000,0.000:
0010
0000
0000
0000
0000
0000
1000
0000
0000
0001
0000
0000
0100
0000
0000
0000
0000
0000
1000
0000
0000
0001
0000
0000
0010
0000
0100
0000
0010
0000
1000
0000
0001
0000
1000
0000
0020
0000
0000
0000
0000
0000
0000
0000
0000
0000
0030
0000
,
0202
0303
0100
2002
3003
0100
2020
3030
0001
0010
0100
0000
1000
0010
0001
1000
,
0202
0303
1000
0022
0033
1000
0220
0330
1000
0100
0001
0000
0010
1000
0001
0100
,
2020
3030
0010
0202
0303
0010
2002
3003
0010
0100
0001
0000
1000
0100
0000
0010
,
0202
0303
0010
2002
3003
0100
0022
0033
1000
0001
0100
0000
0010
1000
0001
0100
,
2020
3030
0010
0202
0303
0001
2020
3030
0100
0010
1000
0000
0001
0010
0100
1000
,
0202
0303
0100
2020
3030
0001
0220
0330
1000
0001
0000
0010
0001
1000
0100
0010
,
2002
3003
0010
0202
0303
1000
0022
0033
1000
0100
0010
0000
0001
0010
1000
0100
,
2020
0000
3030
0220
0000
0330
0202
0000
0303
2002
0000
3003
0220
0330
0022
0033
,
0220
0330
1000
0000
0010
0000
0001
0000
1000
0000
0101
0000
1010
0000
0011
0000
,
1100
0000
0001
0000
0010
0000
0101
0000
1000
0001
0000
0001
0010
0100
0010
1000
,
0011
0100
1000
0001
0110
1001
1010
0011
,
0110
0000
1000
0000
0010
0000
0101
0000
1000
0100
0000
0100
0010
0000
0010
0001
,
1100
0000
0001
0000
0100
0000
1010
0000
0010
0000
0001
0000
1100
0001
1100
0010
,
0101
0000
1000
0000
0011
0000
0110
0000
1000
0100
0001
0000
1100
0010
1001
0010
,
0101
0000
1000
0100
0010
0000
0001
0000
1010
0000
0100
0010
0101
0000
1000
0000
,
0101
0000
0000
0000
0010
0000
0100
0000
1001
0000
0000
0000
0101
0000
0010
0000
0100
0000
0000
0000
1000
0000
0000
0000
0001
0010
0100
1000
0001
0000
0000
0000
,
0110
0000
1000
0000
0010
0000
0001
0000
1000
0100
0011
0000
0101
0000
1000
0010
,
1100
0000
0001
0000
0100
0000
1010
0000
0001
0010
0101
0000
1100
0010
0101
0000
,
1010
0000
0100
0010
0001
0000
0100
0000
0011
0000
1100
0000
0011
0000
0101
1000
,
0110
0000
0010
0000
0001
0000
1010
0100
0010
0000
0001
0010
0100
0010
1000
0000
,
0101
0000
1000
0010
0001
0000
1000
0000
0110
0000
1000
0100
0011
0000
1000
0000
,
0101
0000
0010
0000
1001
0000
0110
0000
0010
0001
1100
0000
0100
0010
1001
0000
,
1100
0000
0010
0000
0001
0000
1000
0000
0110
0000
1100
0000
1001
0000
0010
0001
,
1010
0000
0100
0000
0001
0000
1100
0010
0101
0000
1000
0000
0110
0001
1100
0010
,
1001
0100
1001
0010
0100
0001
0110
1100
,
0011
0100
0011
1001
0010
1100
0100
0010
,
0110
0100
1000
1001
0010
0100
0101
0010
,
0011
0100
1001
1001
0010
0110
0110
0100
,
1001
1000
0011
0100
1000
0100
0101
0110
,
0011
0100
1010
1001
0010
0101
1100
0011
,
0110
0001
1010
1001
0100
0010
0011
0100
,
1100
0010
0101
1001
0100
0010
0110
0100
,
1001
0000
0100
1010
0000
0010
1001
0000
1000
0100
0010
0000
0001
1000
0100
0010
,
1001
0000
0010
0101
0000
1000
0011
0000
1000
0010
0000
0010
1000
0100
0010
0001
,
1010
0000
0010
0101
0000
1000
0110
0000
1000
0010
0001
0000
1000
0100
0001
0010
,
0101
0000
0010
1001
0000
0100
1010
0000
0001
0100
0000
1000
0001
0010
1000
0001
,
0110
0000
0100
1010
0000
0010
0101
0000
1000
0010
0001
0000
1000
0100
0010
0001
,
0110
0000
0010
1001
0000
0100
0011
0000
1000
0100
0010
0000
0001
0010
0000
0100
,
1001
0000
0100
0011
0000
1000
0101
0000
1000
0001
0000
0010
0001
0100
1000
0000
,
2020
0000
3030
0202
0000
0303
2002
0000
3003
0220
0000
0330
0202
0303
0202
0303
,
0220
0330
1000
0010
0001
0000
1000
0000
0001
0000
1000
0100
0001
0000
0010
0000
,
0001
0000
1000
0100
0010
0000
0001
0000
1000
0000
0001
0010
0100
0001
1000
0010
,
0001
0000
0010
0001
0100
0000
1000
0000
0001
0000
0010
0001
1000
0000
0100
0000
,
1000
0000
0000
0000
0000
0000
0001
0000
0000
0010
0000
0000
0001
0000
0000
0000
0000
0000
1000
0000
0000
0100
0000
0000
0001
0000
0010
0000
0100
0000
0001
0000
1000
0000
0001
0000
0220
0000
0000
0000
0000
0000
0000
0000
0000
0330
0000
0000
,
1001
0010
1001
0101
0100
0010
0110
0001
,
1001
0010
0001
1001
0100
1000
0110
0010
,
0110
0000
1000
0000
0011
0000
0100
0000
1100
0000
0010
1001
0100
0000
0011
0000
,
0110
1000
0001
0110
0001
1000
0110
1001
,
1001
0100
0011
0110
1000
0001
0110
1000
,
0011
0000
0001
0000
1000
0000
1001
0000
0100
0000
0010
1000
0001
0100
1000
0000
,
0011
0000
1000
0010
0001
0000
1000
0000
0101
0000
1000
0100
0010
0000
0101
0000
,
1001
0000
0010
0000
0101
0000
1000
0100
0010
0000
0001
1000
0101
0010
1000
0001
,
0110
1000
0001
1010
0001
1000
0110
0101
,
0110
0000
1000
0000
0110
0000
0101
0000
1000
0000
0001
0000
0110
1000
0010
0001
,
1010
0000
0100
0000
0101
0000
0010
0000
1001
0000
0010
0101
1000
0000
0110
0000
,
1001
0000
0010
0100
1001
0000
1001
0000
0010
0001
1000
0010
0101
0000
1010
0000
,
0101
0010
1001
1001
0010
0001
1100
0001
,
0110
0000
1000
0000
0110
0000
1001
0000
0100
0010
0001
1000
0101
0000
0010
0000
,
0110
0000
1000
0100
0011
0000
0001
0000
1001
0000
1000
0010
0100
0000
1000
0000
,
1001
0110
0101
0011
1001
2002
3003
1001
,
0110
0000
1000
0000
0110
0000
0001
0100
1010
0000
0110
0000
0011
0000
1010
0000
,
0210
0000
0010
0000
0010
0000
0010
0000
0302
0000
1000
0000
1003
0000
0010
0100
,
0011
1000
1001
0010
0110
1001
0101
1100
,
0020
0000
0100
0000
0100
0000
0130
1000
0002
0000
0010
0000
1003
0000
0110
0000
,
1001
0010
0110
0100
1001
0110
0101
1010
,
0002
0010
1000
0010
0203
0010
0010
0010
,
2300
0000
0001
0100
3002
0100
0013
0100
,
0120
1000
0032
2003
0001
3200
0010
0010
,
0310
0000
0001
1000
0110
0000
0010
0000
0101
0000
1010
0100
0011
0000
0101
0000
,
1010
0000
0001
0100
1000
0000
0001
0000
0110
0000
1000
0000
0011
0100
1001
0000
,
1010
0000
0100
0001
1010
0000
0100
0000
0110
0000
0011
0000
1001
0100
1010
0001
,
1100
0000
0010
0100
1001
0000
0001
0100
1000
0000
0001
0000
1010
0100
0011
0000
,
0101
0000
0010
1000
0101
0000
0100
0000
1010
0000
0101
0000
1100
0001
0110
0001
,
1010
0000
0100
0010
1001
0000
0101
0000
1010
0100
0010
0000
0001
0010
0100
0000
,
1001
0000
0000
0000
1001
0000
0000
0000
0001
0010
0100
1000
0001
0000
0000
0000
0110
0000
0000
0000
0110
0000
0000
0000
1000
0100
0010
0001
1000
0000
0000
0000
,
0110
0001
1001
0220
0330
1001
0000
0000
,
0110
0000
0000
0000
;
