#TITLE:Urapara Core;
#SUBTITLE:;
#ARTIST:DJ Sharpnel;
#TITLETRANSLIT:;
#SUBTITLETRANSLIT:;
#ARTISTTRANSLIT:;
#CREDIT:;
#BANNER:urapara bn.png;
#BACKGROUND:urapara bg.png;
#LYRICSPATH:;
#CDTITLE:;
#MUSIC:urapara core.ogg;
#OFFSET:-0.048;
#SAMPLESTART:21.657;
#SAMPLELENGTH:19.199;
#SELECTABLE:YES;
#DISPLAYBPM:200.000;
#BPMS:0.000=200.000;
#STOPS:;
#BGCHANGES:;
// cache tags:
#FIRSTBEAT:8.000;
#LASTBEAT:796.000;
#SONGFILENAME:Songs/SHARPNELSTREAMZ v2/Urapara Core/urapara.sm;
#HASMUSIC:1;
#HASBANNER:1;
#MUSICLENGTH:244.871;
// end cache tags

//---------------dance-single - 17+ (TYLR)----------------
#NOTES:
     dance-single:
     17+ (TYLR):
     Challenge:
     17:
     1.000,1.000,0.057,0.363,1.000,2791.000,14.000,89.000,3.000,0.000:
0000
0000
0000
0000
,
0000
0000
0000
0000
,
2000
0000
0000
0000
0100
0000
0000
3000
0010
0000
0000
0000
0001
0000
0000
0000
2000
0000
0000
0000
0001
0000
3000
0000
0010
0000
0000
0000
0100
0000
0000
0000
2000
0000
0000
0000
0100
3000
0000
0000
0010
0000
0000
0000
0001
0000
0000
0000
2000
0000
0000
0000
3001
0000
0000
0000
0010
0000
0000
0000
0100
0000
0000
0000
,
2000
0000
0000
0000
0000
0000
0000
0000
0000
3000
0000
0000
0001
0000
0000
0000
0000
0000
0000
0000
0000
0000
0000
0000
0100
0000
0000
0000
0000
0000
0000
0000
0000
0000
0000
0000
0010
0000
0000
0000
0000
0000
0000
0000
0000
0000
0000
0000
2000
0000
0000
0000
0000
0000
3000
0000
0000
0000
0000
0000
0010
0000
0000
0000
0000
0000
0000
0000
0000
0000
0000
0000
0100
0000
0000
0000
0000
0000
0000
0000
0000
0000
0000
0000
0001
0000
0000
0000
0000
0000
0000
0000
0000
0000
0000
0000
2000
0000
0000
3000
0000
0000
0000
0000
0000
0000
0000
0000
0001
0000
0000
0000
0000
0000
0000
0000
0000
0000
0000
0000
0100
0000
0000
0000
0000
0000
0000
0000
0000
0000
0000
0000
0010
0000
0000
0000
0000
0000
0000
0000
0000
0000
0000
0000
2000
0000
3000
0000
0000
0000
0000
0000
0000
0000
0000
0000
0010
0000
0000
0000
0000
0000
0000
0000
0000
0000
0000
0000
0100
0000
0000
0000
0000
0000
0000
0000
0000
0000
0000
0000
0001
0000
0000
0000
0000
0000
0000
0000
0000
0000
0000
0000
,
1000
0010
1000
0001
0010
0001
1000
0001
1000
0010
0100
0001
1000
0001
0100
0010
,
1000
0001
1000
0100
0010
0100
1000
0001
1000
0010
0100
0001
0010
0100
0010
0001
,
1000
0010
0100
0001
0010
0100
0010
0001
1000
0010
0100
0001
0010
0100
0010
0001
,
1000
0001
0100
0010
1000
0001
1000
0010
0100
0001
1000
0001
0010
0100
0010
0001
,
1000
0010
0100
0001
0010
0100
0010
0001
1000
0010
0100
0001
0010
0100
0010
0001
,
1000
0001
0100
0010
1000
0001
1000
0010
0100
0001
1000
0001
0010
0100
0010
0001
,
2000
0000
0000
0000
0010
0000
0000
3000
0100
0000
0000
0000
0001
0000
0000
0000
2000
0000
0000
0000
0001
0000
3000
0000
0100
0000
0000
0000
0010
0000
0000
0000
2000
0000
0000
0000
0010
3000
0000
0000
0100
0000
0000
0000
0001
0000
0000
0000
2000
0000
0000
0000
3001
0000
0000
0000
0100
0000
0000
0000
0010
0000
0000
0000
,
2000
0000
0000
0000
0000
0000
0000
0000
0000
3000
0000
0000
0001
0000
0000
0000
0000
0000
0000
0000
0000
0000
0000
0000
0010
0000
0000
0000
0000
0000
0000
0000
0000
0000
0000
0000
0100
0000
0000
0000
0000
0000
0000
0000
0000
0000
0000
0000
2000
0000
0000
0000
0000
0000
3000
0000
0000
0000
0000
0000
0100
0000
0000
0000
0000
0000
0000
0000
0000
0000
0000
0000
0010
0000
0000
0000
0000
0000
0000
0000
0000
0000
0000
0000
0001
0000
0000
0000
0000
0000
0000
0000
0000
0000
0000
0000
2000
0000
0000
3000
0000
0000
0000
0000
0000
0000
0000
0000
0001
0000
0000
0000
0000
0000
0000
0000
0000
0000
0000
0000
0010
0000
0000
0000
0000
0000
0000
0000
0000
0000
0000
0000
0100
0000
0000
0000
0000
0000
0000
0000
0000
0000
0000
0000
2000
0000
3000
0000
0000
0000
0000
0000
0000
0000
0000
0000
0100
0000
0000
0000
0000
0000
0000
0000
0000
0000
0000
0000
0010
0000
0000
0000
0000
0000
0000
0000
0000
0000
0000
0000
0001
0000
0000
0000
0000
0000
0000
0000
0000
0000
0000
0000
,
0100
0010
1000
0001
0100
0001
1000
0001
1000
0100
0010
0001
1000
0001
0010
0100
,
1000
0001
1000
0100
0010
0100
0010
0001
1000
0100
1000
0010
0100
0010
1000
0001
,
1000
0100
0010
0001
1000
0100
1000
0001
0010
0100
1000
0001
0100
0001
1000
0010
,
0100
0001
0010
0100
1000
0001
1000
0100
0010
0001
1000
0001
0100
0010
0100
0001
,
1000
0100
0010
0001
1000
0001
0010
0100
1000
0001
0010
0001
1000
0100
0010
0001
,
0100
0010
1000
0001
0100
0001
1000
0010
0100
0001
0010
0100
1000
0010
0100
0001
,
2000
3100
0010
0001
2000
3001
0010
0100
2000
3100
0010
0001
1000
0001
0100
0010
,
1000
0001
0010
0001
1000
0010
0100
0010
1000
0001
1000
0001
0010
0100
0010
0001
,
0100
0010
1000
0010
0100
0001
1000
0001
0100
0010
1000
0001
0010
0100
0010
0001
,
0100
0010
0100
0001
0100
0010
1000
0001
1000
0100
0010
0100
1000
0001
0100
0010
,
1000
0001
0010
0001
1000
0100
0010
0001
0010
0100
1000
0001
0100
0010
0100
0001
,
0010
0100
0010
0001
1000
0010
1000
0001
0010
0100
1000
0010
0100
0010
1000
0001
,
0010
0100
0010
0001
1000
0010
1000
0100
0010
0001
1000
0010
1000
0001
0100
0001
,
0010
0100
1000
0100
0010
0001
1000
0001
0100
0010
1000
0001
1000
0001
1000
0001
,
2000
3010
0100
0001
2000
3001
0100
0010
2000
3010
0100
0001
0020
0031
1000
0010
,
0100
0001
1000
0100
1000
0001
0100
0010
0100
0001
0010
0100
1000
0001
1000
0010
,
0100
0001
1000
0001
0100
0010
1000
0010
0100
0001
1000
0100
0010
0001
0010
0100
,
1000
0001
0100
0001
1000
0100
0010
0001
1000
0001
0100
0010
1000
0001
0010
0100
,
1000
0001
0010
0001
1000
0100
0010
0001
0010
0100
1000
0001
0100
0010
0100
0001
,
0010
0100
0010
0001
1000
0010
1000
0001
0010
0100
1000
0100
1000
0001
1000
0010
,
0100
0001
0100
0001
1000
0010
1000
0100
0010
0001
1000
0010
1000
0001
0100
0001
,
0010
0100
1000
0100
0010
0001
1000
0010
0100
0010
1000
0001
0010
0100
0010
0100
,
1000
0001
1000
0010
0100
0001
0010
0001
1000
0001
0100
0010
1000
0001
0010
0100
,
1000
0010
1000
0010
0100
0001
1000
0100
1000
0001
1000
0010
0100
0001
1000
0001
,
0010
0100
0010
0100
1000
0001
0010
0001
0100
0010
1000
0001
0100
0010
1000
0001
,
0100
0001
0100
0001
1000
0010
1000
0100
0010
0001
1000
0010
0100
0001
0010
0100
,
1000
0001
1000
0001
0100
0010
1000
0001
1000
0100
0010
0001
1000
0010
0100
0001
,
1000
0010
1000
0010
0100
0001
0010
0100
1000
0001
1000
0010
0100
0001
0010
0100
,
1000
0001
1000
0001
0100
0010
0100
0001
1000
0001
1000
0100
1000
0001
0010
0100
,
1000
0001
0010
0100
0010
0001
1000
0010
0100
0010
1000
0001
1000
0001
1000
0001
,
2000
3100
0010
0001
2000
3001
0010
0100
2000
3100
0010
0001
2000
3001
0010
0100
,
1000
0001
0100
0001
0010
0100
1000
0001
0100
0001
0010
0100
1000
0001
0100
0010
,
1000
0001
1000
0100
0010
0001
1000
0001
1000
0100
0010
0001
1000
0001
0010
0100
,
1000
0001
0010
0001
0100
0010
1000
0001
0010
0100
1000
0100
0010
0001
1000
0001
,
0100
0010
1000
0001
0010
0100
1000
0100
1000
0001
0100
0010
1000
0001
0010
0001
,
1000
0010
0100
0001
0010
0100
1000
0001
1000
0001
0100
0010
1000
0100
0010
0100
,
1000
0001
0100
0010
1000
0001
1000
0010
0100
0001
1000
0100
0010
0001
1000
0010
,
0100
0001
1000
0100
0010
0001
0100
0010
1000
0010
0100
0001
0010
0100
1000
0001
,
1000
0010
0100
0010
1000
0001
0100
0001
1000
0100
1000
0100
0010
0100
1000
0001
,
0100
0010
1000
0010
0100
0001
1000
0100
1000
0001
0010
0001
1000
0100
0010
0001
,
1000
0001
0100
0010
1000
0010
0100
0001
1000
0100
1000
0001
1000
0100
0010
0001
,
0100
0010
1000
0010
0100
0001
1000
0001
0100
0010
1000
0001
1000
0100
0010
0001
,
1000
0100
0010
0100
1000
0001
0010
0001
1000
0010
1000
0010
0100
0010
1000
0001
,
0100
0010
1000
0010
0100
0001
1000
0100
1000
0100
0010
0001
1000
0001
0010
0100
,
1000
0001
0100
0001
1000
0010
0100
0010
1000
0001
0010
0001
1000
0010
0100
0001
,
1000
0000
0000
0000
0220
0000
0000
0000
0330
0000
0000
0000
0001
1000
0001
1000
,
0001
0100
0010
0100
0001
1000
0010
1000
0001
0010
0001
0010
0100
0010
0001
1000
,
0010
0100
0001
0100
0010
1000
0001
0010
0001
1000
0100
1000
0001
0010
0100
1000
,
0001
1000
0010
0100
0001
0100
0010
1000
0001
0010
0001
1000
0001
0010
0100
1000
,
0010
0100
0001
0100
0010
1000
0001
1000
0010
0100
0001
1000
0001
0010
0100
1000
,
0001
0010
0100
0010
0001
1000
0100
1000
0001
0100
0001
0100
0010
0100
0001
1000
,
0010
0100
0001
0100
0010
1000
0001
0010
0001
0010
0100
1000
0001
1000
0100
0010
,
0001
1000
0010
1000
0001
0100
0010
0100
0001
1000
0100
1000
0001
0100
0010
1000
,
0001
0000
0000
0000
0100
0000
0020
0000
0000
0000
0130
0000
0001
1000
0001
1000
,
0001
0010
0100
1000
0001
0100
0010
1000
0010
1000
0001
0010
0100
1000
0001
1000
,
0010
0100
0001
1000
0100
0010
0001
1000
0001
1000
0010
0100
0001
1000
0100
1000
,
0010
0100
0001
1000
0100
0010
0001
1000
0001
0100
0010
1000
0001
1000
0100
0010
,
0001
0010
0100
1000
0001
1000
0010
0100
0010
1000
0001
1000
0100
0010
0001
1000
,
0001
0010
0100
1000
0001
0100
0010
1000
0010
1000
0001
0010
0100
1000
0001
1000
,
0010
0100
0001
1000
0100
0010
0001
1000
0001
1000
0010
0100
0001
1000
0100
1000
,
0010
0100
0001
1000
0100
0010
0001
1000
0001
1000
0010
0100
0001
0100
0010
1000
,
0001
0011
0110
1100
1001
1000
0020
0000
,
0130
0001
1000
0100
0010
0001
1000
0010
1000
0001
0010
0100
1000
0010
0100
0001
,
0010
0100
1000
0001
0010
0001
0100
0010
0100
0001
1000
0100
0010
0001
1000
0010
,
0100
0010
1000
0001
0010
0100
1000
0001
1000
0010
0100
0001
1000
0001
0010
0100
,
1000
0100
0010
0001
1000
0001
0100
0010
0100
0001
1000
0001
0010
0100
1000
0001
,
1000
0100
0010
0001
1000
0010
0100
0001
0100
0001
1000
0100
0010
0001
1000
0001
,
0100
0010
1000
0001
0010
0100
1000
0001
1000
0001
0100
0010
1000
0001
0010
0001
,
0100
0010
1000
0001
0010
0100
1000
0001
1000
0001
0100
0010
1000
0010
0100
0001
,
0010
0100
0010
0001
1000
0010
1000
0001
0100
0010
0100
0001
0010
0100
1000
0001
,
1000
0210
0001
0301
,
0002
0013
0100
1000
0002
1003
0100
0010
0002
0013
0100
1000
0001
1000
0010
0100
,
0001
1000
0100
1000
0001
0100
0010
0100
0001
1000
0001
1000
0100
0010
0100
1000
,
0010
0100
0001
0100
0010
1000
0001
1000
0010
0100
0001
1000
0100
0010
0100
1000
,
0010
0100
0010
1000
0010
0100
0001
1000
0001
0010
0100
0010
0001
1000
0010
0100
,
0001
1000
0100
1000
0001
0010
0100
1000
0100
0010
0001
1000
0010
0100
0010
1000
,
0100
0010
0100
1000
0001
0100
0001
1000
0100
0010
0001
0100
0010
0100
0001
1000
,
0100
0010
0100
1000
0001
0100
0001
0010
0100
1000
0001
0100
0001
1000
0010
1000
,
0100
0010
0001
0010
0100
1000
0001
1000
0010
0100
0001
1000
0001
1000
0001
1000
,
0002
0103
0010
1000
0002
1003
0010
0100
0002
0103
0010
1000
0200
1300
0001
0100
,
0010
1000
0001
0010
0001
1000
0010
0100
0010
1000
0100
0010
0001
1000
0001
0100
,
0010
1000
0001
1000
0010
0100
0001
0100
0010
1000
0001
0010
0100
1000
0100
0010
,
0001
1000
0010
1000
0001
0010
0100
1000
0001
1000
0010
0100
0001
1000
0100
0010
,
0001
1000
0100
1000
0001
0010
0100
1000
0100
0010
0001
1000
0010
0100
0010
1000
,
0100
0010
0100
1000
0001
0100
0001
1000
0100
0010
0001
0010
0001
1000
0001
0100
,
0010
1000
0010
1000
0001
0100
0001
0010
0100
1000
0001
0100
0001
1000
0010
1000
,
0100
0010
0001
0010
0100
1000
0001
1000
0010
0100
0001
1000
0100
0010
0100
0010
,
0001
1000
0001
0100
0010
1000
0100
1000
0001
1000
0010
0100
0001
1000
0100
0010
,
0001
0100
0001
0100
0010
1000
0001
0010
0001
1000
0001
0100
0010
1000
0001
1000
,
0100
0010
0100
0010
0001
1000
0100
1000
0010
0100
0001
1000
0010
0100
0001
1000
,
0010
1000
0010
1000
0001
0100
0001
0010
0100
1000
0001
0100
0010
1000
0100
0010
,
0001
1000
0001
1000
0010
0100
0001
1000
0001
0010
0100
1000
0001
0100
0010
1000
,
0001
0100
0001
0100
0010
1000
0100
0010
0001
1000
0001
0100
0010
1000
0100
0010
,
0001
1000
0001
1000
0010
0100
0010
1000
0001
1000
0001
0010
0001
1000
0100
0010
,
0001
1000
0100
0010
0100
1000
0001
0100
0010
0100
0001
1000
0001
1000
0001
1000
,
0002
0013
0100
1000
0002
1003
0100
0010
0002
0013
0100
1000
0002
1003
0100
0010
,
0001
1000
0010
1000
0100
0010
0001
1000
0010
1000
0100
0010
0001
1000
0010
0100
,
0001
1000
0001
0010
0100
1000
0001
1000
0001
0010
0100
1000
0001
1000
0100
0010
,
0001
1000
0100
1000
0010
0100
0001
1000
0100
0010
0001
0010
0100
1000
0001
1000
,
0010
0100
0001
1000
0100
0010
0001
0010
0001
1000
0010
0100
0001
1000
0100
1000
,
0001
0100
0010
1000
0100
0010
0001
1000
0001
1000
0010
0100
0001
0010
0100
0010
,
0001
1000
0010
0100
0001
1000
0001
0100
0010
1000
0001
0010
0100
1000
0010
0100
,
0002
0000
2003
0000
3200
0000
0320
0000
0000
0000
0230
0000
2300
0000
3002
0003
,
2001
0000
0000
0000
3000
0001
1000
0010
,
1000
0001
0010
0001
1000
0010
1000
0001
,
1000
0010
0100
0010
1000
0001
1000
0100
,
0010
0001
1000
0010
0100
0010
1000
0100
,
0010
0001
1000
0002
0000
0103
0010
1000
,
0001
1000
0100
0020
0000
0031
1000
0100
,
1000
0001
0100
0020
0000
1030
0001
0100
,
0001
0010
0100
2000
0000
3001
0100
0010
,
0100
0001
1000
0010
1000
0100
0010
0001
,
1000
0010
1000
0001
0010
0100
0010
0001
,
1000
0010
0100
0001
1000
0001
0010
0100
,
1000
0001
1000
0010
0100
0010
1000
0001
,
1000
0010
0100
0002
0000
1003
0100
0010
,
0100
1000
0010
0200
0000
0301
1000
0010
,
1000
0001
0010
0200
0000
1300
0001
0100
,
0010
1000
0001
2000
0000
3100
0010
0001
,
1001
1000
0010
1000
0100
0010
0001
0100
,
0010
1000
0001
0100
0001
1000
0100
0010
,
0001
1000
0010
1000
0100
1000
0001
0100
,
0010
1000
0001
0100
0001
1000
0100
1000
,
0010
0100
0001
2000
0000
3001
0010
0100
,
0010
0001
0100
0020
0000
1030
0001
0100
,
0001
1000
0100
0020
0000
0031
1000
0001
,
0100
0010
1000
0200
0000
1300
0010
0100
,
0101
0001
1000
0001
0010
0100
1000
0010
,
1000
0001
1000
0001
0010
0100
1000
0010
,
1000
0001
1000
0001
0010
0100
1000
0010
,
1000
0001
1000
0001
0010
0100
1000
0010
,
1000
0001
1000
0001
1000
0001
1000
0001
1000
0001
1000
0001
1000
0001
1000
0001
,
1000
0001
1000
0001
1000
0001
1000
0001
1000
0001
1000
0001
1000
0001
1000
0001
,
1000
0100
0010
0001
0100
0001
0010
0100
1000
0010
0100
0001
0010
0001
0100
0010
,
1000
0100
0010
0001
0100
0001
0010
0100
1000
0010
0100
0001
0010
0001
0100
0010
,
1000
0000
0000
0000
,
0002
0000
0023
0000
0230
0000
0320
0000
0032
0000
0203
0000
0301
1000
0001
1000
,
0002
0013
0100
1000
0002
1003
0100
0010
0002
0013
0100
1000
0001
1000
0010
0100
,
0001
1000
0100
1000
0001
0100
0010
0100
0001
1000
0001
1000
0100
0010
0100
1000
,
0010
0100
0001
0100
0010
1000
0001
1000
0010
0100
0001
1000
0100
0010
0100
1000
,
0010
0100
0010
1000
0010
0100
0001
1000
0001
0010
0100
0010
0001
1000
0010
0100
,
0001
1000
0100
1000
0001
0010
0100
1000
0100
0010
0001
1000
0010
0100
0010
1000
,
0100
0010
0100
1000
0001
0100
0001
1000
0100
0010
0001
0100
0010
0100
0001
1000
,
0100
0010
0100
1000
0001
0100
0001
0010
0100
1000
0001
0100
0001
1000
0010
1000
,
0100
0010
0001
0010
0100
1000
0001
1000
0010
0100
0001
1000
0001
1000
0001
1000
,
0002
0103
0010
1000
0002
1003
0010
0100
0002
0103
0010
1000
0200
1300
0001
0100
,
0010
1000
0001
0010
0001
1000
0010
0100
0010
1000
0100
0010
0001
1000
0001
0100
,
0010
1000
0001
1000
0010
0100
0001
0100
0010
1000
0001
0010
0100
1000
0100
0010
,
0001
1000
0010
1000
0001
0010
0100
1000
0001
1000
0010
0100
0001
1000
0100
0010
,
0001
1000
0100
1000
0001
0010
0100
1000
0100
0010
0001
1000
0010
0100
0010
1000
,
0100
0010
0100
1000
0001
0100
0001
1000
0100
0010
0001
0010
0001
1000
0001
0100
,
0010
1000
0010
1000
0001
0100
0001
0010
0100
1000
0001
0100
0001
1000
0010
1000
,
0100
0010
0001
0010
0100
1000
0001
1000
0010
0100
0001
1000
0100
0010
0100
0010
,
0001
1000
0001
0100
0010
1000
0100
1000
0001
1000
0010
0100
0001
1000
0100
0010
,
0001
0100
0001
0100
0010
1000
0001
0010
0001
1000
0001
0100
0010
1000
0001
1000
,
0100
0010
0100
0010
0001
1000
0100
1000
0010
0100
0001
1000
0010
0100
0001
1000
,
0010
1000
0010
1000
0001
0100
0001
0010
0100
1000
0001
0100
0010
1000
0100
0010
,
0001
1000
0001
1000
0010
0100
0001
1000
0001
0010
0100
1000
0001
0100
0010
1000
,
0001
0100
0001
0100
0010
1000
0100
0010
0001
1000
0001
0100
0010
1000
0100
0010
,
0001
1000
0001
1000
0010
0100
0010
1000
0001
1000
0001
0010
0001
1000
0100
0010
,
0001
1000
0100
0010
0100
1000
0001
0100
0010
0100
0001
1000
0001
1000
0001
1000
,
0002
0013
0100
1000
0002
1003
0100
0010
0002
0013
0100
1000
0002
1003
0100
0010
,
0001
1000
0010
1000
0100
0010
0001
1000
0010
1000
0100
0010
0001
1000
0010
0100
,
0001
1000
0001
0010
0100
1000
0001
1000
0001
0010
0100
1000
0001
1000
0100
0010
,
0001
1000
0100
1000
0010
0100
0001
1000
0100
0010
0001
0010
0100
1000
0001
1000
,
0010
0100
0001
1000
0100
0010
0001
0010
0001
1000
0010
0100
0001
1000
0100
1000
,
0001
0100
0010
1000
0100
0010
0001
1000
0001
1000
0010
0100
0001
0010
0100
0010
,
0001
1000
0010
0100
0001
1000
0001
0100
0010
1000
0001
0010
0100
1000
0001
0100
,
M010
M010
M010
0000
,
2000
3010
0100
0001
2000
3001
0100
0010
2000
3010
0100
0001
1000
0001
0010
0100
,
1000
0001
0100
0001
1000
0100
0010
0100
1000
0001
1000
0001
0100
0010
0100
0001
,
0010
0100
1000
0100
0010
0001
1000
0001
0010
0100
1000
0001
0100
0010
0100
0001
,
0010
0100
0010
0001
0010
0100
1000
0001
1000
0010
0100
0010
1000
0001
0010
0100
,
1000
0001
0100
0001
1000
0010
0100
0001
0100
0010
1000
0001
0010
0100
0010
0001
,
0100
0010
0100
0001
1000
0100
1000
0001
0100
0010
1000
0100
0010
0100
1000
0001
,
0100
0010
0100
0001
1000
0100
1000
0010
0100
0001
1000
0100
1000
0001
0010
0001
,
0100
0010
1000
0010
0100
0001
1000
0001
0010
0100
1000
0001
1000
0001
1000
0001
,
2000
3100
0010
0001
2000
3001
0010
0100
2000
3100
0010
0001
0200
0301
1000
0100
,
0010
0001
1000
0010
1000
0001
0010
0100
0010
0001
0100
0010
1000
0001
1000
0100
,
0010
0001
1000
0001
0010
0100
1000
0100
0010
0001
1000
0010
0100
0001
0100
0010
,
1000
0001
0010
0001
1000
0010
0100
0001
1000
0001
0010
0100
1000
0001
0100
0010
,
1000
0001
0100
0001
1000
0010
0100
0001
0100
0010
1000
0001
0010
0100
0010
0001
,
0100
0010
0100
0001
1000
0100
1000
0001
0100
0010
1000
0010
1000
0001
1000
0100
,
0010
0001
0010
0001
0100
0010
1000
0001
1000
0100
1000
0010
0100
0001
0010
0100
,
1000
0101
0010
1100
,
0001
1010
0100
0011
,
2002
0000
0000
0000
,
3003
0000
0000
0000
;

//---------------dance-single - 16 (LoakDrills)----------------
#NOTES:
     dance-single:
     16 (LoakDrills):
     Hard:
     16:
     1.000,1.000,0.082,0.445,1.000,2493.000,20.000,109.000,7.000,0.000:
0000
0000
0000
0000
,
0000
0000
0000
0000
,
2000
3001
0200
0310
2000
3100
0020
0031
,
1000
0000
0001
0000
0100
0000
0001
1000
0001
1000
0100
0010
0001
0000
1000
0001
,
1000
0000
0010
0100
0001
0000
1000
0001
0100
0001
0010
0100
1000
0000
0001
1000
,
0001
0000
1000
0010
0100
0000
0001
1000
0001
0100
0001
0010
0100
0000
0010
0001
,
2000
0000
3001
0000
0100
0000
0010
1000
0001
1000
0001
0100
0001
0000
1000
0001
,
1000
0000
0001
0010
0100
0000
1000
0001
0100
0001
0100
0010
1000
0000
0001
1000
,
0001
0000
0010
0100
1000
0000
0001
1000
0001
0010
0001
0010
0100
0000
1000
0010
,
1000
0000
0001
0100
0010
0000
0100
0001
1000
0001
1000
0100
0010
0000
0001
0010
,
0200
1300
0020
0130
0002
0013
0200
1300
,
0001
0000
1000
0000
0010
0000
0100
0001
1000
0001
1000
0010
0100
0000
0001
0010
,
0001
0000
0010
0100
1000
0000
0001
1000
0001
0100
0010
0100
0001
0000
1000
0001
,
1000
0000
0100
0010
0001
0000
1000
0010
1000
0001
0100
0001
1000
0000
0100
1000
,
0100
0000
1000
0001
0100
0000
0010
1000
0010
0100
0001
1000
0001
0000
1000
0010
,
1000
0000
0001
1000
0100
0000
0010
0001
1000
0001
1000
0010
0100
0000
0001
1000
,
0001
0010
0001
0010
0001
0010
0001
0010
0001
0010
0001
0010
0001
0010
0100
1000
,
0100
0000
0000
1000
0000
0000
0100
0000
0000
1000
0000
0000
0100
0000
0000
1000
0000
0000
0100
0000
0000
1000
0000
0000
0001
0000
1000
0000
0001
0000
1000
0000
0001
0000
1000
0000
0001
0000
1000
0000
0001
0000
1000
0000
0001
0000
1000
0000
,
0002
0013
0100
1000
0200
0310
0001
0010
0200
1300
0001
1000
0010
0100
0010
1000
,
0001
0100
0001
1000
0100
1000
0010
0100
0001
1000
0001
1000
0010
0100
0010
1000
,
0002
0103
0001
1000
0002
0103
0001
1000
0002
0103
0010
1000
0100
1000
0001
0100
,
0001
1000
0100
0010
0001
1000
0001
0100
0010
1000
0001
0010
0100
0010
0001
1000
,
0001
0100
0010
0100
0001
1000
0010
1000
0001
0100
0001
0010
0100
1000
0001
1000
,
0010
0100
0001
0100
0010
1000
0001
1000
0100
0010
0001
0010
0001
1000
0001
0100
,
0010
1000
0010
1000
0001
0100
0001
0010
0100
1000
0001
0100
0001
1000
0010
1000
,
0010
0100
0001
0100
0001
1000
0001
0010
0100
0010
0001
1000
0001
1000
0001
1000
,
0002
0103
0010
1000
0020
0130
0001
0100
0020
1030
0010
0100
0001
1000
0001
0100
,
0010
1000
0001
1000
0100
0010
0001
1000
0001
0100
0001
1000
0010
1000
0001
0010
,
0200
1300
0001
1000
0200
1300
0001
1000
0200
1300
0001
1000
0200
0310
0001
1000
,
0001
0100
0010
1000
0001
1000
0010
0100
0001
1000
0001
0010
0100
0010
0100
1000
,
0001
0100
0001
1000
0100
0010
0001
1000
0001
0100
0010
1000
0010
0100
0001
0100
,
0001
1000
0100
0010
0001
0100
0001
1000
0010
1000
0001
0100
0001
0010
0100
1000
,
0001
1000
0001
0100
0010
1000
0001
1000
0100
0010
0100
1000
0001
0100
0001
0100
,
0010
0000
0000
1000
0000
0000
0001
0000
0000
1000
0000
0000
0100
0000
0000
0010
0000
0000
0001
0000
0000
0010
0000
0000
0001
0000
0000
1000
0000
0000
0010
0000
0000
0100
0000
0000
0001
0000
1000
0000
0001
0000
1000
0000
0001
0000
1000
0000
,
0001
0010
0001
0010
0100
1000
0010
1000
0001
1000
0100
0010
0001
1000
0010
0100
,
0001
0010
0001
0010
0100
1000
0001
0100
0001
1000
0001
0010
0100
1000
0001
1000
,
0010
0100
0010
0100
0001
1000
0010
1000
0100
0010
0001
1000
0010
0100
0001
1000
,
0010
1000
0010
1000
0001
0100
0001
0010
0100
1000
0001
0100
0010
1000
0100
0010
,
0001
1000
0001
1000
0010
0100
0001
1000
0001
0010
0100
1000
0001
0100
0010
1000
,
0001
0100
0001
0100
0010
1000
0100
0010
0001
1000
0001
0100
0001
0010
0100
1000
,
0001
1000
0001
1000
0010
0100
0010
1000
0001
1000
0001
0010
0001
1000
0100
0010
,
0001
1000
0100
0010
0100
1000
0001
0100
0010
0100
0001
1000
0001
1000
0001
1000
,
0002
0013
0100
1000
0200
0310
0001
0010
0200
1300
0100
0010
0001
1000
0010
0100
,
0001
1000
0001
1000
0010
0100
0001
1000
0001
0010
0100
1000
0001
0100
0010
1000
,
0001
0100
0001
0100
0010
0100
0001
1000
0001
0010
0100
1000
0001
0010
0001
1000
,
0010
1000
0010
1000
0001
0100
0001
1000
0100
0010
0001
0100
0001
1000
0010
0100
,
0010
1000
0010
1000
0001
0010
0100
0010
0001
1000
0001
0100
0010
1000
0001
0010
,
0100
1000
0100
1000
0001
0100
0001
1000
0010
0100
0001
0010
0100
1000
0001
0100
,
0010
1000
0010
1000
0001
0100
0001
0010
0100
0010
0001
1000
0001
0100
0010
1000
,
0001
1000
0100
0010
0100
1000
0001
0100
0001
0010
0100
1000
0010
1000
0001
0100
,
0001
1000
0010
1000
0001
0010
0100
0010
,
0001
1000
0010
0100
0001
1000
0001
0010
,
0100
1000
0001
0100
0010
0100
0001
1000
,
0100
0010
0001
0100
0010
1000
0100
0010
,
0001
1000
0010
1000
0001
0100
0001
0010
,
0100
1000
0001
1000
0010
0100
0001
0100
,
0001
0010
0100
1000
0001
0100
0010
1000
,
0001
0000
0000
0000
2002
0000
0000
0000
3003
0000
0000
0000
1000
0001
1000
0001
,
0100
0010
1000
0001
0010
0100
0010
0001
,
1000
0010
0100
0001
1000
0001
0010
0100
,
1000
0001
1000
0010
0100
0010
1000
0001
,
0100
0001
0010
0100
1000
0010
0100
0001
,
0010
0001
1000
0001
0100
0010
1000
0010
,
1000
0001
0010
0001
0100
0010
1000
0001
,
0010
0100
0010
0001
1000
0001
0100
0010
,
1000
0000
0001
0000
0010
0000
0002
0000
0000
0000
0103
0000
0010
1000
0010
1000
,
0001
0000
0100
0000
0001
0000
1000
0100
1000
0000
0010
0000
0100
0000
0001
0000
,
1001
0000
1000
0000
0010
0000
0100
0001
0100
0000
0010
0000
1000
0000
0001
0000
,
0011
0000
0010
0000
0100
0000
1000
0100
1000
0000
0001
0000
0100
0000
0010
0000
,
1010
0000
1000
0000
0001
0000
0010
0001
0010
0000
0100
0000
1000
0000
0001
0000
,
M101
0000
0100
0000
0010
0000
1000
0010
1000
0000
0001
0000
0100
0000
0001
0000
,
0011
0000
0010
0000
0100
0000
1000
0001
1000
0000
0010
0000
0100
0000
0010
0000
,
1010
0000
1000
0000
0001
0000
0010
0100
0010
0000
0001
0000
0100
0000
0010
0000
,
1000
0001
1000
0001
1000
0000
0000
0000
,
0100
0000
1000
0000
0001
0000
1000
0010
1000
0000
0100
0000
0010
0000
0001
0000
,
1001
0000
1000
0000
0100
0000
0010
0001
0010
0000
0100
0000
1000
0000
0001
0000
,
0101
0000
0100
0000
0010
0000
1000
0010
1000
0000
0001
0000
0010
0000
0100
0000
,
1100
0000
1000
0000
0001
0000
0100
0001
0100
0000
0010
0000
1000
0000
0001
0000
,
M011
0000
0010
0000
0100
0000
1000
0100
1000
0000
0001
0000
0010
0000
0001
0000
,
0101
0000
0100
0000
0010
0000
1000
0001
1000
0000
0100
0000
0010
0000
0100
0000
,
1100
0000
1000
0000
0001
0000
0100
0010
0100
0000
0001
0000
1000
0000
0001
0000
,
2000
3020
0230
0302
0203
0320
2030
0000
,
3001
2002
3003
0000
,
2000
3100
0010
0001
0020
0130
1000
0100
0020
0031
1000
0001
0100
0010
0100
0001
,
1000
0010
1000
0001
0010
0001
0100
0010
1000
0001
1000
0001
0100
0010
0100
0001
,
2000
3010
1000
0001
2000
3010
1000
0001
2000
3010
0100
0001
0010
0001
1000
0010
,
1000
0001
0010
0100
1000
0001
1000
0010
0100
0001
1000
0100
0010
0100
1000
0001
,
1000
0010
0100
0010
1000
0001
0100
0001
1000
0010
1000
0100
0010
0001
1000
0001
,
0100
0010
1000
0010
0100
0001
1000
0001
0010
0100
1000
0100
1000
0001
1000
0010
,
0100
0001
0100
0001
1000
0010
1000
0100
0010
0001
1000
0010
1000
0001
0100
0001
,
0100
0010
1000
0010
1000
0001
1000
0100
0010
0100
1000
0001
1000
0001
1000
0001
,
2000
3010
0100
0001
0200
0310
1000
0010
0200
0301
0100
0010
1000
0001
1000
0100
,
0010
0001
1000
0001
0010
0100
1000
0001
1000
0010
1000
0001
0100
0001
1000
0100
,
0020
0031
1000
0001
0020
0031
1000
0001
0020
0031
1000
0001
0020
0130
1000
0001
,
1000
0010
0100
0001
1000
0001
0100
0010
1000
0001
1000
0010
0100
0010
0100
0001
,
1000
0010
1000
0001
0010
0100
1000
0001
1000
0010
0100
0001
0100
0010
1000
0010
,
1000
0001
0010
0100
1000
0010
1000
0001
0100
0001
1000
0010
1000
0100
0010
0001
,
1000
0001
1000
0010
0100
0001
1000
0001
0010
0100
0010
0001
1000
0010
1000
0010
,
0100
0000
0000
0001
0000
0000
1000
0000
0000
0001
0000
0000
0010
0000
0000
0100
0000
0000
1000
0000
0000
0100
0000
0000
1000
0000
0000
0001
0000
0000
0100
0000
0000
0010
0000
0000
1000
0000
0001
0000
1000
0000
0001
0000
1000
0000
0001
0000
,
1000
0100
1000
0100
0010
0001
0100
0001
1000
0001
0010
0100
1000
0001
0100
0010
,
1000
0100
1000
0100
0010
0001
1000
0010
1000
0001
1000
0100
0010
0001
1000
0001
,
0100
0010
0100
0010
1000
0001
0100
0001
0010
0100
1000
0001
0100
0010
1000
0001
,
0100
0001
0100
0001
1000
0010
1000
0100
0010
0001
1000
0010
0100
0001
0010
0100
,
1000
0001
1000
0001
0100
0010
1000
0001
1000
0100
0010
0001
1000
0010
0100
0001
,
1000
0010
1000
0010
0100
0001
0010
0100
1000
0001
1000
0010
1000
0100
0010
0001
,
1000
0001
1000
0001
0100
0010
0100
0001
1000
0001
1000
0100
1000
0001
0010
0100
,
1000
0001
0100
0010
0100
0001
1000
0001
0010
0100
1000
0001
1000
0001
1000
0001
,
2000
3100
0010
0001
0020
0130
1000
0100
0020
0031
0010
0100
2000
3100
0010
0001
,
1000
0001
1000
0010
0100
0010
1000
0001
1000
0100
0010
0001
1000
0010
0100
0001
,
1000
0010
1000
0010
0100
0010
1000
0001
1000
0100
0010
0001
1000
0100
1000
0001
,
0100
0001
0100
0001
1000
0010
1000
0001
0010
0100
1000
0010
1000
0001
0100
0010
,
0100
0001
0100
0001
1000
0100
0010
0100
1000
0001
1000
0010
0100
0001
1000
0100
,
0010
0001
0010
0001
1000
0010
1000
0001
0100
0010
1000
0100
0010
0001
0100
0010
,
1000
0001
0010
0100
1000
0001
0010
0100
1000
0001
0010
0100
1000
0001
0010
0100
,
2000
3002
2003
3200
0000
0320
0032
2003
,
3020
0000
0000
0000
0030
1000
0001
0100
,
0001
1000
0100
1000
0001
0100
0001
1000
,
0001
0100
0010
0100
0001
1000
0001
0010
,
0100
1000
0001
0100
0010
0100
0001
0010
,
0100
1000
0001
2000
0000
3010
0100
0001
,
1000
0001
0010
0200
0000
1300
0001
0010
,
0001
1000
0010
0200
0000
0301
1000
0010
,
1000
0100
0010
0002
0000
1003
0010
0100
,
0010
1000
0001
0100
0001
0010
0100
1000
,
0001
0100
0001
1000
0100
0010
0100
1000
,
0001
0100
0010
1000
0001
1000
0100
0010
,
0001
1000
0001
0100
0010
0100
0001
1000
,
0001
0100
0010
2000
0000
3001
0010
0100
,
0010
0001
0100
0020
0000
1030
0001
0100
,
0001
1000
0100
0020
0000
0031
1000
0010
,
0100
0001
1000
0002
0000
0013
0100
1000
,
0001
0100
0010
1000
0100
0010
0001
0100
,
0010
1000
0001
0100
0001
1000
0100
0010
,
0001
1000
0010
1000
0100
1000
0001
0100
,
0010
1000
0001
0100
0001
1000
0100
1000
,
0010
0100
0001
2000
0000
3001
0010
0100
,
0010
0001
0100
0020
0000
1030
0001
0100
,
0001
1000
0100
0020
0000
0031
1000
0001
,
0100
0010
1000
0200
0000
1300
0010
0100
,
0001
1000
0001
1000
0100
0010
0001
0100
,
0001
1000
0001
1000
0100
0010
0001
0100
,
0001
1000
0001
1000
0100
0010
0001
0100
,
0001
1000
0001
1000
0100
0010
0001
0100
,
0001
1000
0001
1000
0001
1000
0001
1000
0001
1000
0001
1000
0001
1000
0001
1000
,
0001
1000
0001
1000
0001
1000
0001
1000
0001
1000
0001
1000
0001
1000
0001
1000
,
0004
4000
0000
0000
0000
0000
0000
0000
0000
0000
0000
0000
0000
0000
0000
0000
0000
0000
0000
0000
0000
0000
0000
0000
,
0000
0000
0000
0000
,
3MM3
0000
0000
0000
,
0002
0000
0000
0203
0000
0000
0320
0000
0000
2030
0000
0000
3200
0000
0000
0320
0000
0000
0031
1000
0001
1000
0001
1000
,
0001
0010
0100
1000
0200
0310
0001
0010
0200
1300
0001
1000
0010
0100
0010
1000
,
0001
0100
0001
1000
0100
1000
0010
0100
0001
1000
0001
1000
0010
0100
0010
1000
,
0002
0103
0001
1000
0002
0103
0001
1000
0002
0103
0010
1000
0100
1000
0001
0100
,
0001
1000
0100
0010
0001
1000
0001
0100
0010
1000
0001
0010
0100
0010
0001
1000
,
0001
0100
0010
0100
0001
1000
0010
1000
0001
0100
0001
0010
0100
1000
0001
1000
,
0010
0100
0001
0100
0010
1000
0001
1000
0100
0010
0001
0010
0001
1000
0001
0100
,
0010
1000
0010
1000
0001
0100
0001
0010
0100
1000
0001
0100
0001
1000
0010
1000
,
0010
0100
0001
0100
0001
1000
0001
0010
0100
0010
0001
1000
0001
1000
0001
1000
,
0002
0103
0010
1000
0020
0130
0001
0100
0020
1030
0010
0100
0001
1000
0001
0100
,
0010
1000
0001
1000
0100
0010
0001
1000
0001
0100
0001
1000
0010
1000
0001
0010
,
0200
1300
0001
1000
0200
1300
0001
1000
0200
1300
0001
1000
0200
0310
0001
1000
,
0001
0100
0010
1000
0001
1000
0010
0100
0001
1000
0001
0010
0100
0010
0100
1000
,
0001
0100
0001
1000
0100
0010
0001
1000
0001
0100
0010
1000
0010
0100
0001
0100
,
0001
1000
0100
0010
0001
0100
0001
1000
0010
1000
0001
0100
0001
0010
0100
1000
,
0001
1000
0001
0100
0010
1000
0001
1000
0100
0010
0100
1000
0001
0100
0001
0100
,
0010
0000
0000
1000
0000
0000
0001
0000
0000
1000
0000
0000
0100
0000
0000
0010
0000
0000
0001
0000
0000
0010
0000
0000
0001
0000
0000
1000
0000
0000
0010
0000
0000
0100
0000
0000
0001
0000
1000
0000
0001
0000
1000
0000
0001
0000
1000
0000
,
0001
0010
0001
0010
0100
1000
0010
1000
0001
1000
0100
0010
0001
1000
0010
0100
,
0001
0010
0001
0010
0100
1000
0001
0100
0001
1000
0001
0010
0100
1000
0001
1000
,
0010
0100
0010
0100
0001
1000
0010
1000
0100
0010
0001
1000
0010
0100
0001
1000
,
0010
1000
0010
1000
0001
0100
0001
0010
0100
1000
0001
0100
0010
1000
0100
0010
,
0001
1000
0001
1000
0010
0100
0001
1000
0001
0010
0100
1000
0001
0100
0010
1000
,
0001
0100
0001
0100
0010
1000
0100
0010
0001
1000
0001
0100
0001
0010
0100
1000
,
0001
1000
0001
1000
0010
0100
0010
1000
0001
1000
0001
0010
0001
1000
0100
0010
,
0001
1000
0010
0100
0010
1000
0001
0010
0001
0010
0100
1000
0010
0100
0001
1000
,
0002
0013
0100
1000
0200
0310
0001
0010
0200
1300
0100
0010
0001
1000
0010
0100
,
0001
1000
0001
1000
0010
0100
0001
1000
0001
0010
0100
1000
0001
0100
0010
1000
,
0001
0100
0001
0100
0010
0100
0001
1000
0001
0010
0100
1000
0001
0010
0001
1000
,
0010
1000
0010
1000
0001
0100
0001
1000
0100
0010
0001
0100
0001
1000
0010
0100
,
0010
1000
0010
1000
0001
0010
0100
0010
0001
1000
0001
0100
0010
1000
0001
0010
,
0100
1000
0100
1000
0001
0100
0001
1000
0010
0100
0001
0010
0100
1000
0001
0100
,
0010
1000
0010
1000
0001
0100
0001
0010
0100
0010
0001
1000
0001
0100
0001
0100
,
M010
M010
M010
0000
,
2000
3010
0100
0001
0200
0310
1000
0010
0200
0301
1000
0001
0010
0100
0010
0001
,
1000
0001
0100
0010
1000
0001
1000
0100
0010
0001
0100
0001
1000
0010
0100
0001
,
0020
0130
1000
0100
0020
0130
1000
0100
0020
0130
1000
0100
0010
0001
1000
0001
,
0100
0010
1000
0010
1000
0001
0100
0001
0010
0100
1000
0001
0100
0001
1000
0010
,
1000
0100
1000
0001
0100
0010
1000
0001
1000
0010
0100
0001
1000
0001
0010
0100
,
1000
0001
0100
0001
1000
0010
1000
0001
1000
0001
0010
0100
0010
0001
1000
0010
,
0100
0001
1000
0001
0010
0100
1000
0010
1000
0001
0100
0010
1000
0001
0010
0001
,
1000
0010
0100
0001
1000
0010
1000
0001
0100
0010
1000
0001
1000
0001
1000
0001
,
0020
0130
1000
0100
0020
0031
0010
0100
2000
3100
0010
0001
1000
0001
0100
0010
,
1000
0001
0100
0001
0010
0100
1000
0001
0100
0010
1000
0001
1000
0001
0100
0010
,
2000
3001
1000
0010
2000
3001
1000
0010
2000
3001
1000
0100
0010
0001
1000
0001
,
0100
0010
0100
0001
1000
0100
1000
0001
0100
0010
1000
0001
0010
0100
0010
0100
,
1000
0001
0100
0010
1000
0001
0100
0001
1000
0100
0010
0100
1000
0001
0100
0001
,
0100
0010
1000
0001
1000
0100
0010
0001
1000
0001
0100
0010
1000
0010
1000
0001
,
1000
0100
0010
0001
1000
0100
0010
0001
1000
0100
0010
0001
1000
0100
0010
0001
,
1000
0011
1000
0101
,
0010
1010
1000
0110
,
2002
0000
0000
0000
,
3003
0000
0000
0000
;

//---------------dance-single - 16 (Loak)----------------
#NOTES:
     dance-single:
     16 (Loak):
     Medium:
     16:
     1.000,1.000,0.082,0.445,1.000,2481.000,20.000,109.000,7.000,0.000:
0000
0000
0000
0000
,
0000
0000
0000
0000
,
2000
3001
0200
0310
2000
3100
0020
0031
,
1000
0000
0001
0000
0100
0000
0001
1000
0001
1000
0100
0010
0001
0000
1000
0001
,
1000
0000
0010
0100
0001
0000
1000
0001
0100
0001
0010
0100
1000
0000
0001
1000
,
0001
0000
1000
0010
0100
0000
0001
1000
0001
0100
0001
0010
0100
0000
0010
0001
,
2000
0000
3001
0000
0100
0000
0010
1000
0001
1000
0001
0100
0001
0000
1000
0001
,
1000
0000
0001
0010
0100
0000
1000
0001
0100
0001
0100
0010
1000
0000
0001
1000
,
0001
0000
0010
0100
1000
0000
0001
1000
0001
0010
0001
0010
0100
0000
1000
0010
,
1000
0000
0001
0100
0010
0000
0100
0001
1000
0001
1000
0100
0010
0000
0001
0010
,
0200
1300
0020
0130
0002
0013
0200
1300
,
0001
0000
1000
0000
0010
0000
0100
0001
1000
0001
1000
0010
0100
0000
0001
0010
,
0001
0000
0010
0100
1000
0000
0001
1000
0001
0100
0010
0100
0001
0000
1000
0001
,
1000
0000
0100
0010
0001
0000
1000
0010
1000
0001
0100
0001
1000
0000
0100
1000
,
0100
0000
1000
0001
0100
0000
0010
1000
0010
0100
0001
1000
0001
0000
1000
0010
,
1000
0000
0001
1000
0100
0000
0010
0001
1000
0001
1000
0010
0100
0000
0001
1000
,
0001
0010
0001
0010
0001
0010
0001
0010
0001
0010
0001
0010
0001
0010
0100
1000
,
0100
1000
0100
1000
0100
1000
0100
1000
0001
1000
0001
1000
0001
1000
0001
1000
,
0002
0013
0100
1000
0200
0310
0001
0010
0200
1300
0001
1000
0010
0100
0010
1000
,
0001
0100
0001
1000
0100
1000
0010
0100
0001
1000
0001
1000
0010
0100
0010
1000
,
0002
0103
0001
1000
0002
0103
0001
1000
0002
0103
0010
1000
0100
1000
0001
0100
,
0001
1000
0100
0010
0001
1000
0001
0100
0010
1000
0001
0010
0100
0010
0001
1000
,
0001
0100
0010
0100
0001
1000
0010
1000
0001
0100
0001
0010
0100
1000
0001
1000
,
0010
0100
0001
0100
0010
1000
0001
1000
0100
0010
0001
0010
0001
1000
0001
0100
,
0010
1000
0010
1000
0001
0100
0001
0010
0100
1000
0001
0100
0001
1000
0010
1000
,
0010
0100
0001
0100
0001
1000
0001
0010
0100
0010
0001
1000
0001
1000
0001
1000
,
0002
0103
0010
1000
0020
0130
0001
0100
0020
1030
0010
0100
0001
1000
0001
0100
,
0010
1000
0001
1000
0100
0010
0001
1000
0001
0100
0001
1000
0010
1000
0001
0010
,
0200
1300
0001
1000
0200
1300
0001
1000
0200
1300
0001
1000
0200
0310
0001
1000
,
0001
0100
0010
1000
0001
1000
0010
0100
0001
1000
0001
0010
0100
0010
0100
1000
,
0001
0100
0001
1000
0100
0010
0001
1000
0001
0100
0010
1000
0010
0100
0001
0100
,
0001
1000
0100
0010
0001
0100
0001
1000
0010
1000
0001
0100
0001
0010
0100
1000
,
0001
1000
0001
0100
0010
1000
0001
1000
0100
0010
0100
1000
0001
0100
0001
0100
,
0010
1000
0001
1000
0100
0010
0001
0010
0001
1000
0010
0100
0001
1000
0001
1000
,
0001
0010
0001
0010
0100
1000
0010
1000
0001
1000
0100
0010
0001
1000
0010
0100
,
0001
0010
0001
0010
0100
1000
0001
0100
0001
1000
0001
0010
0100
1000
0001
1000
,
0010
0100
0010
0100
0001
1000
0010
1000
0100
0010
0001
1000
0010
0100
0001
1000
,
0010
1000
0010
1000
0001
0100
0001
0010
0100
1000
0001
0100
0010
1000
0100
0010
,
0001
1000
0001
1000
0010
0100
0001
1000
0001
0010
0100
1000
0001
0100
0010
1000
,
0001
0100
0001
0100
0010
1000
0100
0010
0001
1000
0001
0100
0001
0010
0100
1000
,
0001
1000
0001
1000
0010
0100
0010
1000
0001
1000
0001
0010
0001
1000
0100
0010
,
0001
1000
0100
0010
0100
1000
0001
0100
0010
0100
0001
1000
0001
1000
0001
1000
,
0002
0013
0100
1000
0200
0310
0001
0010
0200
1300
0100
0010
0001
1000
0010
0100
,
0001
1000
0001
1000
0010
0100
0001
1000
0001
0010
0100
1000
0001
0100
0010
1000
,
0001
0100
0001
0100
0010
0100
0001
1000
0001
0010
0100
1000
0001
0010
0001
1000
,
0010
1000
0010
1000
0001
0100
0001
1000
0100
0010
0001
0100
0001
1000
0010
0100
,
0010
1000
0010
1000
0001
0010
0100
0010
0001
1000
0001
0100
0010
1000
0001
0010
,
0100
1000
0100
1000
0001
0100
0001
1000
0010
0100
0001
0010
0100
1000
0001
0100
,
0010
1000
0010
1000
0001
0100
0001
0010
0100
0010
0001
1000
0001
0100
0010
1000
,
0001
1000
0100
0010
0100
1000
0001
0100
0001
0010
0100
1000
0010
1000
0001
0100
,
0001
1000
0010
1000
0001
0010
0100
0010
,
0001
1000
0010
0100
0001
1000
0001
0010
,
0100
1000
0001
0100
0010
0100
0001
1000
,
0100
0010
0001
0100
0010
1000
0100
0010
,
0001
1000
0010
1000
0001
0100
0001
0010
,
0100
1000
0001
1000
0010
0100
0001
0100
,
0001
0010
0100
1000
0001
0100
0010
1000
,
0001
0000
0000
0000
2002
0000
0000
0000
3003
0000
0000
0000
1000
0001
1000
0001
,
0100
0010
1000
0001
0010
0100
0010
0001
,
1000
0010
0100
0001
1000
0001
0010
0100
,
1000
0001
1000
0010
0100
0010
1000
0001
,
0100
0001
0010
0100
1000
0010
0100
0001
,
0010
0001
1000
0001
0100
0010
1000
0010
,
1000
0001
0010
0001
0100
0010
1000
0001
,
0010
0100
0010
0001
1000
0001
0100
0010
,
1000
0000
0001
0000
0010
0000
0002
0000
0000
0000
0103
0000
0010
1000
0010
1000
,
0001
0000
0100
0000
0001
0000
1000
0100
1000
0000
0010
0000
0100
0000
0001
0000
,
1001
0000
1000
0000
0010
0000
0100
0001
0100
0000
0010
0000
1000
0000
0001
0000
,
0011
0000
0010
0000
0100
0000
1000
0100
1000
0000
0001
0000
0100
0000
0010
0000
,
1010
0000
1000
0000
0001
0000
0010
0001
0010
0000
0100
0000
1000
0000
0001
0000
,
M101
0000
0100
0000
0010
0000
1000
0010
1000
0000
0001
0000
0100
0000
0001
0000
,
0011
0000
0010
0000
0100
0000
1000
0001
1000
0000
0010
0000
0100
0000
0010
0000
,
1010
0000
1000
0000
0001
0000
0010
0100
0010
0000
0001
0000
0100
0000
0010
0000
,
1000
0001
1000
0001
1000
0000
0000
0000
,
0100
0000
1000
0000
0001
0000
1000
0010
1000
0000
0100
0000
0010
0000
0001
0000
,
1001
0000
1000
0000
0100
0000
0010
0001
0010
0000
0100
0000
1000
0000
0001
0000
,
0101
0000
0100
0000
0010
0000
1000
0010
1000
0000
0001
0000
0010
0000
0100
0000
,
1100
0000
1000
0000
0001
0000
0100
0001
0100
0000
0010
0000
1000
0000
0001
0000
,
M011
0000
0010
0000
0100
0000
1000
0100
1000
0000
0001
0000
0010
0000
0001
0000
,
0101
0000
0100
0000
0010
0000
1000
0001
1000
0000
0100
0000
0010
0000
0100
0000
,
1100
0000
1000
0000
0001
0000
0100
0010
0100
0000
0001
0000
1000
0000
0001
0000
,
2000
3020
0230
0302
0203
0320
2030
0000
,
3001
2002
3003
0000
,
2000
3100
0010
0001
0020
0130
1000
0100
0020
0031
1000
0001
0100
0010
0100
0001
,
1000
0010
1000
0001
0010
0001
0100
0010
1000
0001
1000
0001
0100
0010
0100
0001
,
2000
3010
1000
0001
2000
3010
1000
0001
2000
3010
0100
0001
0010
0001
1000
0010
,
1000
0001
0010
0100
1000
0001
1000
0010
0100
0001
1000
0100
0010
0100
1000
0001
,
1000
0010
0100
0010
1000
0001
0100
0001
1000
0010
1000
0100
0010
0001
1000
0001
,
0100
0010
1000
0010
0100
0001
1000
0001
0010
0100
1000
0100
1000
0001
1000
0010
,
0100
0001
0100
0001
1000
0010
1000
0100
0010
0001
1000
0010
1000
0001
0100
0001
,
0100
0010
1000
0010
1000
0001
1000
0100
0010
0100
1000
0001
1000
0001
1000
0001
,
2000
3010
0100
0001
0200
0310
1000
0010
0200
0301
0100
0010
1000
0001
1000
0100
,
0010
0001
1000
0001
0010
0100
1000
0001
1000
0010
1000
0001
0100
0001
1000
0100
,
0020
0031
1000
0001
0020
0031
1000
0001
0020
0031
1000
0001
0020
0130
1000
0001
,
1000
0010
0100
0001
1000
0001
0100
0010
1000
0001
1000
0010
0100
0010
0100
0001
,
1000
0010
1000
0001
0010
0100
1000
0001
1000
0010
0100
0001
0100
0010
1000
0010
,
1000
0001
0010
0100
1000
0010
1000
0001
0100
0001
1000
0010
1000
0100
0010
0001
,
1000
0001
1000
0010
0100
0001
1000
0001
0010
0100
0010
0001
1000
0010
1000
0010
,
0100
0001
1000
0001
0010
0100
1000
0100
1000
0001
0100
0010
1000
0001
1000
0001
,
1000
0100
1000
0100
0010
0001
0100
0001
1000
0001
0010
0100
1000
0001
0100
0010
,
1000
0100
1000
0100
0010
0001
1000
0010
1000
0001
1000
0100
0010
0001
1000
0001
,
0100
0010
0100
0010
1000
0001
0100
0001
0010
0100
1000
0001
0100
0010
1000
0001
,
0100
0001
0100
0001
1000
0010
1000
0100
0010
0001
1000
0010
0100
0001
0010
0100
,
1000
0001
1000
0001
0100
0010
1000
0001
1000
0100
0010
0001
1000
0010
0100
0001
,
1000
0010
1000
0010
0100
0001
0010
0100
1000
0001
1000
0010
1000
0100
0010
0001
,
1000
0001
1000
0001
0100
0010
0100
0001
1000
0001
1000
0100
1000
0001
0010
0100
,
1000
0001
0100
0010
0100
0001
1000
0001
0010
0100
1000
0001
1000
0001
1000
0001
,
2000
3100
0010
0001
0020
0130
1000
0100
0020
0031
0010
0100
2000
3100
0010
0001
,
1000
0001
1000
0010
0100
0010
1000
0001
1000
0100
0010
0001
1000
0010
0100
0001
,
1000
0010
1000
0010
0100
0010
1000
0001
1000
0100
0010
0001
1000
0100
1000
0001
,
0100
0001
0100
0001
1000
0010
1000
0001
0010
0100
1000
0010
1000
0001
0100
0010
,
0100
0001
0100
0001
1000
0100
0010
0100
1000
0001
1000
0010
0100
0001
1000
0100
,
0010
0001
0010
0001
1000
0010
1000
0001
0100
0010
1000
0100
0010
0001
0100
0010
,
1000
0001
0010
0100
1000
0001
0010
0100
1000
0001
0010
0100
1000
0001
0010
0100
,
2000
3002
2003
3200
0000
0320
0032
2003
,
3020
0000
0000
0000
0030
1000
0001
0100
,
0001
1000
0100
1000
0001
0100
0001
1000
,
0001
0100
0010
0100
0001
1000
0001
0010
,
0100
1000
0001
0100
0010
0100
0001
0010
,
0100
1000
0001
2000
0000
3010
0100
0001
,
1000
0001
0010
0200
0000
1300
0001
0010
,
0001
1000
0010
0200
0000
0301
1000
0010
,
1000
0100
0010
0002
0000
1003
0010
0100
,
0010
1000
0001
0100
0001
0010
0100
1000
,
0001
0100
0001
1000
0100
0010
0100
1000
,
0001
0100
0010
1000
0001
1000
0100
0010
,
0001
1000
0001
0100
0010
0100
0001
1000
,
0001
0100
0010
2000
0000
3001
0010
0100
,
0010
0001
0100
0020
0000
1030
0001
0100
,
0001
1000
0100
0020
0000
0031
1000
0010
,
0100
0001
1000
0002
0000
0013
0100
1000
,
0001
0100
0010
1000
0100
0010
0001
0100
,
0010
1000
0001
0100
0001
1000
0100
0010
,
0001
1000
0010
1000
0100
1000
0001
0100
,
0010
1000
0001
0100
0001
1000
0100
1000
,
0010
0100
0001
2000
0000
3001
0010
0100
,
0010
0001
0100
0020
0000
1030
0001
0100
,
0001
1000
0100
0020
0000
0031
1000
0001
,
0100
0010
1000
0200
0000
1300
0010
0100
,
0001
1000
0001
1000
0100
0010
0001
0100
,
0001
1000
0001
1000
0100
0010
0001
0100
,
0001
1000
0001
1000
0100
0010
0001
0100
,
0001
1000
0001
1000
0100
0010
0001
0100
,
0001
1000
0001
1000
0001
1000
0001
1000
0001
1000
0001
1000
0001
1000
0001
1000
,
0001
1000
0001
1000
0001
1000
0001
1000
0001
1000
0001
1000
0001
1000
0001
1000
,
0004
4000
0000
0000
0000
0000
0000
0000
0000
0000
0000
0000
0000
0000
0000
0000
0000
0000
0000
0000
0000
0000
0000
0000
,
0000
0000
0000
0000
,
3MM3
0000
0000
0000
,
0002
0000
0203
0000
0320
0000
2030
0000
3200
0000
0320
0000
0031
1000
0001
1000
,
0001
0010
0100
1000
0200
0310
0001
0010
0200
1300
0001
1000
0010
0100
0010
1000
,
0001
0100
0001
1000
0100
1000
0010
0100
0001
1000
0001
1000
0010
0100
0010
1000
,
0002
0103
0001
1000
0002
0103
0001
1000
0002
0103
0010
1000
0100
1000
0001
0100
,
0001
1000
0100
0010
0001
1000
0001
0100
0010
1000
0001
0010
0100
0010
0001
1000
,
0001
0100
0010
0100
0001
1000
0010
1000
0001
0100
0001
0010
0100
1000
0001
1000
,
0010
0100
0001
0100
0010
1000
0001
1000
0100
0010
0001
0010
0001
1000
0001
0100
,
0010
1000
0010
1000
0001
0100
0001
0010
0100
1000
0001
0100
0001
1000
0010
1000
,
0010
0100
0001
0100
0001
1000
0001
0010
0100
0010
0001
1000
0001
1000
0001
1000
,
0002
0103
0010
1000
0020
0130
0001
0100
0020
1030
0010
0100
0001
1000
0001
0100
,
0010
1000
0001
1000
0100
0010
0001
1000
0001
0100
0001
1000
0010
1000
0001
0010
,
0200
1300
0001
1000
0200
1300
0001
1000
0200
1300
0001
1000
0200
0310
0001
1000
,
0001
0100
0010
1000
0001
1000
0010
0100
0001
1000
0001
0010
0100
0010
0100
1000
,
0001
0100
0001
1000
0100
0010
0001
1000
0001
0100
0010
1000
0010
0100
0001
0100
,
0001
1000
0100
0010
0001
0100
0001
1000
0010
1000
0001
0100
0001
0010
0100
1000
,
0001
1000
0001
0100
0010
1000
0001
1000
0100
0010
0100
1000
0001
0100
0001
0100
,
0010
1000
0001
1000
0100
0010
0001
0010
0001
1000
0010
0100
0001
1000
0001
1000
,
0001
0010
0001
0010
0100
1000
0010
1000
0001
1000
0100
0010
0001
1000
0010
0100
,
0001
0010
0001
0010
0100
1000
0001
0100
0001
1000
0001
0010
0100
1000
0001
1000
,
0010
0100
0010
0100
0001
1000
0010
1000
0100
0010
0001
1000
0010
0100
0001
1000
,
0010
1000
0010
1000
0001
0100
0001
0010
0100
1000
0001
0100
0010
1000
0100
0010
,
0001
1000
0001
1000
0010
0100
0001
1000
0001
0010
0100
1000
0001
0100
0010
1000
,
0001
0100
0001
0100
0010
1000
0100
0010
0001
1000
0001
0100
0001
0010
0100
1000
,
0001
1000
0001
1000
0010
0100
0010
1000
0001
1000
0001
0010
0001
1000
0100
0010
,
0001
1000
0010
0100
0010
1000
0001
0010
0001
0010
0100
1000
0010
0100
0001
1000
,
0002
0013
0100
1000
0200
0310
0001
0010
0200
1300
0100
0010
0001
1000
0010
0100
,
0001
1000
0001
1000
0010
0100
0001
1000
0001
0010
0100
1000
0001
0100
0010
1000
,
0001
0100
0001
0100
0010
0100
0001
1000
0001
0010
0100
1000
0001
0010
0001
1000
,
0010
1000
0010
1000
0001
0100
0001
1000
0100
0010
0001
0100
0001
1000
0010
0100
,
0010
1000
0010
1000
0001
0010
0100
0010
0001
1000
0001
0100
0010
1000
0001
0010
,
0100
1000
0100
1000
0001
0100
0001
1000
0010
0100
0001
0010
0100
1000
0001
0100
,
0010
1000
0010
1000
0001
0100
0001
0010
0100
0010
0001
1000
0001
0100
0001
0100
,
M010
M010
M010
0000
,
2000
3010
0100
0001
0200
0310
1000
0010
0200
0301
1000
0001
0010
0100
0010
0001
,
1000
0001
0100
0010
1000
0001
1000
0100
0010
0001
0100
0001
1000
0010
0100
0001
,
0020
0130
1000
0100
0020
0130
1000
0100
0020
0130
1000
0100
0010
0001
1000
0001
,
0100
0010
1000
0010
1000
0001
0100
0001
0010
0100
1000
0001
0100
0001
1000
0010
,
1000
0100
1000
0001
0100
0010
1000
0001
1000
0010
0100
0001
1000
0001
0010
0100
,
1000
0001
0100
0001
1000
0010
1000
0001
1000
0001
0010
0100
0010
0001
1000
0010
,
0100
0001
1000
0001
0010
0100
1000
0010
1000
0001
0100
0010
1000
0001
0010
0001
,
1000
0010
0100
0001
1000
0010
1000
0001
0100
0010
1000
0001
1000
0001
1000
0001
,
0020
0130
1000
0100
0020
0031
0010
0100
2000
3100
0010
0001
1000
0001
0100
0010
,
1000
0001
0100
0001
0010
0100
1000
0001
0100
0010
1000
0001
1000
0001
0100
0010
,
2000
3001
1000
0010
2000
3001
1000
0010
2000
3001
1000
0100
0010
0001
1000
0001
,
0100
0010
0100
0001
1000
0100
1000
0001
0100
0010
1000
0001
0010
0100
0010
0100
,
1000
0001
0100
0010
1000
0001
0100
0001
1000
0100
0010
0100
1000
0001
0100
0001
,
0100
0010
1000
0001
1000
0100
0010
0001
1000
0001
0100
0010
1000
0010
1000
0001
,
1000
0100
0010
0001
1000
0100
0010
0001
1000
0100
0010
0001
1000
0100
0010
0001
,
1000
0011
1000
0101
,
0010
1010
1000
0110
,
2002
0000
0000
0000
,
3003
0000
0000
0000
;
