#TITLE:Wily Stages 2;
#SUBTITLE:(Megaman 3);
#ARTIST:Capcom Sound Team;
#TITLETRANSLIT:;
#SUBTITLETRANSLIT:;
#ARTISTTRANSLIT:;
#CREDIT:Megaman 3(Capcom);
#BANNER:Wily Stage 2-banner.GIF;
#BACKGROUND:Wilycap.png;
#LYRICSPATH:;
#CDTITLE:PhoenixW-cdtitle.JPG;
#MUSIC:19 - Wily Stages 2.mp3;
#OFFSET:-0.448;
#SAMPLESTART:40.382;
#SAMPLELENGTH:12.000;
#SELECTABLE:YES;
#BPMS:0.000=150.247;
#STOPS:;
#BGCHANGES:;
// cache tags:
#FIRSTBEAT:3.000;
#LASTBEAT:214.500;
#SONGFILENAME:Songs/keyboard/19 - Wily Stages 2/19 - Wily Stages 2.sm;
#HASMUSIC:1;
#HASBANNER:1;
#MUSICLENGTH:89.085;
// end cache tags

//---------------dance-single - ----------------
#NOTES:
     dance-single:
     :
     Challenge:
     10:
     0.866,0.752,0.516,0.000,0.763,494.000,46.000,0.000,0.000,0.000:
0000
0000
0000
1001
,
0110
0000
0000
1010
0000
0101
0000
1000
,
0010
0100
0010
1000
0001
0010
1001
0000
,
0101
0000
0000
0011
0000
1100
0000
0010
,
0100
0001
0100
0010
1000
0001
0110
0000
,
1010
0000
0000
1001
0000
0110
0000
0000
,
0000
0000
1000
0001
0100
0010
0100
0000
0001
0000
0010
0000
0101
0000
0000
0000
,
1001
0000
0000
1100
0000
0101
1001
0000
,
0000
0000
1000
0100
0010
0001
0000
0000
0000
0000
0000
0000
1000
0000
0001
0000
,
1000
0000
0010
0000
0100
0001
0100
0001
0010
0100
1000
0001
1000
0000
0010
0000
,
0001
0000
0010
0000
1000
0100
1000
0100
0010
0001
1000
0010
1000
0000
0100
0000
,
0010
0000
0001
0000
1000
0010
0100
0001
1000
0001
0100
0010
1000
0000
0100
0000
,
0001
0000
0010
0000
1000
0001
1000
0001
0010
0100
1000
0010
1000
0000
0100
0000
,
0001
0000
0100
0000
1000
0001
0010
0100
1000
0100
0010
0001
1000
0000
0010
0000
,
0100
0000
0001
0000
0010
1000
0100
0001
0100
1000
0010
0100
0001
0000
1000
0000
,
0001
0000
0010
0000
0100
1000
0100
1000
0010
0100
0001
0010
0001
0000
1000
0000
,
0100
0000
0010
0000
0001
1000
0010
0100
1000
0010
0100
0001
1000
0000
0010
0000
,
0100
0000
0010
0000
1000
0001
1000
0001
0100
0010
1000
0100
1000
0000
0001
0000
,
0010
0000
0100
0000
1000
0010
0100
0001
0100
0010
1000
0001
0100
0000
0010
0000
,
1000
0000
0001
0000
0100
0010
0100
0010
1000
0100
0001
1000
0001
0000
0100
0000
,
0001
0000
0100
0000
0010
1000
0001
0010
0100
0001
1000
0100
0010
0000
0001
0000
,
1000
0000
0010
0000
0001
1000
0100
0010
0100
0001
0010
0100
1000
0000
0100
0000
,
0010
0000
0100
0000
1000
0001
1000
0001
0100
0010
1000
0100
1000
0000
0100
0000
,
0010
0000
1000
0000
0001
0100
0010
0001
1000
0100
0010
0001
1000
0000
0010
0000
,
0100
0000
0001
0000
1000
0010
0100
0001
1000
0100
0010
0001
1001
0000
0000
0000
,
1010
0000
0000
0110
0000
0011
0000
0001
,
0010
1000
0010
0001
0100
0010
1100
0000
,
0011
0000
0000
1001
0000
0101
0000
0010
,
1000
0100
0001
0100
1000
0001
0110
0000
,
1001
0000
0000
1100
0000
1010
0000
0000
,
0000
0000
0001
1000
0100
1000
0010
0000
0100
0000
0001
0000
0110
0000
0000
0000
,
0101
0000
0000
0011
0000
0110
1001
0000
,
0000
0000
0001
0100
0010
1000
0000
0000
0000
0000
0000
0000
0001
0000
1000
0000
,
0001
0000
0100
0000
0010
1000
0010
1000
0100
0010
0001
1000
0001
0000
0100
0000
,
1000
0000
0100
0000
0001
0010
0001
0010
0100
1000
0001
0100
0001
0000
0010
0000
,
0100
0000
1000
0000
0001
0100
0010
1000
0001
1000
0010
0100
0001
0000
0010
0000
,
1000
0000
0100
0000
0001
1000
0001
1000
0100
0010
0001
0100
0001
0000
0010
0000
,
1000
0000
0010
0000
0001
1000
0100
0010
0001
0010
0100
1000
0001
0000
0100
0000
,
0010
0000
1000
0000
0100
0001
0010
1000
0010
0001
0100
0010
1000
0000
0001
0000
,
1000
0000
0100
0000
0010
0001
0010
0001
0100
0010
1000
0100
1000
0000
0001
0000
,
0010
0000
0100
0000
1000
0001
0100
0010
0001
0100
0010
1000
0001
0000
0100
0000
,
0010
0000
0100
0000
0001
1000
0001
1000
0010
0100
0001
0010
0001
0000
1000
0000
,
0100
0000
0010
0000
0001
0100
0010
1000
0010
0100
0001
1000
0010
0000
0100
0000
,
0001
0000
1000
0000
0010
0100
0010
0100
0001
0010
1000
0001
1000
0000
0010
0000
,
1000
0000
0010
0000
0100
0001
1000
0100
0010
1000
0001
0010
0100
0000
1000
0000
,
0001
0000
0100
0000
1000
0001
0010
0100
0010
1000
0100
0010
0001
0000
0010
0000
,
0100
0000
0010
0000
0001
1000
0001
1000
0010
0100
0001
0010
0001
0000
0010
0000
,
0100
0000
0001
0000
1000
0010
0100
1000
0001
0010
0100
1000
0001
0000
0100
0000
,
0010
0000
1000
0000
0001
0100
0010
1000
0001
0010
0100
1000
1001
0000
0000
0000
,
0110
0000
0000
0011
0000
1010
0000
1000
,
0100
0010
0100
1000
0001
0100
1100
0000
,
0110
0000
0000
1001
0000
0101
0000
1000
,
0010
0100
1000
0100
0010
0001
1010
0000
,
1001
0000
0000
0011
0000
0110
0000
0000
;
