#TITLE:SkywardFire;
#SUBTITLE:;
#ARTIST:GT Interactive;
#TITLETRANSLIT:;
#SUBTITLETRANSLIT:;
#ARTISTTRANSLIT:;
#CREDIT:;
#BANNER:skywardfire-bn.png;
#BACKGROUND:skywardfire-bg.png;
#LYRICSPATH:;
#CDTITLE:audioslave'srevenge-Blades of Fury-cdtitle.png;
#MUSIC:SkywardFire(recut).mp3;
#OFFSET:-0.020;
#SAMPLESTART:32.459;
#SAMPLELENGTH:15.000;
#SELECTABLE:YES;
#BPMS:0.000=136.120,256.000=68.060;
#STOPS:;
#BGCHANGES:;
// cache tags:
#FIRSTBEAT:0.000;
#LASTBEAT:256.000;
#SONGFILENAME:Songs/toune 3/SkywardFire/sky.sm;
#HASMUSIC:1;
#HASBANNER:1;
#MUSICLENGTH:127.093;
// end cache tags

//---------------dance-single - ----------------
#NOTES:
     dance-single:
     :
     Hard:
     8:
     0.595,0.554,0.535,0.275,0.212,426.000,68.000,35.000,0.000,0.000:
1000
0100
0010
0000
1000
0010
0001
0000
,
1000
0100
1000
0010
0001
0010
0100
0000
,
0001
0010
0001
0000
0010
1000
0010
0000
,
1000
0000
0100
0010
0100
0000
1000
0000
0010
0000
0001
0000
0010
0000
0000
0000
,
0100
0010
0001
0000
0001
0010
0100
0000
,
1000
0100
0010
0100
1000
0100
0010
0000
,
0001
0000
0100
0000
0010
0000
1000
0000
0010
0001
0010
0000
0100
0000
0000
0000
,
1000
0000
0100
0000
0010
0000
0100
0000
1000
0100
1000
0000
0100
0000
0000
0000
,
1000
0000
0100
0000
0101
0000
0000
0101
0000
0000
0101
0000
0000
0000
0010
0000
,
0100
0000
1000
0000
1010
0000
0000
1010
0000
0000
2020
0000
0000
0000
3030
0000
,
0001
0000
0100
0000
1100
0000
0000
1100
0000
0000
1100
0000
0000
0000
0010
0000
,
0001
0000
0010
0000
0011
0000
0000
0011
0000
0000
0022
0000
0000
0000
0033
0000
,
1000
0100
1000
0000
0110
0000
0000
1010
0000
0000
0110
0000
0000
0000
0010
0000
,
0001
0100
0001
0000
0110
0000
0000
0101
0000
0000
0220
0000
0000
0000
0330
0000
,
0010
0001
0010
0000
1001
0000
0000
0110
0000
0000
1001
0000
0000
0000
0010
0000
,
0010
1000
0010
0000
1001
0000
0000
0110
0000
0000
2001
0000
0000
0000
3100
0000
,
0010
0000
0100
0000
2010
0000
0000
0100
0000
0000
3001
0000
0100
0010
0000
0010
,
0100
0000
1000
0000
0120
0000
0000
1030
0000
0000
0210
0000
0000
0000
0300
0000
,
0001
0000
0010
0000
0201
0000
0000
0010
0000
0000
0301
0000
0010
0100
0000
1000
,
0010
0000
0100
0000
0210
0000
0000
1300
0000
0000
0102
0000
0000
0000
0103
0000
,
1000
0000
0100
0000
1100
0000
0000
0110
0000
0000
0011
0000
0100
0010
0000
0001
,
0010
0000
0100
0000
1002
0000
0003
0010
0000
0000
0120
0000
0000
0000
0000
0000
,
1030
0000
0100
0000
1010
0000
0000
0110
0000
0000
1010
0000
1000
0100
0000
0100
,
1000
0000
0100
0000
0010
0000
0001
0000
0010
0000
0001
0000
0010
0000
0100
0010
,
0001
0010
0001
0000
0010
1000
0010
0000
,
1000
0100
1000
0000
1000
0100
0001
0000
,
0010
0100
0001
0010
0100
0010
1000
0000
,
1000
0100
0010
0001
0010
0100
0001
0000
,
0010
1000
0100
0000
0100
1000
0010
0000
,
0001
0010
0100
0000
0100
0010
0001
0000
,
0010
0001
1000
0100
0001
0010
1000
0000
,
0100
0000
0010
0000
0001
0000
0010
0000
0100
0000
1000
0000
0100
0000
0010
0100
,
0010
0000
1010
0000
0100
0010
0001
0000
,
0010
0100
1000
0000
0120
0000
0031
0000
,
0210
0000
1300
0000
0100
0010
0100
0000
,
1000
0100
1000
0100
0010
0001
0010
0000
,
0110
0000
0201
0300
1020
0130
1000
0000
,
0210
0000
0310
0000
0102
1000
0013
0000
,
0120
0000
0031
0000
0010
0100
1000
0000
,
1020
0000
0000
0000
0130
0000
0000
0000
0001
0000
0010
0000
0100
0000
0010
0100
,
2000
0000
0000
0000
3100
0000
0010
0001
0020
0000
0130
0000
0000
0000
2000
0000
,
3100
0000
0000
0000
0010
0000
0001
1000
0001
0000
0200
0000
0000
0000
0310
0000
,
0001
0000
0000
0000
0010
0000
1000
0100
1000
0000
0120
0000
0000
0000
0031
0000
,
0100
0000
0000
0000
0010
0000
0001
0100
0001
0000
1002
0000
0000
0000
0013
0000
,
0100
0000
1000
0000
0100
0000
0010
0100
0010
0000
0101
0000
0000
0000
1000
0000
,
0100
0000
0010
0000
0100
0000
0010
0001
0100
0000
1010
0000
0000
0000
0100
0000
,
0010
0000
0001
0000
0010
0000
0100
0001
0100
0000
1100
0000
0000
0000
0100
0000
,
1000
0000
0100
0000
0010
0000
0001
0100
1000
0000
1010
0000
0000
0000
1000
0000
,
0010
0000
0100
0000
0010
0000
0000
0001
0010
0000
0100
0000
0001
0000
0000
0000
,
0010
0000
0100
0000
1000
0000
0000
1000
0100
0000
0010
0000
0100
0000
0010
0000
,
0001
0000
0010
0000
0100
0000
0000
1000
0100
0000
0100
0000
1000
0000
0000
0000
,
1000
0000
0100
0000
0001
0000
0000
0010
0001
0000
0010
0000
0100
0000
0001
0000
,
0010
0000
0100
0000
1000
0000
0000
0100
0010
0000
0100
0000
0001
0000
0000
0000
,
0010
0000
0010
0000
0010
0000
0000
0100
1000
0000
0100
0000
0010
0000
0001
0000
,
0010
0000
0100
0000
0010
0000
0000
0001
0010
0000
0100
0000
1000
0000
0000
0000
,
0100
0000
1000
0000
0100
0000
0000
0010
0001
0000
0010
0000
0100
0000
0010
0000
,
1001
0000
1010
0000
1100
0021
0000
0000
,
0031
0000
0101
0000
0011
1200
0000
0000
,
1300
0000
0000
0000
1010
0000
0000
0000
0110
0000
0020
0000
0000
0000
0000
0100
,
1030
0100
0010
0001
0010
0001
0010
0100
,
0011
0000
0101
0000
0110
0002
0000
0000
,
1003
0000
1010
0000
0110
2000
0000
0000
,
3100
0000
0001
0010
0100
0000
1000
0100
0010
0000
0010
0100
1000
0000
0100
0010
,
0001
0000
0001
0000
0010
2000
0000
0000
,
3001
0000
0000
0000
;
