#TITLE:Black Sheep;
#SUBTITLE:(GF&DM Cover);
#ARTIST:Thomas Howard Lichtenstein;
#TITLETRANSLIT:;
#SUBTITLETRANSLIT:;
#ARTISTTRANSLIT:;
#CREDIT:;
#BANNER:Black Sheep-banner.png;
#BACKGROUND:Black Sheep-bg.png;
#LYRICSPATH:Black Sheep.lrc;
#CDTITLE:Sulfer Dragon-cdtitle.png;
#MUSIC:43 - Black Sheep.mp3;
#OFFSET:0.944;
#SAMPLESTART:48.500;
#SAMPLELENGTH:14.000;
#SELECTABLE:YES;
#BPMS:0.000=200.001;
#STOPS:;
#BGCHANGES:4.000=Black Sheep-video.avi=1.000=0=0=1,
359.000=Black Sheep-bg.png=1.000=0=0=1,
99999=-nosongbg-=1.000=0=0=0 // don't automatically add -songbackground-
;
// cache tags:
#FIRSTBEAT:4.000;
#LASTBEAT:359.000;
#SONGFILENAME:Songs/toune 4/Black Sheep (GF&DM Cover)/43 - Black Sheep.sm;
#HASMUSIC:1;
#HASBANNER:1;
#MUSICLENGTH:109.424;
// end cache tags

//---------------dance-single - ----------------
#NOTES:
     dance-single:
     :
     Hard:
     13:
     1.000,1.000,0.110,0.219,1.000,878.000,12.000,24.000,0.000,0.000:
0000
0000
0000
0000
,
0000
0000
0000
0000
0000
0000
0000
0000
0000
0000
0000
0000
1000
0100
1000
0000
,
0010
0000
0100
0000
0001
0000
0010
0000
0100
1000
0100
0000
0010
0000
0001
0000
,
0100
0000
0010
0000
1000
0100
1000
0000
0001
0000
0010
0000
1000
0000
0010
0000
,
0001
0100
0001
0000
1000
0010
1000
0000
0001
0000
1000
0000
0010
0100
0010
0000
,
1000
0000
0001
0000
0010
0000
0100
0000
1000
0010
1000
0000
0001
0000
0100
0000
,
0010
0000
1000
0000
0001
0010
0001
0000
1000
0000
0100
0000
0001
0000
0100
0000
,
1000
0001
1000
0000
0010
0100
0010
0000
1000
0000
0001
0000
0100
0010
0100
0000
,
0010
0000
1000
0000
0001
0000
0010
0000
0100
0010
0100
0000
0010
0000
0001
0000
,
1000
0000
0010
0000
0100
0010
0100
0000
0001
0000
0100
0000
1000
0000
0100
0000
,
0001
0010
0001
0000
1000
0010
1000
0000
0001
0000
0010
0000
0100
1000
0100
0000
,
0010
0000
0001
0000
1000
0000
0100
0000
0010
0001
0010
0000
0100
0000
1000
0000
,
0010
0000
0100
0000
0001
0010
0100
0000
1000
0000
0010
0000
0001
0000
0010
0000
,
1000
0001
0100
0000
0010
1000
0001
0000
0100
0000
0010
0000
0100
0000
0001
0000
,
0100
0001
0100
0010
1000
0001
0010
0001
,
0100
0000
0010
0000
1000
0100
0000
0000
0100
0010
0000
0000
0010
0001
0000
0000
,
0001
0100
0000
0000
0100
0001
0000
0000
0001
0010
0000
0000
0010
1000
0000
0000
,
1000
0010
0000
0000
0010
0001
0000
0000
0001
0100
0000
0000
0100
0010
0000
0000
,
0010
1000
0000
0000
1001
0000
0000
0000
0001
1000
0000
0000
0001
1000
0000
0000
,
1001
0000
0000
0000
0100
0010
0000
0000
0100
0010
0000
0000
0110
0000
0000
0000
,
1000
0100
0000
0000
0010
0001
0000
0000
0110
0000
0000
0000
1000
0000
0000
0000
,
0001
0000
0000
0000
0100
0010
0000
0000
0010
1000
0000
0000
1000
0100
0000
0000
,
0100
0001
0000
0000
0001
0100
0000
0000
0100
0010
0000
0000
0010
1000
0000
0000
,
1000
0001
0000
0000
0001
0010
0000
0000
0010
1000
0000
0000
1000
0010
0000
0000
,
0010
0001
0000
0000
0110
0000
0000
0100
0001
0000
0000
0001
0100
0000
0000
0000
,
0011
0000
0000
0000
1000
0100
0000
0000
0100
1000
0000
0000
1010
0000
0000
0000
,
0001
0100
0000
0000
1000
0010
0000
0000
1001
0000
0000
0000
0100
0000
0000
0000
,
0010
0000
1000
0100
1000
0100
1000
0100
,
1000
0001
0010
0100
1000
0001
0100
0010
,
1000
0100
1000
0100
1000
0100
1000
0010
,
0100
0001
0010
0100
1000
0100
0010
0001
,
1000
0100
0010
0001
1000
0100
0010
0001
,
1000
0010
0001
0100
1000
0010
0100
0001
,
0010
0100
2000
0000
0100
0000
0010
0000
,
0001
0010
0100
0010
,
0001
3002
0100
0010
,
0100
1000
0100
0010
,
1000
2003
0010
3020
,
0100
0230
0001
0302
,
0000
0000
1003
0100
0001
0010
1000
0100
,
0010
0001
1000
0010
0001
0100
1000
0010
,
0100
0001
0200
0000
0010
0000
0001
0000
,
1000
0010
0001
1000
,
0010
0320
0100
1000
,
0001
0100
1000
0001
,
0100
0000
0130
0001
0100
0001
0100
0001
,
0100
0001
1000
0010
1000
0010
1000
0010
,
1000
0010
1000
0001
1000
0001
1000
0001
,
1000
0000
2002
0000
0000
0000
0000
0003
,
3100
0000
0010
0000
0001
0100
0001
0100
0001
0010
0001
0010
0001
0100
0001
0100
,
0001
1000
0001
1000
0001
0010
0001
0010
0001
0100
0001
0100
0001
1000
0001
1000
,
0001
0010
0100
1000
0010
0100
0010
0100
0010
1000
0010
1000
0010
0100
0010
0100
,
0010
0001
0010
0001
0010
0100
0010
0100
0010
0001
0010
0001
0010
0100
0010
0100
,
0010
1000
0010
1000
0010
0100
1000
0001
0010
0100
1000
0100
0010
0001
1000
0001
,
0100
0010
1000
0010
0100
0001
0010
0001
0100
0010
1000
0010
0100
0001
0010
0100
,
1000
0001
0010
0001
0100
0010
1000
0010
0100
0001
1000
0010
0100
0001
0100
0010
,
1000
0001
0010
0001
1000
0010
0100
0010
1000
0001
1000
0010
1000
0001
0100
0001
,
0010
0100
1000
0001
1000
0010
1000
0010
1000
0100
1000
0010
1000
0001
1000
0001
,
1000
0010
1000
0100
1000
0001
1000
0001
1000
0010
1000
0001
1000
0100
1000
0100
,
1000
0010
1000
0100
1000
0001
1000
0010
1000
0001
1000
0001
1000
0010
1000
0100
,
1000
0010
1000
0010
1000
0100
1000
0001
1000
0100
1000
0100
1000
0010
1000
0100
,
1000
0001
0010
0100
1000
0010
0100
0010
1000
0001
0010
0001
0100
0010
1000
0010
,
0100
0001
1000
0001
0100
0010
1000
0010
0100
0001
0010
0001
1000
0100
0010
0100
,
1000
0010
0100
0010
1000
0001
0010
0001
0100
0010
1000
0100
0010
0001
1000
0001
,
0010
1000
0100
1000
0010
0100
0001
1000
0002
0000
0000
0000
0023
0000
0000
0000
,
0230
0000
0000
0000
1300
0001
1000
0001
1000
0001
1000
0001
1000
0001
1000
0001
,
2000
0000
0000
0000
0000
0000
0000
0000
3001
0010
0100
1000
0001
0010
0100
1000
,
0001
0010
0100
1000
0002
0000
0000
0000
0000
0000
0000
0000
0000
0000
2003
0000
,
0000
0000
0000
0000
3001
0010
0001
1000
0100
1000
0001
0010
0001
1000
0100
1000
,
0010
0100
0001
0010
0002
0000
0000
0000
2000
0000
0000
0000
0000
0000
0000
0000
,
0000
0000
0003
0000
3010
0100
0010
1000
0100
1000
0001
0010
0001
0100
0010
0100
,
0001
0010
0100
1000
0001
0100
0010
1000
0010
0100
0001
0100
0010
1000
0010
0100
,
0001
0010
0100
1000
0010
0100
0001
1000
0001
0100
0010
1000
0100
0010
0001
0010
,
0100
1000
0100
0010
0001
1000
0001
1000
0100
0010
0100
0010
0001
0100
0001
0100
,
0010
1000
0010
1000
0100
0010
0001
1000
0100
0010
0001
1000
0100
0010
0001
1000
,
0001
0100
0010
0100
0001
0010
0100
1000
0001
0100
0010
1000
0001
0010
0100
1000
,
0001
1000
0100
0010
0001
1000
0010
0100
0001
1000
0100
0010
0002
0000
0000
0000
,
0000
0000
0000
0000
1003
0100
1000
0010
1000
0100
0010
0001
1000
0010
1000
0100
,
1000
0010
0100
0001
0010
0100
1000
0010
0100
0001
0100
0010
0100
0001
0010
0100
,
2000
0000
0000
0000
3001
0010
0001
0010
0100
1000
0100
1000
0001
1000
0001
1000
,
0010
1000
0100
0000
0010
0000
0001
1000
0001
0000
0100
0000
0020
0000
0000
0000
,
0000
0000
0130
0101
0000
0100
0001
1000
,
0010
1000
0100
0010
0001
0000
1000
1010
,
0000
1000
0010
0100
0001
1000
0100
0010
,
0001
1000
0100
0001
0010
0100
0020
0000
,
0000
0000
0000
0000
1030
0100
0010
0001
1000
0010
0100
0001
1000
0100
0010
0001
,
0010
0100
1000
0001
0100
0010
1000
0001
0010
0100
1000
0100
0010
0001
0010
0100
,
1000
0100
0010
0001
0010
0100
1000
0010
0100
0001
0100
0010
1000
0010
0100
0001
,
0010
0100
1000
0010
0100
0001
0010
0100
1000
0100
0010
0001
0010
0100
1000
0001
,
0010
0100
1000
0000
0220
0000
0000
0000
0000
0000
0000
0000
0330
0000
0000
0000
;

//---------------dance-single - ----------------
#NOTES:
     dance-single:
     :
     Challenge:
     15:
     1.000,1.000,0.941,0.311,1.000,967.000,103.000,34.000,0.000,4.000:
0000
0000
0000
0000
,
0000
0000
0000
0000
0000
0000
0000
0000
0000
0000
0000
0000
1000
0001
0100
0000
,
0010
0000
1000
0000
1001
0000
0010
0000
0100
1000
0010
0000
0101
0000
0010
0000
,
1000
0000
0001
0000
0010
0100
1000
0000
0001
0000
0010
0000
1100
0000
0010
0000
,
0001
0100
0010
0000
1000
0100
0010
0000
0001
0000
1000
0000
0100
0010
0001
0000
,
1000
0000
0100
0000
0011
0000
0100
0000
1000
0010
0100
0000
1001
0000
0100
0000
,
0010
0000
1000
0000
0100
0010
0001
0000
1000
0000
0010
0000
0101
0000
0010
0000
,
1000
0100
0010
0000
0100
0010
0001
0000
1000
0000
0001
0000
1010
0100
1000
0000
,
0010
0000
1000
0000
0101
0000
0010
0000
0100
1000
0001
0000
0110
0000
1000
0000
,
0001
0000
0010
0000
0100
1000
0010
0000
0100
0000
0001
0000
1010
0000
0100
0000
,
1000
0010
0100
0000
0001
0010
0100
0000
1000
0000
0001
0000
0010
0100
1000
0000
,
0001
0000
0100
0000
0011
0000
1000
0000
0010
0100
0001
0000
1010
0000
0100
0000
,
1000
0000
0001
0000
0100
0010
1000
0000
0100
0000
0010
0000
1001
0000
0010
0000
,
1000
0001
0100
0000
0010
1000
0001
0000
0100
0000
0010
0000
1100
0000
0001
0000
,
0100
0001
0100
0010
1000
0001
0010
0001
,
0100
0010
1001
0001
0101
0001
0101
0001
,
0011
0010
0110
0100
1100
1000
1010
0010
,
1010
1000
0101
1000
0002
0100
1000
0203
,
0001
0010
2301
0000
0010
0000
0010
3001
,
1002
0000
0100
0000
0100
0003
0210
0000
,
1000
0000
1000
0310
0110
0000
1000
0000
,
0001
0000
0110
0100
1100
1000
1010
0010
,
1010
1000
1001
0001
0101
0100
0101
0001
,
0011
0010
1100
0001
2010
0001
0100
3002
,
0010
1000
0213
0000
0001
0000
0001
0310
,
0012
0000
1000
0000
1000
0003
2010
0000
,
0100
0000
0100
3001
1001
0000
0100
0000
,
0010
0000
1000
0100
0011
0001
0010
0100
,
1010
0001
0010
0100
1001
0001
0100
0010
,
1100
0010
0100
0001
0110
0010
1000
0100
,
0011
1000
0001
0010
1001
1000
0100
0010
,
0101
1000
0001
0010
1100
1000
0010
0100
,
1001
0010
0001
1000
0110
0101
1001
1010
,
1001
0101
2001
0000
0100
0010
0010
0000
,
0001
0010
0010
0000
0100
0010
0010
0000
,
0001
0010
3002
0000
0100
0010
0010
0000
,
0100
1000
1000
0000
0100
0010
0010
0000
,
1000
0100
2003
0000
0010
0010
3020
0000
,
0100
0100
0230
0000
0001
0001
0302
0000
,
0000
0000
1103
1010
0101
0011
1001
0011
,
1010
0011
1010
1001
0110
0110
1001
1001
,
0101
1100
0210
0000
0010
0001
0001
0000
,
1000
0010
0010
0000
0001
1000
1000
0000
,
0010
0001
0320
0000
0100
1000
1000
0000
,
0001
0100
0100
0000
1000
0001
0001
0000
,
0100
1000
0130
0001
0110
0100
0001
1000
,
0101
0010
0100
1000
1100
0010
0100
0001
,
0110
1000
0100
0010
0011
0100
0010
1000
,
0110
0000
2002
0000
0000
0000
0000
0003
,
3100
0000
0010
0000
1001
0100
0001
1000
0001
0010
0001
0100
0001
1000
0001
0010
,
0100
1000
0010
1000
0100
1000
0001
1000
0010
1000
0100
1000
0001
0010
0100
1000
,
0001
0010
0100
1000
0010
0100
0010
1000
0010
0001
0010
1000
0010
0100
0010
0001
,
1000
0100
0010
0001
0100
1000
0100
0010
0100
0001
0100
0010
0100
1000
0100
0010
,
1000
0100
0010
0001
0010
0100
1000
0001
0010
0100
1000
0001
0100
1000
0010
0001
,
0100
1000
0010
0100
0001
0010
0100
1000
0100
0010
0001
0010
0100
1000
0001
0100
,
1000
0010
0100
0001
0010
0100
1000
0100
0010
0001
1000
0010
0100
0001
0010
0100
,
1000
0001
0100
0010
1000
0010
0100
0010
1000
0001
1000
0010
1000
0001
0010
0001
,
0100
0010
1000
0001
1000
0010
1000
0100
1000
0010
1000
0001
1000
0010
1000
0100
,
1000
0010
1000
0001
1000
0010
1000
0100
1000
0010
1000
0001
1000
0001
0100
0001
,
0010
0001
0100
0001
1000
0001
0100
0001
0010
0001
0100
0001
1000
0001
0100
0001
,
0010
0001
0100
0001
1000
0100
0010
0100
1000
0001
0010
0100
0010
0001
1000
0100
,
0010
0001
0100
0010
1000
0001
0010
1000
0100
0010
0001
0010
1000
0010
0100
0010
,
0001
0100
0010
1000
0100
0010
1000
0010
0100
0001
1000
0001
0100
0010
0001
0010
,
0100
1000
0010
0100
0001
1000
0010
0100
0001
0010
0100
1000
0001
0100
0001
0010
,
0001
1000
0100
1000
0010
0100
0001
1000
0002
0000
0000
0000
0023
0000
0000
0000
,
0230
0000
0000
0000
0000
0000
1300
0001
1000
0001
1000
0001
1000
0001
1000
0001
1000
0001
1000
0001
1000
0001
1000
0001
,
2000
0000
0000
0000
0000
0000
0000
0000
0000
0000
0000
0000
3001
0010
0100
0010
0001
1000
0100
0010
0100
1000
0001
0010
,
0100
1000
0001
0010
0100
1000
0002
0000
0000
0000
0000
0000
0000
0000
0000
0000
0000
0000
0000
0000
0000
2003
0000
0000
,
0000
0000
0000
0000
3001
0010
0001
1000
0100
1000
0001
0010
0001
1000
0100
1000
,
0010
0100
0001
0010
0002
0000
0000
0000
2000
0000
0000
0000
0000
0000
0000
0000
,
0000
0000
0003
0000
3010
0100
0010
1000
0100
1000
0001
0010
0001
0100
0010
0100
,
0001
0010
0100
1000
0001
0100
0010
1000
0010
0100
0001
0100
0010
1000
0010
0100
,
0001
0010
0100
1000
0010
0100
0001
1000
0001
0100
0010
1000
0100
0010
0001
0010
,
0100
0000
0000
1000
0000
0000
0100
0000
0000
0010
0000
0000
0001
0000
1000
0000
0001
0000
1000
0000
0010
0000
0000
0000
0100
0000
0010
0000
0100
0000
0010
0000
1000
0000
0000
0000
0001
0000
0100
0000
0001
0000
0100
0000
0010
0000
0000
0000
,
1000
0100
1000
0100
1000
0100
0010
0001
0010
0001
0010
0001
1000
0100
1000
0100
0010
0001
0010
0001
1000
0010
1000
0010
,
0100
0001
0100
0001
0010
0100
1000
0010
0100
0001
0010
0001
0100
0010
1000
0001
1000
0100
0010
0001
0010
0001
0100
0010
,
1000
0100
1000
0010
0100
0001
0010
0100
0010
0001
0100
0010
1000
0001
1000
0001
0010
0100
2000
0000
0000
0000
0000
0000
,
0000
0000
0000
0000
3001
0010
0001
0100
0001
0010
0100
1000
0001
0100
0001
0010
,
0001
0100
0010
1000
0100
0010
0001
0100
0010
1000
0010
0100
0010
1000
0100
0010
,
0002
0000
0000
0000
0000
0000
1003
0100
1000
0100
1000
0000
0001
0010
0001
0010
0001
0000
1000
0001
1000
0001
1000
0100
,
0010
0001
0010
0001
0010
0100
1000
0000
0010
0000
0100
0000
0001
0000
0000
1000
0000
0000
0002
0000
0000
0000
0000
0000
,
0000
0000
0113
0011
0100
1010
0110
1010
,
1001
1100
0011
0101
1100
0001
1010
0101
,
0010
1001
0110
0110
1001
0100
0010
0001
,
0101
0010
1010
1000
0001
0100
1020
0000
,
0000
0000
0000
0000
0000
0000
1030
0100
1000
0100
1000
0100
0010
0001
0010
0001
0010
0001
1000
0100
0010
0001
0010
0001
,
1000
0100
1000
0100
0010
0001
1000
0010
0100
0001
1000
0010
1000
0010
0100
0001
0100
0001
1000
0010
0100
0001
0010
0100
,
1000
0100
0010
0001
0010
0100
1000
0001
0100
0010
1000
0100
0010
0001
0010
0100
1000
0010
0100
0001
0010
0100
1000
0100
,
1000
0001
0010
0001
0010
1000
0010
1000
0010
0100
0001
0100
0001
0010
0100
0010
0100
1000
0001
1000
0001
0010
0100
1000
,
0001
0010
0100
1000
0000
0000
0220
0000
0000
0000
0000
0000
0000
0000
0000
0000
0000
0000
0330
0000
0000
0000
0000
0000
;

//---------------dance-single - ----------------
#NOTES:
     dance-single:
     :
     Medium:
     10:
     0.863,0.984,0.091,0.265,0.233,622.000,10.000,29.000,0.000,0.000:
0000
0000
0000
0000
,
0001
0000
0001
0000
0001
0000
1000
0100
,
0010
0100
1000
0010
0100
0010
1000
0100
,
0010
0001
0010
0100
1000
0100
0010
0001
,
0100
0010
1000
0001
0010
0001
1000
0010
,
0100
0010
1000
0100
0001
0010
0100
1000
,
0010
0001
1000
0100
0010
0001
1000
0010
,
0100
0000
0001
0000
0010
0000
0100
0000
1000
0000
0001
1000
0001
0000
0100
0000
,
0010
1000
0010
0100
0001
0010
0100
0010
,
0001
1000
0001
0010
0001
1000
0010
0100
,
0001
0010
0100
1000
0010
0001
0100
0010
,
1000
0010
0100
0001
0010
1000
0010
0001
,
0100
0010
1000
0100
0010
0001
0010
0100
,
1000
0001
1000
0000
0001
1000
0001
0000
0010
0000
0100
0000
1000
0000
0010
0000
,
0100
0001
0100
0010
1000
0001
0010
0001
,
0100
0010
1000
0100
1000
0100
1000
0100
,
1000
0100
0010
0001
0010
0001
0010
0001
,
0010
0000
0001
0000
0100
0010
0000
0000
0100
0010
0000
0000
0010
0100
0000
0000
,
0010
0100
0000
0000
1002
0000
0000
0000
0100
0000
0000
0000
0013
0000
0000
0000
,
2001
0010
3100
0210
,
1000
0301
0110
1000
,
0001
0000
0100
0010
0100
0010
0100
0010
,
0100
0010
0001
1000
0001
1000
0001
1000
,
0001
0000
1000
0000
0010
0100
0000
0000
0010
0100
0000
0000
0100
0010
0000
0000
,
0100
0010
0000
0000
0102
0000
0000
0000
1000
0000
0000
0000
0013
0000
0000
0000
,
0021
0100
1030
1020
,
0100
0031
1100
0010
,
0100
0000
1000
0100
1000
0100
1000
0100
,
1000
0001
0010
0100
1000
0001
0100
0010
,
1000
0100
1000
0100
1000
0100
1000
0010
,
0100
0001
0010
0100
1000
0100
0010
0001
,
1000
0100
0010
0001
1000
0100
0010
0001
,
1000
0010
0001
0100
1000
0010
0100
0001
,
0010
0100
2000
0000
0100
0000
0000
0000
,
0010
0000
0100
0000
,
0010
3002
0100
0000
,
0010
0000
0100
0000
,
0010
2003
0000
3020
,
0000
0230
0000
0302
,
0000
0000
1003
0100
0001
0010
1000
0100
,
0010
0001
1000
0010
0001
0100
1000
0010
,
0100
0001
0200
0000
1000
0000
0000
0000
,
0001
0000
1000
0000
,
0001
0320
0001
0000
,
1000
0000
0001
0000
,
1000
0000
0130
0001
0100
0001
0100
0001
,
0100
0001
1000
0010
1000
0010
1000
0010
,
1000
0010
1000
0001
1000
0001
1000
0001
,
1000
0000
2002
0000
0000
0000
0000
0003
,
3010
0000
0100
0001
0100
0010
0100
0001
,
0010
0100
0010
1000
0010
0100
0001
0010
,
0001
0100
0001
1000
0010
1000
0100
0010
,
0100
1000
0001
0010
0100
0010
0001
1000
,
0010
1000
0001
0010
0100
1000
0001
0010
,
0100
1000
0100
0010
0001
1000
0100
0010
,
0001
0100
1000
0010
0100
0001
0010
1000
,
0001
0100
0010
1000
0010
0100
0001
0100
,
0010
0000
1000
0000
0001
0100
0001
0100
0001
0000
0010
0000
0100
0000
1000
0000
,
0001
0000
0100
0000
0010
1000
0010
1000
0010
0000
0100
0000
0001
0000
0010
0000
,
0001
0000
0100
0000
0001
1000
0001
1000
0001
0000
0100
0000
0010
0000
1000
0000
,
0010
0000
0100
0000
0001
0010
0001
0010
0001
0000
0100
0000
0010
0000
1000
0000
,
0010
0000
0100
0000
0001
0010
0001
0100
0001
0000
0010
0000
0100
0000
1000
0000
,
0100
0000
0010
0000
0001
0100
0001
1000
0001
0000
0010
0000
0100
0000
1000
0000
,
0100
0000
0010
0000
0100
1000
0100
0010
0100
0000
1000
0000
0001
0000
0010
0000
,
0001
0000
1000
0000
0100
1000
0100
0010
0002
0000
0000
0000
0023
0000
0000
0000
,
0230
0000
1000
0000
1000
0000
1000
0300
,
2000
0000
0000
0000
3001
0010
0001
0100
,
0001
0010
0002
0000
0000
0000
0000
2003
,
0000
0000
3001
0010
0100
1000
0001
0010
,
0100
1000
0002
0000
1000
0000
0100
0000
,
0010
0003
1000
0100
0010
0100
1000
0001
,
0010
0100
0010
0001
1000
0010
1000
0001
,
0010
0100
1000
0001
0100
0010
1000
0100
,
0010
0000
0001
0000
1000
0100
1000
0000
0010
0100
0010
0000
1000
0100
1000
0000
,
0001
0010
0001
0000
1000
0000
0100
0000
0001
0000
0010
0000
1000
0000
0100
0000
,
0001
0000
0010
0000
0100
1000
0100
0010
0001
0010
0100
1000
0100
0010
0001
0010
,
0100
1000
0100
0000
0010
0000
0001
0000
0010
0000
0100
0000
2000
0000
0000
0000
,
0000
0000
3001
0100
0010
1000
0001
0100
,
1000
0010
0001
0100
0010
1000
0001
1000
,
0002
0000
0000
0000
0013
0100
0010
0000
0001
0000
1000
0100
1000
0000
0001
0100
,
0001
0000
0010
0000
0100
0000
1000
0001
1000
0000
0100
0000
0020
0000
0000
0000
,
0000
0000
0130
0100
0000
0100
0001
1000
,
0010
1000
0100
0010
0001
0000
1000
1000
,
0000
1000
0010
0100
0001
1000
0100
0010
,
0001
1000
0100
0001
1000
0001
0020
0000
,
0000
0000
0000
0000
0031
0100
0000
0000
0100
0001
0000
0000
0001
0100
0010
0000
,
1000
0000
0100
0000
0010
0000
0001
0000
1000
0010
0000
0000
0010
0100
0000
0000
,
0100
0001
0010
0000
0100
0000
1000
0000
0001
0000
0100
0000
0010
1000
0000
0000
,
1000
0001
0000
0000
0001
0100
0010
0000
1000
0000
0001
0000
0010
0000
0100
0000
,
0010
0100
0220
0000
0000
0000
0330
0000
;

//---------------dance-single - ----------------
#NOTES:
     dance-single:
     :
     Easy:
     7:
     0.500,0.574,0.219,0.329,0.000,323.000,24.000,36.000,0.000,0.000:
0000
0000
0000
0000
,
0000
0000
0000
1000
,
0010
1000
0010
0000
0100
0000
0010
0100
,
0010
0100
0001
0010
,
0100
1000
0100
0010
,
0001
0100
0001
0000
1000
0000
0001
0010
,
0001
1000
0100
0010
,
0100
1000
0001
0010
,
0100
1000
0100
0000
0010
0000
0001
1000
,
0001
0100
0010
1000
,
0010
0100
0001
0010
,
0100
0010
0100
0000
1000
0000
0001
0100
,
0001
0010
0100
1000
,
0100
0000
0010
0000
0001
0000
1000
0100
,
1000
0000
0001
0010
0001
0000
1000
0100
,
0010
0001
1000
0000
1001
0000
0001
0000
,
0101
0100
1010
0100
,
0101
0010
0100
0010
,
0100
2002
0000
3003
,
0220
0000
0330
2002
,
0000
3003
0110
1000
,
0001
0100
1010
1000
,
1100
0010
0101
0010
,
1001
0100
0100
0010
,
0010
0202
0000
0303
,
0022
0000
0033
2020
,
0000
3030
2200
0000
,
3300
0001
0001
0001
,
0001
0010
0010
0100
,
0100
0010
0010
0001
,
0010
0100
1000
1000
,
1000
1000
0010
0100
,
0001
0010
0100
1000
,
0001
2000
0000
0000
,
0000
0000
0000
0000
,
0000
3002
0000
0000
,
0000
0000
0000
0000
,
0000
2003
0000
3020
,
0000
0230
0000
0302
,
0000
0000
1003
0100
1000
0000
0001
0000
,
0100
0001
0100
0000
0010
1000
0010
0000
,
0010
0200
0000
0000
,
0000
0000
0000
0000
,
0000
0320
0000
0000
,
0000
0000
0000
0000
,
0000
0000
0130
0000
0000
0000
0001
0100
,
0001
0100
0001
0000
1000
0000
0001
0000
,
0000
0100
0000
0010
,
0000
0000
2002
0000
0000
0000
0000
0003
,
3000
1000
0100
0010
,
0010
0010
0001
0100
,
0100
0001
0001
0010
,
1000
0001
0001
0100
,
0100
0001
0100
0100
,
0100
1000
0001
0001
,
0001
0010
1000
1000
,
1000
0001
0001
0100
,
0100
0000
0001
0100
0001
0000
0010
0000
,
0100
0000
1000
0010
1000
0000
0100
0000
,
0010
0000
0001
0100
0001
0000
0010
0000
,
0100
0000
1000
0001
1000
0000
0010
0000
,
0100
0000
0001
0010
0001
0000
1000
0000
,
0001
0000
1000
0100
0010
0000
0100
0000
,
1000
0000
0001
0100
0010
0000
1000
0000
,
0001
0000
1000
0001
2000
0000
3200
0000
,
0320
0030
1001
1001
,
0002
0000
0000
0000
1003
0100
1000
0000
,
1000
0010
2000
0000
0000
0000
0000
0000
,
0000
3000
1000
0000
0100
0000
0010
0000
,
0001
2000
0000
0000
,
0000
3001
0010
0100
,
0010
0001
1000
0100
,
0010
0100
1000
0100
,
0010
1001
0110
1001
,
0110
0000
0001
0010
0001
0000
1000
0100
,
1000
0001
0001
1000
,
1000
0001
0001
2000
,
0000
3001
0100
0010
,
1000
0001
0100
0010
,
2000
0000
3100
0001
0000
0001
0100
0010
,
1000
0000
0010
0100
0010
0000
0200
0000
,
0000
0000
0310
1000
0000
0001
0000
1000
,
0000
0100
0010
0001
1000
0000
1000
0010
,
0000
1000
0000
0001
0000
1000
0100
0010
,
0001
1000
0001
0020
,
0000
0130
0100
1000
,
1000
0100
0100
0010
,
0010
0001
0001
0100
,
0100
0010
0010
1000
,
1000
0220
0000
0330
;

//---------------dance-single - ----------------
#NOTES:
     dance-single:
     :
     Beginner:
     5:
     0.394,0.449,0.256,0.000,0.000,274.000,28.000,0.000,0.000,0.000:
0000
0000
0000
0000
,
0000
0000
0000
1000
,
0100
0010
0001
1000
,
0010
0100
0001
0010
,
0100
1000
0001
0100
,
0010
1000
0100
0001
,
0010
1000
0100
0010
,
0100
1000
0001
0010
,
0100
0010
0001
1000
,
0010
0100
0001
1000
,
0001
1000
0100
0010
,
0100
0010
0001
0100
,
0001
0100
0010
1000
,
0010
1000
0001
0010
,
0100
1000
0001
0010
,
0100
1000
0001
0001
,
0001
0001
1000
1000
,
1000
1000
0001
1000
,
0001
0110
0000
0000
,
1001
0000
0000
0110
,
0000
0000
1001
0000
,
0000
0100
0100
0100
,
0100
0010
0010
0010
,
0010
0100
1001
0000
,
0000
1001
0000
0000
,
0110
0000
0000
1001
,
0000
0000
0110
0000
,
0000
0001
0010
0001
,
0010
0001
0010
0001
,
0010
0100
1000
0010
,
1000
0010
1000
0010
,
1000
0001
0010
0100
,
1000
0001
0010
0100
,
1000
0110
0000
0000
,
0000
0000
0000
0000
,
0000
1001
0000
0000
,
0000
0000
0000
0000
,
0000
1001
0000
1001
,
0000
1001
0000
1001
,
0000
1000
0010
0001
,
0100
1000
0010
0001
,
0100
0110
0000
0000
,
0000
0000
0000
0000
,
0000
1001
0000
0000
,
0000
0000
0000
0000
,
0000
0001
0001
0010
,
0010
0100
0100
1000
,
1000
1001
0000
1001
,
0000
1001
0000
0000
,
0000
1000
1000
1000
,
1000
1000
1000
1000
,
1000
0001
0001
0001
,
0001
0001
0001
0001
,
0001
0010
0100
0010
,
0100
0010
0100
0010
,
0100
1000
0001
1000
,
0001
1000
0001
1000
,
0001
0010
0010
0100
,
0100
0010
0010
0100
,
0100
1000
1000
0001
,
0001
1000
1000
0001
,
0001
1000
0100
0010
,
0001
1000
0100
0010
,
0001
1000
0100
0010
,
0001
1000
0010
0100
,
0001
0110
0000
0000
,
0001
0000
0100
0000
,
0010
0000
1000
0000
,
0001
1000
0100
0010
,
0001
0110
0000
0000
,
0000
0001
0010
0100
,
0010
0001
1000
0100
,
0010
0100
1000
0001
,
1000
0110
0000
0110
,
1001
0100
0100
0010
,
0100
0001
0001
1000
,
0001
0010
0100
1000
,
0000
0001
0100
0010
,
1000
0001
0100
0010
,
1000
1001
0000
1001
,
0010
0100
0010
0000
,
0000
0100
0000
0100
,
0000
0010
0000
0010
,
0000
1000
0000
0001
,
0000
1000
0000
0001
,
0000
1000
0010
0100
,
0010
1000
0001
0100
,
0010
0100
0001
1000
,
1000
0001
0001
1000
,
1000
0110
0000
0000
;

//---------------dance-double - ----------------
#NOTES:
     dance-double:
     :
     Challenge:
     14:
     1.000,1.000,0.146,0.311,0.918,770.000,16.000,34.000,0.000,0.000:
00000000
00000000
00000000
00000000
,
00000000
00000000
00000000
00000000
00000000
00000000
00000000
00000000
00000000
00000000
00000000
00000000
00100000
00010000
00100000
00000000
,
00001000
00000000
00010000
00000000
00001000
00000000
00010000
00000000
00000100
00001000
00000100
00000000
00000010
00000000
00000100
00000000
,
00000010
00000000
00000100
00000000
00000010
00000001
00000010
00000000
00000100
00000000
00001000
00000000
00000100
00000000
00001000
00000000
,
00000001
00000100
00000001
00000000
00010000
00001000
00010000
00000000
00001000
00000000
00100000
00000000
00010000
01000000
00010000
00000000
,
01000000
00000000
00100000
00000000
01000000
00000000
00100000
00000000
10000000
00010000
10000000
00000000
00100000
00000000
01000000
00000000
,
00100000
00000000
01000000
00000000
00010000
00100000
00010000
00000000
01000000
00000000
00001000
00000000
01000000
00000000
00001000
00000000
,
01000000
00001000
01000000
00000000
00001000
00100000
00001000
00000000
00010000
00000000
00000010
00000000
00000100
00000001
00000100
00000000
,
00000010
00000000
00001000
00000000
00000010
00000000
00001000
00000000
00000001
00000010
00000001
00000000
00001000
00000000
00000100
00000000
,
00001000
00000000
00000100
00000000
00010000
00001000
00010000
00000000
00001000
00000000
00100000
00000000
00001000
00000000
00100000
00000000
,
00010000
01000000
00010000
00000000
10000000
01000000
10000000
00000000
00010000
00000000
00100000
00000000
00001000
01000000
00001000
00000000
,
00010000
00000000
00001000
00000000
00010000
00000000
00001000
00000000
00100000
00010000
00100000
00000000
00001000
00000000
00010000
00000000
,
00000010
00000000
00000100
00000000
00000001
00000010
00000001
00000000
00000010
00000000
00000100
00000000
00010000
00000000
00001000
00000000
,
00010000
00000010
00010000
00000000
00001000
00010000
00001000
00000000
00100000
00000000
00010000
00000000
10000000
00000000
01000000
00000000
,
10000000
01000000
00100000
00001000
00010000
00000100
00000010
00000100
,
00000010
00000000
00000001
00000000
00001000
00000100
00000000
00000000
00000100
00000000
00000000
00000100
00000010
00000000
00000000
00000010
,
00000000
00000000
00000010
00000001
00000000
00000000
00000001
00000000
00000000
00000001
00000010
00000000
00000000
00000010
00000000
00000000
,
00000010
00000100
00000000
00000000
00000100
00000000
00000000
00000000
00020000
00000000
00000000
00000000
00001000
00000000
00002000
00000000
,
00000000
00033000
00010200
00000000
00001000
00000000
00010300
00000000
,
00201000
00010000
00301000
00012000
,
00010000
00013000
00011000
00010000
,
00001000
00000000
00000000
00000000
00100000
00010000
00000000
00000000
00010000
00000000
00000000
00010000
01000000
00000000
00000000
01000000
,
00000000
00000000
01000000
00100000
00000000
00000000
00100000
00000000
00000000
00100000
10000000
00000000
00000000
10000000
00000000
00000000
,
10000000
01000000
00000000
00000000
01000000
00000000
00000000
00000000
00200000
00000000
00000000
00000000
00010000
00000000
00020000
00000000
,
00000000
00330000
02100000
00000000
00001000
00000000
03010000
00000000
,
00012000
01000000
00103000
00001020
,
00010000
00000130
00001001
00000100
,
00000010
00000000
00001000
00000100
00001000
00000100
00001000
00000100
,
00010000
00001000
00010000
00001000
00010000
00001000
01000000
00010000
,
01000000
00010000
01000000
00010000
10000000
00100000
10000000
00100000
,
10000000
00100000
01000000
00010000
00001000
00100000
01000000
00010000
,
00001000
00100000
01000000
00001000
00010000
00001000
00100000
00001000
,
00010000
00000100
00010000
00001000
00010000
00000010
00000100
00000001
,
00000010
00000100
00001002
00000000
00001000
00000000
00000000
00000100
,
00000100
00000000
00000000
00000010
00000010
00000000
00000000
00000100
,
00000100
00000000
00002003
00000000
00010000
00000000
00000000
00000010
,
00000010
00000000
00000000
00000100
00000100
00000000
00000000
00000001
,
00000001
00003200
00010000
00020300
,
00001000
00032000
00100000
00203000
,
00000000
00000000
00310000
01000000
00001000
00010000
00000010
00001000
,
00000100
00010000
00001000
01000000
00100000
10000000
01000000
00100000
,
00001000
00010000
01200000
00000000
10000000
00000000
00000000
00010000
,
00010000
00000000
00000000
01000000
01000000
00000000
00000000
10000000
,
10000000
00000000
02300000
00000000
10000000
00000000
00000000
00100000
,
00100000
00000000
00000000
00001000
00001000
00000000
00000000
00010000
,
00010000
00000000
03100000
10000000
00100000
10000000
00100000
10000000
,
00100000
10000000
00010000
01000000
00010000
01000000
00010000
01000000
,
00010000
01000000
00001000
00010000
00001000
00010000
00001000
00010000
,
00001000
00000000
00022000
00000000
00000000
00000000
00000000
00003000
,
00030100
00000000
00001000
00000000
00000001
00000010
00000001
00000010
00000001
00000000
00000010
00000000
00000100
00001000
00000100
00000000
,
00000010
00000000
00000001
00000000
00000100
00000010
00000100
00000010
00000100
00000000
00000001
00000000
00001000
00000100
00001000
00000000
,
00000001
00000000
00000010
00000000
00000100
00001000
00000100
00001000
00000100
00000000
00010000
00000000
00001000
00100000
00001000
00000000
,
00010000
00000000
00001000
00000000
01000000
00100000
01000000
00100000
01000000
00000000
00010000
00000000
00100000
01000000
00100000
00000000
,
00010000
00000000
01000000
00000000
00100000
10000000
00100000
10000000
00100000
00000000
01000000
00000000
00010000
00100000
00010000
00000000
,
01000000
00000000
10000000
00000000
00010000
00100000
00010000
00100000
00010000
00000000
01000000
00000000
00001000
00010000
00001000
00000000
,
00100000
00000000
00001000
00000000
00010000
00000100
00010000
00000100
00010000
00000000
00001000
00000000
00010000
00000100
00010000
00000000
,
00000010
00000000
00000100
00000000
00000001
00000010
00000001
00000010
00000001
00000000
00000100
00000000
00000010
00001000
00000010
00000000
,
00000100
00000000
00000010
00000000
00000100
00000001
00000100
00000010
00000100
00000000
00000001
00000000
00000100
00000010
00000100
00000000
,
00000001
00000000
00000010
00000000
00000100
00001000
00000100
00000010
00000100
00000000
00010000
00000000
00001000
00100000
00001000
00000000
,
00010000
00000000
00001000
00000000
00010000
00000010
00010000
00000100
00010000
00000000
00001000
00000000
00100000
00010000
00100000
00000000
,
01000000
00000000
10000000
00000000
00100000
01000000
00100000
10000000
00100000
00000000
10000000
00000000
01000000
00100000
01000000
00000000
,
10000000
00000000
00010000
00000000
00100000
00001000
00100000
00010000
00100000
00000000
00010000
00000000
01000000
00100000
01000000
00000000
,
00010000
00000000
00100000
00000000
00001000
00010000
00001000
01000000
00001000
00000000
00010000
00000000
00000100
00001000
00000100
00000000
,
00000010
00000000
00000001
00000000
00000010
00000100
00000010
00000001
00000010
00000000
00000100
00000000
00001000
00000010
00001000
00000000
,
00000100
00000000
00010000
00000000
00001000
00100000
00001000
00010000
00002000
00000000
00000000
00000000
00023000
00000000
00000000
00000000
,
00032000
00000000
00000000
00000000
00103000
00010000
00100000
00010000
00100000
00010000
00100000
00010000
00100000
00010000
00100000
00000000
,
02000000
00000000
00000000
00000000
00000000
00000000
00000000
00000000
13000000
00100000
10000000
01000000
10000000
00100000
10000000
01000000
,
10000000
00100000
10000000
01000000
20000000
00000000
00000000
00000000
00000000
00000000
00000000
00000000
00000000
00000000
00000000
00020000
,
00000000
30000000
00000000
00000000
01030000
00001000
01000000
00001000
00100000
00001000
00010000
00001000
00100000
00001000
01000000
00001000
,
00100000
00001000
00010000
00001000
00020000
00000000
00000000
00000000
00032000
00000000
00000000
00000000
00000000
00000000
00000000
00000000
,
00000000
00000000
00000000
00000000
00013000
00000100
00010000
00000100
00001000
00000010
00001000
00000010
00000100
00000001
00000100
00000001
,
00000010
00000100
00001000
00000000
00000001
00000010
00000001
00000010
00000100
00001000
00000100
00001000
00000010
00000100
00000010
00000100
,
00000001
00001000
00000010
00000000
00010000
00001000
00010000
00001000
00100000
00001000
00100000
00001000
00010000
00001000
00010000
00001000
,
00100000
00001000
00100000
00001000
01000000
00100000
01000000
00100000
00000000
01000000
00100000
01000000
00100000
00000000
01000000
00100000
,
01000000
00100000
00000000
00010000
01000000
00010000
01000000
00010000
10000000
00100000
10000000
00100000
10000000
00010000
00100000
00010000
,
00100000
00010000
10000000
01000000
10000000
00100000
01000000
00010000
10000000
00100000
01000000
00010000
10000000
00100000
01000000
00010000
,
10000000
00100000
01000000
00010000
10000000
00100000
01000000
00100000
01000000
00100000
01000000
00100000
02000000
00000000
00000000
00000000
,
00000000
00000000
00000000
00000000
03001000
00010000
00001000
00010000
00001000
00010000
00001000
00010000
00001000
00100000
00001000
00100000
,
00001000
00010000
00000100
00010000
00000100
00010000
00000010
00001000
00000010
00001000
00000001
00000010
00000100
00001000
00000001
00000100
,
00000020
00000000
00000000
00000000
00001030
00000100
00001000
00000000
00000100
00010000
00000100
00000000
00010000
00001000
00010000
00001000
,
00100000
00010000
10000000
00000000
01000000
00000000
00100000
00010000
00100000
00000000
01000000
00000000
20000000
00000000
00000000
00000000
,
00000000
00000000
30100000
01010000
00000000
00100000
00010000
01000000
,
00010000
01000000
00100000
00001000
00010000
00000000
00000010
00001100
,
00000000
00000001
00001000
00000010
00001000
00000010
00010000
00001000
,
00010000
00011000
00001000
00011000
00000000
00010000
00002000
00000000
,
00000000
00000000
00000000
00000000
00013000
00000100
00010000
00000100
00010000
00000100
00010000
00000100
00010000
00001000
00010000
00001000
,
00010000
00001000
00010000
00001000
00100000
00001000
00100000
00001000
00100000
00001000
00100000
00001000
00010000
00001000
00010000
00001000
,
00010000
00001000
00010000
00001000
00100000
00010000
00100000
00010000
00100000
00010000
00100000
00001000
00010000
00001000
00010000
00001000
,
00010000
00001000
00010000
00000100
00001000
00000100
00001000
00000100
00001000
00000100
00001000
00000001
00000010
00000100
00001000
00000001
,
00000010
00000100
00001000
00000000
00022000
00000000
00000000
00000000
00000000
00000000
00000000
00000000
00033000
00000000
00000000
00000000
;

//---------------dance-double - ----------------
#NOTES:
     dance-double:
     :
     Hard:
     11:
     0.841,0.984,0.146,0.256,0.215,600.000,16.000,28.000,0.000,0.000:
00000000
00000000
00000000
00000000
,
00000000
00000000
00000000
00000000
00000000
00000000
00001000
00010000
,
00001000
00100000
00001000
00000100
00001000
00100000
00001000
00010000
,
00001000
00010000
00000100
00000010
00000001
00000100
00000010
00010000
,
00001000
00100000
01000000
10000000
00100000
01000000
00001000
00010000
,
00001000
00000100
00001000
00100000
00001000
00000100
00001000
00010000
,
00001000
00010000
00000010
00000100
00000001
00001000
00000100
00010000
,
00001000
00100000
00010000
10000000
01000000
00100000
00001000
00010000
,
00001000
01000000
00100000
01000000
00001000
00010000
00001000
00100000
,
01000000
00100000
00001000
00010000
00000100
00000010
00000001
00001000
,
00000100
00100000
00001000
00010000
01000000
10000000
00100000
01000000
,
00100000
01000000
00001000
01000000
00100000
01000000
00001000
01000000
,
00010000
00100000
00001000
00010000
00000100
00001000
00000010
00000100
,
00000001
00001000
00000100
00010000
00001000
00010000
00011000
00100000
,
00001000
00010000
00000010
00010000
00001000
01000000
00001000
00010000
,
00000100
00010000
00001000
00001000
00001000
00001000
00100000
00100000
,
00100000
00100000
00010000
00010000
00010000
00010000
01000000
01000000
,
01000000
01000000
00100000
10000000
10020000
00000000
00000000
01030000
,
00100000
01001000
00010000
00010000
,
00010100
00001000
00001000
00011000
,
00100000
00001000
00000220
00000000
,
00000330
00000000
00000100
00000100
00000010
00000010
00010000
00010000
,
00001000
00001000
00100000
00100000
00010000
00010000
01000000
01000000
,
00100000
00100000
10000000
00010000
00102000
00000000
00000000
00013000
,
00000100
00010010
00000100
00000100
,
00001100
00000010
00000010
00001001
,
00000100
00000001
00020020
00000000
,
00030030
00000000
00001000
00010000
01000000
00100000
10000000
01000000
,
00100000
00010000
00100000
01000000
10000000
00100000
01000000
00001000
,
00010000
00000100
00001000
00000010
00000100
00000001
00000010
00000100
,
00010000
00001000
00100000
00010000
01000000
00100000
10000000
00010000
,
01000000
00001000
00010000
00000100
00000010
00000001
00000010
00000100
,
00001000
00000010
00010000
00001000
00100000
00001000
00010000
00000100
,
00010000
00001000
00020000
00000000
00001000
00000000
00000000
00000000
,
00001000
00000000
00001000
00000000
,
00001000
00032000
01000000
00000000
,
01000000
00000000
01000000
00000000
,
01000000
02003000
00000000
03020000
,
00000000
00230000
00000000
00302000
,
00000000
00000000
00013000
00010000
00000100
00001000
00000010
00000010
,
00000100
00000001
00000010
00000010
00000100
00010000
00001000
00001000
,
00100000
00010000
02000000
00000000
10000000
00000000
00000000
00000000
,
00010000
00000000
10000000
00000000
,
00010000
03200000
00010000
00000000
,
10000000
00000000
00010000
00000000
,
10000000
00000000
01300000
00010000
01000000
00010000
01000000
00010000
,
01000000
00010000
00100000
00001000
00100000
00001000
00100000
00001000
,
00100000
00001000
00010000
00000010
00010000
00000010
00010000
00000010
,
00001000
00000000
00002002
00000000
00000000
00000000
00000000
00003000
,
00000103
00000000
00000010
00001000
00000100
00000010
00000001
00001000
,
00000100
00000010
00000001
00000100
00000010
00010000
00001000
00100000
,
00010000
10000000
01000000
00100000
00010000
10000000
01000000
00100000
,
00010000
01000000
00100000
00010000
00001000
00000100
00000010
00000001
,
00000100
00000010
00000001
00001000
00000100
00001000
00000010
00000100
,
00000010
00001000
00000100
00001000
00000100
00010000
00001000
00010000
,
00001000
01000000
00100000
01000000
00010000
00100000
00010000
01000000
,
00100000
01000000
00010000
00100000
00010000
00100000
00001000
00010000
,
00001000
00000000
00010000
00000000
00001000
00010000
00001000
00000000
00010000
00000000
00000100
00000000
00001000
00000000
00000100
00000000
,
00001000
00000000
00000001
00000000
00000010
00000001
00000010
00000000
00000100
00000000
00001000
00000000
00000100
00000000
00001000
00000000
,
00000010
00000000
00010000
00000000
00001000
00010000
00001000
00000000
00100000
00000000
00010000
00000000
00100000
00000000
00010000
00000000
,
10000000
00000000
01000000
00000000
00100000
00010000
00100000
00000000
00001000
00000000
00010000
00000000
00001000
00000000
00010000
00000000
,
00000100
00000000
00001000
00000000
00000001
00000010
00000100
00000000
00001000
00000000
00000010
00000000
00000100
00000000
00000001
00000000
,
00000010
00000000
00000100
00000000
00010000
00001000
00100000
00000000
00001000
00000000
01000000
00000000
00100000
00000000
10000000
00000000
,
00100000
00000000
01000000
00000000
00010000
00100000
01000000
00000000
10000000
00000000
00100000
00000000
01000000
00000000
00010000
00000000
,
00100000
00000000
00001000
00000000
00010000
00001000
00000100
00000010
00002000
00000000
00000000
00000000
00003200
00000000
00000000
00000000
,
00001300
00010100
00011000
00010010
,
00020000
00000000
00000000
00000000
00000000
00000000
00000000
00000000
00030100
00001000
00000100
00000000
00001000
00000100
00001000
00000000
,
00000100
00001000
00000100
00000000
00000020
00000000
00000000
00000000
00000000
00000000
00000000
00000000
00000000
00000000
00000000
00000031
,
00000000
00000000
00000010
00000100
00001000
00010000
00000010
00000100
,
00001000
00010000
00000020
00000000
00000200
00000000
00000000
00000000
,
00000000
00000330
00010000
00001000
00000100
00001000
00010000
00000010
,
00000100
00001000
00000100
00000010
00010000
00000100
00010000
00000010
,
00001000
00010000
00100000
00000100
00010000
00001000
00100000
00010000
,
00001000
00000000
00000100
00000000
00100000
00010000
00100000
00000000
00001000
00010000
00001000
00000000
00100000
00010000
00100000
00000000
,
00001000
00010000
00001000
00000000
00100000
00000000
00010000
00000000
00000100
00000000
00001000
00000000
00100000
00000000
00010000
00000000
,
00000100
00000000
00001000
00000000
00010000
00001000
00010000
00001000
00010000
00001000
00010000
00001000
00010000
00001000
00010000
00001000
,
00010000
00001000
00010000
00000100
00010000
00000010
00010000
00000100
00010000
00000010
00010000
00000100
00020000
00000000
00000000
00000000
,
00000000
00000000
00031000
00100000
00010000
01000000
00001000
00100000
,
01000000
00010000
00001000
00100000
00010000
01000000
00001000
01000000
,
00002000
00000000
00000000
00000000
00103000
00010000
00100000
00000000
00001000
00000000
00010000
00000100
00010000
00000000
00001000
00100000
,
00010000
00100000
01000000
10000000
00100000
01000000
00002000
00000000
,
00000000
00000000
00103000
00001000
00000000
00010000
00000100
00000010
,
00000100
00000010
00000001
00000100
00000001
00000000
00001000
00000010
,
00000000
00001000
00000001
00000100
00000001
00000100
00000010
00000010
,
00010000
00001000
00010000
00001000
00000000
00001000
00020000
00000000
,
00000000
00000000
00000000
00000000
00031000
00100000
00000000
00000000
00100000
00001000
00000000
00000000
00001000
00010000
00000000
00000000
,
00010000
00000010
00000000
00000000
00000010
00000100
00000000
00000000
00000100
00000001
00000000
00000000
00000001
00001000
00000000
00000000
,
00001000
00010000
00000000
00000000
00010000
00100000
00000000
00000000
00100000
01000000
00000000
00000000
01000000
00010000
00000000
00000000
,
00010000
10000000
00000000
00000000
10000000
01000000
00000000
00000000
01000000
00100000
00000000
00000000
00100000
00010000
00000000
00000000
,
00010000
00100000
00022000
00000000
00000000
00000000
00033000
00000000
;

//---------------dance-double - ----------------
#NOTES:
     dance-double:
     :
     Medium:
     9:
     0.671,0.738,0.539,0.329,0.000,419.000,59.000,36.000,0.000,0.000:
00000000
00000000
00000000
00000000
,
00000000
00000000
00000000
00000000
00000000
00000000
10000000
01000000
,
00100000
00010000
00100000
01000000
10000000
01000000
00100000
00001000
,
00010000
00000100
00000010
00000001
00000010
00000100
00001000
00000100
,
00000010
00000001
00000100
00000010
00010000
00001000
00100000
00010000
,
01000000
00100000
10000000
01000000
00100000
00001000
00010000
00000100
,
00001000
00000010
00000100
00000001
00000010
00000100
00010000
00001000
,
00100000
00010000
01000000
00001000
00010000
00000010
00001000
00000100
,
00010000
00001000
00100000
00010000
01000000
00100000
10000000
01000000
,
00100000
00010000
01000000
00100000
10000000
00010000
01000000
00010000
,
00100000
00001000
00100000
00000100
00010000
00000100
00001000
00000010
,
00000100
00000001
00000010
00000001
00001000
00000100
00001000
00000010
,
00000100
00000010
00001000
00000100
00001000
00000010
00010000
00000010
,
00010000
00001000
00010000
00001000
00100000
00010000
00100000
01000000
,
10000000
01000000
00100000
00010000
00001000
00000100
00000010
00000001
,
00000010
00000100
00001001
00000000
00001100
00000000
00010100
00000000
,
00101000
00110000
10010000
01100000
,
10010000
00000000
00110000
00000000
00011000
00000000
00000000
00011000
,
00000000
00002002
00000000
00003003
,
00000220
00000000
00000330
00002002
,
00000000
00000000
00003003
00000000
00011000
00000000
00000000
00011000
,
00000000
01001000
00101000
00010100
,
00010010
00011000
01100000
10010000
,
01100000
00000000
00011000
00000000
00000110
00000000
00000000
00001001
,
00000000
00000220
00000000
00000330
,
00022000
00000000
00033000
02200000
,
00000000
00000000
03300000
00000000
00011000
00000000
00000000
00011000
,
00000000
00000000
00010000
00001000
00010000
00001000
00000000
00100000
,
00010000
00100000
00010000
00000000
10000000
01000000
10000000
01000000
,
00000000
01000000
00100000
01000000
00100000
00000000
00100000
00001000
,
00100000
00001000
00000000
00010000
00000100
00010000
00000100
00000000
,
00000100
00000010
00000100
00000010
00000000
00000010
00000001
00000010
,
00000001
00000000
00001000
00000001
00001000
00000001
00000000
00010000
,
00001000
00010000
00000200
00000000
00000000
00000000
00000000
00000000
,
00000000
00000000
00000000
00000000
,
00000000
02000300
00000000
00000000
,
00000000
00000000
00000000
00000000
,
00000000
03200000
00000000
00320000
,
00000000
00032000
00000000
00003020
,
00000000
00000031
00001000
00010000
,
10000000
00000000
00010000
00000000
00001000
00000000
00000001
00000010
,
00000100
00010000
00002000
00000000
00000000
00000000
00000000
00000000
,
00000000
00000000
00000000
00000000
,
00000000
00023000
00000000
00000000
,
00000000
00000000
00000000
00000000
,
00000000
00031000
00011000
00011000
,
00011000
00100000
11000000
11000000
,
11000000
00100000
00011000
00001000
,
00000110
00022000
00000000
00000000
,
00033000
00100000
01010000
00100000
,
00101000
00001000
00010100
00000100
,
00001100
00000010
00001001
00000010
,
00000101
00000010
00010100
00001000
,
00110000
01000000
10100000
01000000
,
00110000
01000000
00101000
00010000
,
11000000
00100000
00011000
00000100
,
00001010
00000100
00101000
00010000
,
01001000
00000000
00010000
00001000
00001000
00000000
00010000
00000100
,
00000100
00000000
00001000
00000010
00000010
00000000
00000100
00000001
,
00000001
00000000
00000010
00000100
00000100
00000000
00010000
00001000
,
00001000
00000000
00100000
00010000
00010000
00000000
10000000
01000000
,
01000000
00000000
10010000
00000000
00100000
00010000
00100000
00000000
,
00001000
00010000
00001000
00000000
00010000
00000100
00010000
00000000
,
00000010
00000100
00000010
00000000
00001000
00000100
00001000
00000000
,
00000001
00000010
00000100
00010000
00002000
00000000
00023000
00000000
,
00030020
00200030
00000000
00000000
,
00000000
00320000
00000000
00000000
10030000
00000000
00010000
00000000
,
00000001
00000000
00002000
00000000
00000000
00000000
00000000
00003002
,
00000000
00000000
00000013
00000100
00000000
00000100
00000010
00000000
,
00000010
00000100
00000020
00000000
00000002
00000000
00000000
00000000
,
00000033
00001000
00000100
00010000
,
00001000
00100000
00010000
10000000
,
00100000
01000000
00010000
00100000
,
00001000
00000000
00100000
00100000
00001000
00001000
00010000
00010000
,
00000100
00000100
00100000
00010000
00000100
00001000
00100000
00010000
,
00000100
00001000
00010000
00001000
00010000
00001000
00010000
00001000
,
00010000
00001000
00010000
00001000
00010000
00001000
00020000
00000000
,
00000000
00000000
00031000
00100000
00001000
00000000
00100000
00010000
,
00100000
00000000
00001000
00010000
00001000
00000000
00010000
00000010
,
00010000
00000000
00001000
00001000
00010000
00001000
00001000
00010000
,
00010000
00000000
01000000
00000000
00100000
10000000
00020000
00000000
,
00000000
00000000
01030000
00100000
00000000
01000000
00000000
01000000
,
00000000
01000000
00000000
01000000
00100000
00000000
10000000
00100000
,
00000000
01000000
00000000
00001000
00000000
00010000
00000000
00001000
,
00010000
00000010
00000100
00000001
00000000
00000100
00000020
00000000
,
00000000
00000000
00000130
00000001
00000100
00000001
00000100
00000010
,
00001000
00000010
00001000
00000010
00010000
00001000
00010000
00001000
,
00010000
00000100
00010000
00000100
00010000
00000100
00100000
00001000
,
00100000
00001000
00100000
00010000
01000000
00010000
01000000
00010000
,
00100000
00022000
00000000
00033000
;

//---------------dance-double - Copied from----------------
#NOTES:
     dance-double:
     Copied from:
     Easy:
     6:
     0.484,0.574,0.366,0.137,0.000,316.000,40.000,15.000,0.000,0.000:
00000000
00000000
00000000
00000000
,
00000000
00000000
00000000
01000000
,
00010000
10000000
01000000
00100000
,
00001000
00010000
00000100
00000010
,
00001000
00000001
00000010
00000100
,
00001000
00000001
00000010
00000100
,
00010000
00001000
00100000
01000000
,
00010000
00001000
01000000
00011000
,
00100000
00010000
10000000
01000000
,
00100000
01000000
00100000
00001000
,
00010000
00001000
00010000
00000010
,
00000100
00000010
00000100
00000001
,
00000010
00000100
00001000
00010000
,
00100000
01000000
10000000
10010000
,
10010000
01010000
00010100
00001001
,
00001001
00000010
00000010
00000100
,
00000100
00000010
00001000
00000100
,
00000100
00010000
00010000
00000000
,
00001000
00110000
00000000
00100000
,
01010000
00000000
00100000
00011000
,
00000000
00000000
00011000
00001000
,
00100000
00010000
00010000
10000000
,
10000000
00100000
01000000
00010000
,
00010000
01000000
01000000
00000000
,
00100000
01001000
00000000
00010000
,
00101000
00000000
00001000
00011000
,
00000000
00000000
00001100
00000010
,
00000001
00000010
00000100
00000010
,
00000100
00001000
00000100
00001000
,
00000100
00010000
00001000
00010000
,
00001000
01000000
00010000
01000000
,
00010000
10000000
00100000
10000000
,
00100000
01000000
00001000
00010000
,
00000010
00011000
00010000
00000000
,
00001000
00000000
00010000
00000000
,
00001000
00011000
00000100
00000000
,
00010000
00000000
00001000
00000000
,
01000000
00002000
00000000
00203000
,
00000000
02300000
00000000
23000000
,
00000000
30000000
01100000
00000000
01100000
00000000
00110000
00000000
,
00110000
00001100
00001100
00001001
,
00000110
00011000
00100000
00000000
,
01000000
00000000
10000000
00000000
,
00100000
00011000
00000010
00000000
,
00000100
00000000
00000001
00000000
,
00000100
00010000
00010000
10000000
,
10000000
01000000
01000000
00100000
,
00100000
00001000
00001000
00010000
,
00010000
00202000
00000000
00000000
,
00303000
00010000
00010000
00000100
,
00000100
00001000
00001000
00000001
,
00000001
00000010
00000010
00000100
,
00000100
00001000
00001000
00010000
,
00010000
01000000
01000000
00100000
,
00100000
10000000
10000000
00010000
,
00010000
01000000
01000000
00001000
,
00001000
00010000
00010000
00000100
,
00000100
00001001
00000010
00000100
,
00001000
00100000
00010000
10000000
,
01000000
00100000
00010000
00000100
,
00001000
00000010
00000100
00000001
,
00000010
00001001
00000100
00000010
,
00001000
00000100
00010000
00001000
,
00100000
00001000
00010000
01000000
,
10000000
00100000
10010000
00110000
,
00010100
00000000
02020000
00000000
00000000
00000000
00000000
03030000
,
00000000
10010000
00000000
00000000
00100000
00010000
00100000
00010000
,
00100000
00001000
00020000
00000000
00000000
00000000
00000000
00000000
,
00030000
00001000
00010000
00001000
,
00010000
00001010
00000200
00000000
,
00000300
00001000
00000100
00000010
,
00000001
00000100
00000010
00001000
,
00000001
00000010
00000100
00010000
,
00001000
00000000
00110000
00000000
01010000
00000000
00000000
01001000
,
00000000
00010000
00010000
10000000
,
10000000
00000000
01000000
00100000
00000000
00100000
00000000
00100000
,
00010000
00000000
00010000
00000000
00010000
01000000
00100000
00000000
,
00000000
01000000
00001000
00100000
,
00010000
01000000
00100000
10000000
,
02000000
00000000
03100000
00000000
00000000
00001000
00010000
00000000
,
00000010
00000100
00000000
00000010
00000000
00000100
00000020
00000000
,
00000000
00000000
00000130
00000000
00000000
00000100
00000000
00000010
,
00000000
00001000
00000000
00000001
00000100
00000000
00000010
00000000
,
00000000
00010000
00000000
00100000
00000000
01000000
00000000
10000000
,
00100000
10000000
00010000
00200000
,
00000000
01300000
10000000
01000000
,
10000000
01000000
10000000
01000000
,
10000000
00100000
00001000
00100000
,
00001000
00100000
00001000
00100000
,
00001000
00020200
00000000
00030300
;

//---------------dance-double - ----------------
#NOTES:
     dance-double:
     :
     Beginner:
     4:
     0.303,0.451,0.183,0.000,0.000,212.000,20.000,0.000,0.000,0.000:
00000000
00000000
00000000
00000000
,
00000000
00000000
00000000
00010000
,
00000000
00100000
00000000
00010000
,
00000000
01000000
00000000
00100000
,
10000000
01000000
00100000
00001000
,
00000000
00010000
00000000
00000010
,
00000000
00000100
00000000
00000001
,
00000100
00000010
00001000
00001000
,
00000000
00000100
00000000
00010000
,
00000000
00001000
00000000
01000000
,
00100000
10000000
01000000
00100000
,
00000000
00100000
00000000
00001000
,
00000000
00010000
00000000
00001000
,
00000100
00000010
00000001
00000001
,
00000010
00000100
00010000
00001000
,
00010000
00001000
01000000
00000000
,
00100000
00000000
01000000
00000000
,
00100000
00000000
01000000
00000000
,
00010000
10010000
00000000
00000000
,
01100000
00000000
00000000
10010000
,
00000000
00000000
01100000
00000000
,
00000000
00000001
00001000
00000000
,
00000100
00000000
00001000
00000000
,
00000100
00000000
00001000
00000000
,
00000010
00000110
00000000
00000000
,
00001001
00000000
00000000
00000110
,
00000000
00000000
00001001
00000000
,
00000000
00001000
00010000
00001000
,
00010000
00001000
00010000
00001000
,
00010000
00001000
00010000
00001000
,
00100000
00001000
00100000
00001000
,
00100000
00001000
00010000
00000010
,
00010000
00000010
00010000
00000010
,
00010000
00011000
00000000
00000000
,
00000000
00000000
00000000
00000000
,
00000000
00011000
00000000
00000000
,
00000000
00000000
00000000
00000000
,
00000000
00010000
00000000
00001000
,
00000000
00010000
00000000
00001000
,
00000000
01000000
00000000
00100000
,
00000000
01000000
00000000
00000000
,
00000000
01100000
00000000
00000000
,
00000000
00000000
00000000
00000000
,
00000000
00000110
00000000
00000000
,
00000000
00000000
00000000
00000000
,
00000000
00000010
00000000
00000100
,
00000010
00000100
00000000
00001000
,
00000000
00010000
00000000
00010000
,
00000000
00001000
00000000
00000000
,
00010000
00001000
00000000
00010000
,
00000000
00000010
00000000
00000100
,
00000000
00000001
00000000
00000010
,
00000000
00000100
00000000
00010000
,
00000000
00001000
00000000
00100000
,
00000000
00010000
00000000
01000000
,
00000000
00100000
00000000
10000000
,
00000000
01000000
00000000
00100000
,
00000000
00001000
00000000
00010000
,
00000000
00000100
00000000
00000010
,
00000000
00000001
00000000
00000100
,
00000000
00000010
00000000
00001000
,
00000000
00000100
00000000
00010000
,
00000000
00001000
00000000
00100000
,
00000000
01000000
00000000
10000000
,
00000000
10000000
01100000
00010000
,
01100000
10010000
00000000
00000000
,
01100000
00000000
00010000
00000000
,
00010000
00000000
00001000
00000000
,
00001000
01000000
00100000
00000000
,
00001000
00010000
00000000
00000000
,
00000000
00001000
00010000
00001000
,
00000000
00010000
00000100
00010000
,
00000000
00000010
00001000
00000010
,
00000000
00000001
00000001
00000001
,
00000100
00000100
00000010
00000100
,
00000100
00000001
00000010
00000100
,
00010000
00001000
00100000
01000000
,
00000000
10000000
00100000
01000000
,
00001000
00010010
00000100
00000001
,
00001000
00000110
00000000
00000110
,
00000001
00001000
00001000
00000001
,
00000000
00000100
00000000
00000100
,
00000000
00000010
00000000
00000010
,
00000000
00001000
00000000
00000001
,
00000000
00010000
00000000
00000010
,
00000000
00010000
00001000
00010000
,
00001000
01000000
00100000
01000000
,
00100000
10000000
01000000
00100000
,
00010000
10000000
01000000
00100000
,
00010000
00011000
00000000
00010000
;
