#TITLE:Sand and Hiroshi Takashi;
#SUBTITLE:OZIGIRI Remix;
#ARTIST:Akira Death;
#TITLETRANSLIT:;
#SUBTITLETRANSLIT:;
#ARTISTTRANSLIT:;
#CREDIT:Rynker;
#BANNER:Bn-Sand.png;
#BACKGROUND:Bg-Sand.png;
#LYRICSPATH:;
#CDTITLE:;
#MUSIC:Akira Death - Sand and Hiroshi Takashi (OZIGIRI Remix).ogg;
#OFFSET:-0.020;
#SAMPLESTART:20.456;
#SAMPLELENGTH:15.400;
#SELECTABLE:YES;
#DISPLAYBPM:250.000;
#BPMS:0.000=250.000,160.000=250.490,172.000=250.000,304.000=249.600,308.000=250.000,472.000=245.660,488.000=250.000;
#STOPS:;
#BGCHANGES:;
// cache tags:
#FIRSTBEAT:85.000;
#LASTBEAT:633.500;
#SONGFILENAME:Songs/SPEEEDCOOOORE/Sand and Hiroshi Takashi - [Rynker]/Sand and Hiroshi Takashi.sm;
#HASMUSIC:1;
#HASBANNER:1;
#MUSICLENGTH:153.130;
// end cache tags

//---------------dance-single - Rynker----------------
#NOTES:
     dance-single:
     Rynker:
     Challenge:
     15:
     1.000,1.000,0.790,0.007,0.673,1146.000,121.000,1.000,6.000,0.000:

0000
0000
0000
0000
,
0000
0000
0000
0000
,
0000
0000
0000
0000
,
0000
0000
0000
0000
,
0000
0000
0000
0000
,
0000
0000
0000
0000
,
0000
0000
0000
0000
,
0000
0000
0000
0000
,
0000
0000
0000
0000
,
0000
0000
0000
0000
,
0000
0000
0000
0000
,
0000
0000
0000
0000
,
0000
0000
0000
0000
,
0000
0000
0000
0000
,
0000
0000
0000
0000
,
0000
0000
0000
0000
,
0000
0000
0000
0000
,
0000
0000
0000
0000
,
0000
0000
0000
0000
,
0000
0000
0000
0000
,
0000
0000
0000
0000
,
0000
0000
0101
0000
0000
0011
0000
0000
,
0110
0000
1100
0000
0000
1010
0000
0000
,
0101
0000
1001
0000
0000
1100
0000
0000
,
0110
0000
0000
0000
0000
0000
0001
1000
0001
1000
0001
1000
0001
1000
0001
1000
,
0001
1000
0001
1000
0001
0000
0000
0000
0000
0000
1010
0000
0000
0000
0000
0000
,
1100
0000
0110
0000
0000
0011
0000
0000
,
0101
0000
1001
0000
0000
1100
0000
0000
,
0110
0000
0000
0000
0000
0000
0001
0100
0001
0100
0001
0100
0001
0100
0001
0100
,
0001
0100
0001
0100
0001
0000
0000
0000
0000
0000
1001
0000
0000
0000
0000
0000
,
0101
0000
1010
0000
0000
0011
0000
0000
,
1100
0000
1001
0000
0000
0011
0000
0000
,
1010
0000
0000
0000
0000
0000
1000
0100
1000
0100
1000
0100
1000
0100
1000
0100
,
1000
0100
1000
0100
1000
0000
0000
0000
0000
0000
1100
0000
0000
0000
0000
0000
,
0110
0000
1001
0000
0000
0101
0000
0000
,
0011
0000
1001
0000
0000
1010
0000
0000
,
0110
0000
0000
0000
0000
0000
0001
0010
0001
0010
0001
0010
0001
0010
0001
0010
,
0001
0010
0001
0010
0001
0000
1000
0000
0001
0000
1000
0000
0010
0000
1000
0000
,
0001
0010
0100
0010
0100
1000
0001
1000
,
0010
0100
0001
0010
0001
0010
0100
1000
,
0100
1000
0010
0100
0010
0100
0001
1000
,
0100
1000
0010
0100
0010
0100
0001
0010
,
0001
0010
0100
1000
0100
1000
0010
0100
,
0001
1000
0100
0010
0100
0010
0001
0010
,
0001
0010
0100
1000
0100
1000
0010
0100
,
0001
1000
0001
1000
0001
0000
0100
0000
0010
0000
1000
0000
0001
0000
0010
0000
,
0100
0010
0001
1000
0010
0100
0010
1000
,
0001
0000
0010
0000
0100
0000
1000
0000
0001
0000
0100
0000
0001
0100
0001
0000
,
1000
0000
0100
0000
0010
0000
0001
0000
0100
0000
0001
0000
1000
0010
1000
0010
,
1000
0001
0010
0100
0010
0001
1000
0010
,
0100
0001
1000
0100
0010
0001
0100
0010
,
0100
0001
1000
0001
1000
0000
0001
0000
0100
0000
0010
0000
1000
0000
0100
0000
,
0010
0000
0100
0000
1000
0100
1000
0100
1000
0000
0001
0000
0100
0001
0100
0001
,
1000
0001
1000
0001
1000
0000
0100
0000
0010
0000
0001
0000
0100
0001
0100
0000
,
0001
0000
1000
0000
0100
0010
0100
0000
0010
0000
0001
0000
1000
0001
1000
0000
,
0001
0100
0001
0000
0100
0010
0100
0000
0010
0000
1000
0000
0001
0010
0001
0000
,
0010
0000
0100
0000
1000
0100
1000
0000
0001
0000
0010
0000
0001
0100
0001
0100
,
0010
0000
1000
0000
0001
0010
0001
0000
0010
0000
0100
0000
1000
0001
1000
0000
,
0010
0000
0100
0000
0010
0100
0010
0000
1000
0000
0001
0000
0010
0000
0100
0000
,
1000
0010
1000
0010
1000
0000
0001
0000
0010
0000
0100
0000
1000
0000
0010
0000
,
0100
0000
0001
0000
1000
0100
1000
0100
1000
0000
0001
0000
0100
0000
0010
0000
,
1000
0001
1000
0001
1000
0000
0001
0000
0010
0000
0110
0000
0100
0000
1000
0000
,
1001
0001
1000
0010
0100
0001
1000
0100
,
0010
0001
0011
0010
0100
1100
1000
0001
,
1001
0000
1000
0000
0010
0000
0100
0000
0010
0000
1000
0000
0001
1000
0001
1000
,
0001
1000
1100
0100
0010
0011
0001
0100
,
0110
0010
1000
0001
0010
0100
1000
0100
,
0010
0001
0011
0010
0100
0110
0010
0001
,
1001
0000
1000
0000
0010
0100
0010
0000
1000
0000
0001
0000
0010
0000
0100
1000
,
0100
1000
0100
1000
0100
0000
1000
0000
0001
0000
0101
0000
0100
0000
0010
0000
,
1010
1000
0001
0010
0100
1000
0100
0010
,
0001
1000
1001
0001
1000
1010
0010
1000
,
1001
0000
0001
0000
0010
0000
0100
0000
1000
0000
0010
0000
0100
0010
1000
0010
,
1000
0001
0100
0010
1000
0001
0010
0100
,
1000
0001
0010
0100
0010
0100
1000
0001
,
0100
0010
0100
0010
0100
0000
0001
0000
1000
0000
0100
0000
0010
0000
0001
0000
,
0100
0000
0001
0000
0100
0001
0100
0001
0100
0000
0010
0000
1000
0000
0100
0000
,
0010
0001
0010
0001
1000
0000
1010
0000
0000
0000
0101
0000
0101
0000
0000
0000
,
1000
1000
0100
0010
0001
0001
0100
0010
,
1000
0000
1000
0000
0100
0000
0010
0000
0001
0100
0001
0100
0001
0000
1000
0000
,
0010
0000
0100
0000
0100
0000
0001
0100
0001
0000
1000
0100
1000
0000
0001
0010
,
0001
0000
1000
0100
1000
0000
0001
0000
0000
0000
0011
0000
0011
0000
0000
0000
,
1100
1000
0001
0100
0001
0001
0010
0100
,
1000
0000
1000
0000
0010
0000
0100
0000
0001
0100
0001
0100
0001
1000
0100
0000
,
0010
0001
0010
0000
0001
0100
0001
0000
1000
0100
1000
0100
1000
0001
0010
0001
,
0010
0000
0001
0100
0001
0000
0100
0000
0010
0000
1000
0000
0001
0010
0001
0000
,
0010
0000
0100
0000
1000
0000
0001
0000
0100
0000
0010
0000
0100
0001
0100
0000
,
0001
0000
1000
0000
0100
0000
0010
0000
0100
0000
1000
0000
0001
0100
0001
0000
,
1000
0000
0010
0000
0100
0000
0010
0000
1000
0000
0001
0000
0010
0100
0010
0000
,
0100
0000
1000
0000
0001
0000
0100
0000
0010
0000
1000
0000
0001
0100
0001
0000
,
1000
0000
0100
0000
0010
0000
0100
0000
1000
0000
0001
0000
0100
0010
0100
0000
,
0001
0010
0100
1000
0010
0100
0001
1000
,
0100
0000
0010
0000
0001
1000
0001
1000
0001
0100
0001
0100
0001
1000
0100
1000
,
0100
1100
0011
0101
,
1001
0000
1000
0000
0100
0000
0010
0000
0001
0100
0001
0000
1000
0000
0001
0000
,
0100
0000
0010
0000
1000
0000
0100
0000
0010
0100
0010
0000
0100
0000
1000
0000
,
0001
0000
0100
0000
0010
0000
0100
0000
0001
0100
0001
0000
1000
0000
0100
0000
,
0010
0000
0001
0000
0100
0000
0001
0000
1000
0001
1000
0000
0001
0000
0100
0000
,
0010
1000
0100
0010
0001
1000
0100
0010
,
0001
1000
0100
0010
0001
1000
0100
0010
,
0001
0100
0001
0100
0001
0000
1000
0000
0100
1000
0100
1000
0100
0000
0010
0000
,
0001
0000
0001
0000
0001
0000
1000
0000
1000
0001
1000
0001
1000
0001
1000
0001
,
1000
0000
0000
1100
0000
0000
0110
0000
,
0011
0000
0000
0101
0000
0000
1010
0000
,
1001
0000
0000
0011
0000
0000
0110
0000
,
0000
0000
1000
0001
1000
0001
1000
0001
1000
0001
1000
0001
1000
0001
1000
0001
,
1000
0000
0000
0101
0000
0000
0011
0000
,
0110
0000
0000
1100
0000
0000
1010
0000
,
1001
0000
0000
0000
M00M
0000
0000
0000
0000
0011
0000
0000
0000
00MM
0000
0000
0000
0000
0110
0000
0000
0000
0MM0
0000
,
0000
0000
1000
0010
1000
0010
0100
0001
0100
0001
0100
0001
0100
0001
0100
0001
,
0100
0000
0000
1001
0000
0000
1010
0000
,
0101
0000
0000
1100
0000
0000
0011
0000
,
1001
0000
0000
1100
0000
0000
0101
0000
,
0000
0000
0001
0010
0001
0010
0001
0010
0001
0010
0001
0010
0001
0010
0001
0010
,
0001
0000
0000
0011
0000
0000
0110
0000
,
1001
0000
0000
1010
0000
0000
1100
0000
,
1001
0000
0000
0101
0000
0000
0110
0000
,
1000
0100
1000
0100
1000
0100
1000
0100
1000
0100
1000
0100
1000
0100
1000
0100
,
1000
0001
0100
0010
1000
0001
0010
0100
,
0010
0001
1000
0001
0100
0010
1000
0001
,
0101
0100
0010
1000
0001
0010
0100
1000
,
0001
0100
0010
1000
0001
0010
0100
1000
,
1001
0001
0100
0101
0001
0010
0110
0100
,
1000
0001
0100
0010
0100
0001
1000
0100
,
0110
0010
0001
0011
0010
0100
1100
1000
,
0001
0000
0100
0000
0010
0000
1000
0000
0001
0010
0001
0010
0001
0000
0010
0000
,
0110
0100
1000
1001
0001
0100
0101
0001
,
1000
0000
0001
0000
0100
0000
0010
0000
0100
0000
0001
0000
1000
0100
1000
0100
,
1000
0100
0010
0011
0001
1000
1001
0001
,
0100
0010
0100
0010
1000
0000
0001
0000
0010
0000
0100
1000
0100
1000
0001
1000
,
0001
0100
0001
1001
1000
0100
0110
0010
,
0001
0100
0010
0100
0001
1000
0100
0010
,
0011
0001
1000
1001
0001
0100
0110
0010
,
1000
0000
0100
0000
0010
0000
0001
0000
0010
0001
0010
0001
1000
0000
0001
0000
,
0101
0100
0010
1010
1000
0001
0011
0010
,
0100
0000
1000
0000
0001
0000
0100
0000
0001
0000
1000
0000
0100
0010
0100
0010
,
0001
0100
0001
1000
0100
0010
0001
0100
,
0001
1000
0001
1000
0001
0000
1000
0000
0100
0000
0010
0000
0001
0100
0001
0100
,
0001
0000
0100
0000
0010
0000
1000
0000
0001
0010
0001
0000
0010
0000
0100
0000
,
1000
0001
1000
0000
0001
0000
0100
0000
0010
1000
0010
0000
0100
0010
0100
0000
,
0001
0100
0001
0000
1000
0000
0100
0000
0010
0001
0010
0000
0001
0000
0100
0000
,
0001
0100
0001
0000
1000
0000
0100
0000
0010
0001
0010
0000
0001
0100
0001
0000
,
1000
0100
1000
0000
0001
0000
0010
0000
0100
1000
0100
0000
1000
0000
0001
0000
,
0100
0001
0100
0000
0001
0000
0010
0000
0100
1000
0100
0000
1000
0010
1000
0000
,
0001
0010
0001
0000
0100
0000
0001
0000
0010
0100
0010
0000
0100
0000
1000
0000
,
0001
0100
0001
0000
1000
0000
0010
0000
0100
0010
0100
0001
1000
0001
1000
0001
,
1000
0000
0001
0000
0100
0001
0100
0001
0100
0000
0001
0000
1000
0000
0100
0000
,
0010
0000
0001
0000
0100
0001
0100
0001
0100
0000
0010
0000
1000
0001
1000
0001
,
1000
0001
0010
0000
0100
0000
1000
0100
1000
0100
1000
0000
0001
0010
0001
0000
,
1000
0000
0001
0000
0100
0000
0010
0000
1000
0000
0001
0000
0010
0001
0010
0000
,
0100
0000
1000
0000
0001
0100
0001
0100
0001
0000
1000
0000
0010
0000
0100
0000
,
0010
1000
0010
1000
0001
0000
1000
0000
0100
0000
0010
0001
0010
0001
1000
0000
,
0001
0000
0100
0000
0001
1000
0001
0000
1000
0000
0100
0000
0010
0100
0010
0000
,
0001
0000
1000
0000
0001
0100
0001
0100
0010
0000
1000
0000
0001
0010
0100
0010
,
0100
1000
0110
1001
,
0001
0011
1100
0001
,
1010
0101
0001
0110
,
1100
1000
0011
1020
,
0000
0000
0000
0030
0000
0000
0000
0000
;
