#TITLE:Sound of SOS;
#SUBTITLE:;
#ARTIST:DJ Sharpnel;
#TITLETRANSLIT:;
#SUBTITLETRANSLIT:;
#ARTISTTRANSLIT:;
#CREDIT:;
#BANNER:sound of sos bn.png;
#BACKGROUND:sound of sos bg.png;
#LYRICSPATH:;
#CDTITLE:;
#MUSIC:Sound of SOS.ogg;
#OFFSET:-0.357;
#SAMPLESTART:109.685;
#SAMPLELENGTH:19.876;
#SELECTABLE:YES;
#BPMS:0.000=193.190;
#STOPS:;
#BGCHANGES:;
// cache tags:
#FIRSTBEAT:0.000;
#LASTBEAT:1016.000;
#SONGFILENAME:Songs/SHARPNELSTREAMZ v2/Sound of SOS/Sound of SOS.sm;
#HASMUSIC:1;
#HASBANNER:1;
#MUSICLENGTH:316.133;
// end cache tags

//---------------dance-single - 16 (CTalon)----------------
#NOTES:
     dance-single:
     16 (CTalon):
     Challenge:
     16:
     1.000,1.000,0.041,0.155,1.000,3097.000,13.000,49.000,1.000,0.000:
1001
1000
0200
0300
,
0020
0030
0020
0030
,
1001
0001
0200
0300
,
0002
0003
0002
0003
,
1001
1000
0020
0030
,
2000
3000
2000
3000
,
1001
0001
2000
3000
,
0200
0300
0200
0300
,
1001
0001
0020
0030
,
0200
0300
0200
0300
,
1001
1000
0020
0030
,
2000
3000
2000
3000
,
1001
0001
0200
0300
,
0002
0003
0002
0003
,
1001
1000
0200
0300
,
0020
0030
0020
0030
,
1001
0000
0001
1000
0001
0000
0100
0010
1000
0000
0001
0010
0100
0000
0010
0001
,
1000
0000
0001
0100
0001
0000
1000
0010
0100
0000
0001
0010
0100
0000
0010
0001
,
1000
0000
0001
0100
0001
0000
1000
0010
0100
0000
0001
0010
0100
0000
0010
0001
,
1000
0000
0001
0100
0010
0000
1000
0001
1000
0000
0100
0010
0001
0000
0010
0100
,
0010
0000
0001
1000
0010
0000
1000
0001
0010
0000
0100
1000
0100
0000
1000
0001
,
0100
0000
0010
1000
0010
0000
1000
0100
0010
0000
0001
0100
0001
0000
1000
0001
,
0010
0000
0100
1000
0001
0000
0100
0010
1000
0000
0001
0010
0100
0000
0010
0001
,
1000
0000
0001
0100
0001
0000
1000
0100
1000
0000
0100
0010
0001
0000
1000
0010
,
1000
0000
0001
0010
0100
0000
0010
0001
1000
0000
0001
0100
0001
0000
0010
0001
,
1000
0000
0010
0100
0010
0000
1000
0100
0010
0000
0001
0100
0001
0000
0010
0100
,
1000
0000
0001
1000
0010
0000
1000
0100
0010
0000
0100
1000
0001
0000
0100
0010
,
1000
0000
0001
0010
0100
0000
0010
0001
1000
0000
0010
0100
0001
0000
1000
0100
,
0010
0000
0001
0010
0001
0000
1000
0010
0100
0000
0001
0010
0001
0000
1000
0100
,
0010
0000
0100
1000
0001
0000
0100
0010
1000
0000
0100
0010
0001
0000
1000
0001
,
0100
0000
0010
1000
0001
0000
0010
0100
1000
0000
0100
0010
0100
0000
1000
0001
,
0100
0010
1000
0001
1000
0100
0010
0001
0100
0010
1000
0001
0010
0100
1000
0001
,
1000
0001
0100
0010
1000
0001
0010
0100
0010
0001
0010
0100
1000
0001
0100
0001
,
1000
0010
1000
0001
0010
0100
0010
0001
0010
0100
1000
0001
0100
0010
1000
0010
,
1000
0001
1000
0100
0010
0100
1000
0100
1000
0001
1000
0100
0010
0001
1000
0001
,
0100
0010
1000
0001
0010
0100
0010
0001
1000
0000
0010
0100
0001
0000
0100
0010
,
1000
0001
0010
0100
1000
0001
0010
0100
0010
0001
1000
0100
1000
0001
0100
0010
,
0100
0001
1000
0001
0010
0100
0010
0001
1000
0001
0100
0010
1000
0010
1000
0001
,
0010
0100
1000
0100
1000
0001
0100
0001
1000
0001
0100
0010
1000
0001
1000
0001
,
0010
0100
1000
0001
1000
0010
0100
0010
1000
0000
0001
0010
0100
0000
0010
0001
,
1000
0010
0100
0001
1000
0001
0010
0100
1000
0100
1000
0001
0100
0010
1000
0001
,
1000
0100
0010
0100
1000
0001
0100
0001
0100
0010
0100
0001
1000
0001
0010
0100
,
1000
0100
1000
0001
0100
0010
1000
0001
1000
0100
0010
0100
1000
0001
0100
0010
,
0100
0001
1000
0100
1000
0001
0010
0100
1000
0000
0001
0100
0001
0000
1000
0100
,
1000
0001
0010
0100
1000
0001
0100
0001
0100
0010
1000
0010
0100
0001
1000
0100
,
0010
0100
1000
0001
0100
0001
1000
0100
1000
0001
0010
0001
0010
0100
1000
0100
,
1000
0001
0100
0010
1000
0001
1000
0100
1000
0001
0010
0100
1000
0001
0100
0010
,
1000
0010
1000
0000
0001
0100
0001
0000
0010
0100
1000
0000
0100
0010
0001
1000
,
0001
1000
0010
0100
0001
1000
0100
0010
0100
1000
0100
0010
0001
1000
0010
1000
,
0001
0100
0001
1000
0100
0010
0100
1000
0100
0010
0001
1000
0010
0100
0001
0100
,
0001
1000
0001
0010
0100
0010
0001
0010
0001
1000
0001
0010
0100
1000
0001
1000
,
0010
0100
0001
1000
0100
0010
0100
1000
0001
0000
0100
0010
1000
0000
0010
0100
,
0001
1000
0100
0010
0001
1000
0100
0010
0100
1000
0001
0010
0001
1000
0010
0100
,
0010
1000
0001
1000
0100
0010
0100
1000
0001
1000
0010
0100
0001
0100
0001
1000
,
0100
0010
0001
0010
0001
1000
0010
1000
0001
1000
0010
0100
0001
1000
0001
1000
,
0100
0010
0001
1000
0001
0100
0010
0100
0001
0000
1000
0100
0010
0000
0100
1000
,
0001
0100
0010
1000
0001
1000
0100
0010
0001
0010
0001
1000
0010
0100
0001
1000
,
0001
0010
0100
0010
0001
1000
0010
1000
0010
0100
0010
1000
0001
1000
0100
0010
,
0001
0010
0001
1000
0010
0100
0001
1000
0001
0010
0100
0010
0001
1000
0010
0100
,
0010
1000
0001
0010
0001
1000
0100
0010
0001
0000
1000
0010
1000
0000
0001
0010
,
0001
1000
0100
0010
0001
1000
0010
1000
0010
0100
0001
0100
0010
1000
0001
0010
,
0100
0010
0001
1000
0010
1000
0001
0010
0001
1000
0100
1000
0100
0010
0001
0010
,
0001
1000
0010
0100
0001
1000
0001
0010
0001
1000
0100
0010
0001
1000
0010
0100
,
0001
1000
0000
0100
0000
0010
0001
1000
,
0001
0010
0100
0000
1000
0000
0010
0000
1000
0001
0010
0000
0001
0000
1000
0000
,
0010
0100
0001
0000
1000
0000
0100
0000
0010
0001
1000
0000
0001
0000
0001
0000
,
0100
0001
1000
0000
0100
0000
0010
0000
0100
1000
0001
0000
0100
0000
0010
0000
,
1000
0100
0010
0000
0001
0000
1000
0000
0100
0000
0010
0001
1000
0000
0010
0100
,
0001
1000
0001
0000
1000
0000
0100
0000
0010
0001
1000
0000
0010
0000
0100
0000
,
0001
1000
0010
0000
1000
0000
0100
0000
0010
0001
1000
0000
0010
0000
0010
0000
,
1000
0001
1000
0000
0010
0000
1000
0000
0001
0010
0100
0000
1000
0000
0010
0000
,
1000
0001
1000
0000
0100
0000
0010
0000
0001
0000
1000
0010
0100
0000
0001
0010
,
0100
1000
0100
0000
1000
0000
0001
0000
0100
0010
1000
0000
0001
0000
0010
0000
,
0100
0010
0001
0000
1000
0000
0010
0000
0100
0001
1000
0000
0100
0000
0100
0000
,
0010
0001
1000
0000
0010
0000
0100
0000
0010
1000
0001
0000
1000
0000
0100
0000
,
0010
0001
0100
0000
0001
0000
1000
0000
0100
0000
0010
0001
1000
0000
0010
0100
,
0001
1000
0100
0000
1000
0000
0100
0000
0010
0001
1000
0000
0010
0000
0100
0000
,
0001
0010
0001
0000
1000
0000
0010
0000
0100
0001
1000
0000
0001
0000
0001
0000
,
0100
0010
1000
0000
0001
0000
0010
0000
0100
0010
0001
0000
1000
0000
0010
0000
,
0100
0001
1000
0000
0100
0010
0001
0000
1000
0001
0100
0000
0010
1000
0100
1000
,
0001
0001
0200
0300
,
0020
0030
0020
0030
,
1001
1000
0200
0300
,
2000
3000
2000
3000
2000
0000
3000
0000
,
1001
0001
0200
0300
,
0020
0030
0020
0030
0020
0000
0030
0000
,
1001
1000
0200
0300
,
1000
0001
0010
0100
1000
0001
1000
0100
1000
0001
0100
0001
0100
0010
1000
0001
,
1000
0100
0010
0001
1000
0001
1000
0100
0010
0001
1000
0001
1000
0010
0100
0001
,
1000
0001
1000
0100
1000
0010
1000
0001
1000
0100
0010
0001
1000
0001
0010
0100
,
1000
0010
0100
0001
1000
0001
1000
0010
0100
0001
1000
0001
1000
0100
0010
0001
,
1000
0001
1000
0010
1000
0100
1000
0001
1000
0010
0100
0001
0010
0100
0010
0001
,
1000
0100
1000
0100
0010
0001
1000
0010
0100
0001
1000
0100
1000
0001
0100
0010
,
1000
0100
1000
0100
0010
0001
1000
0010
0100
0001
1000
0100
1000
0001
0100
0010
,
1000
0100
1000
0100
0010
0001
1000
0001
0100
0001
1000
0001
0100
0001
1000
0100
,
0010
0001
1000
0001
0010
0001
1000
0001
0010
0100
1000
0010
0100
0001
0010
0100
,
1000
0010
0100
0001
1000
0001
1000
0010
0100
0001
1000
0001
1000
0100
0010
0001
,
1000
0001
1000
0010
1000
0100
1000
0001
1000
0010
0100
0001
1000
0001
0100
0010
,
1000
0100
0010
0001
1000
0001
1000
0100
0010
0001
1000
0001
1000
0010
0100
0001
,
1000
0001
1000
0100
1000
0010
1000
0001
1000
0100
0010
0001
0100
0010
0100
0001
,
1000
0010
1000
0010
0100
0001
1000
0100
0010
0001
1000
0010
1000
0001
0010
0100
,
1000
0010
1000
0010
0100
0001
1000
0100
0010
0001
1000
0010
1000
0001
0010
0100
,
1000
0010
0100
0001
1000
0010
0100
0001
1000
0010
0100
0001
1000
0100
0010
0100
,
1000
0001
1000
0001
0100
0010
1000
0100
0010
0001
1000
0001
0100
0001
0010
0001
,
1000
0100
1000
0001
0100
0001
1000
0100
0010
0001
1000
0100
0010
0001
0010
0100
,
1000
0001
1000
0010
1000
0001
1000
0010
1000
0100
0010
0100
1000
0100
0010
0100
,
1000
0010
1000
0001
0010
0001
1000
0010
0100
0001
1000
0010
0100
0001
0100
0010
,
1000
0001
1000
0100
1000
0001
1000
0100
1000
0010
0100
0010
1000
0010
0100
0010
,
1000
0001
0100
0000
0000
0010
1000
0000
,
0001
1000
0010
0100
0001
1000
0100
0010
0100
1000
0100
0010
0001
1000
0001
0100
,
0001
1000
0010
1000
0010
1000
0100
0010
,
0001
0010
0100
0010
0001
1000
0010
0010
,
0100
0001
1000
0100
0010
0100
1000
0001
,
0100
0000
0001
0000
1000
0000
0010
0000
0100
0000
0001
0010
0100
0000
1000
0001
,
0100
0010
1000
0100
1000
0010
0100
0001
,
1000
0100
0010
0001
1000
0010
0100
0100
,
0001
0010
0100
0010
0001
1000
0010
0100
,
0001
1000
0001
1000
0100
0010
0100
1000
0001
0100
0010
1000
0001
1000
0001
0010
,
0001
0010
0100
1000
0100
0010
0001
1000
,
0010
0100
0001
1000
0010
0100
0010
0010
,
1000
0100
1000
0001
0100
0001
0010
0100
,
1000
0000
0001
0000
0100
0000
0010
0000
1000
0000
0100
0010
0001
0000
1000
0001
,
0010
0100
0010
0001
1000
0010
0100
0001
,
1000
0100
1000
0010
0100
0001
0010
0010
,
0100
1000
0001
1000
0001
0100
0010
1000
,
0100
0000
0010
0000
0001
0000
1000
0000
0010
0000
0100
0001
1000
0000
0100
0010
,
0001
1000
0010
1000
0001
1000
0100
0010
,
0100
1000
0001
0100
0010
1000
0100
0100
,
0010
0001
1000
0001
0100
0010
1000
0001
,
0010
0000
0100
0000
1000
0000
0001
0000
0100
0000
0010
1000
0001
0000
1000
0100
,
0010
0001
1000
0010
0100
0001
1000
0100
,
0010
0100
1000
0001
0100
0010
0100
0100
,
0001
0010
0100
1000
0001
0100
0010
1000
,
0001
0000
1000
0000
0010
0000
0100
0000
0001
0000
0010
0100
1000
0000
0010
1000
,
0001
0010
0001
1000
0010
0100
0001
1000
0001
0010
0100
1000
0001
1000
0100
0010
,
0001
1000
0001
0100
0010
1000
0001
1000
0100
1000
0010
0100
0001
0010
0001
1000
,
0001
0100
0001
1000
0100
0010
0001
1000
0001
0100
0010
1000
0001
1000
0010
0100
,
0001
1000
0001
0010
0100
1000
0001
1000
0100
1000
0010
0100
0001
0010
0001
1000
,
0001
0010
0001
1000
0010
0100
0001
1000
0001
0010
0100
1000
0001
1000
0100
0010
,
0001
1000
0001
0100
0010
1000
0001
1000
0010
1000
0100
0010
0001
0100
0001
1000
,
0001
0100
0001
1000
0100
0010
0001
1000
0001
0100
0010
1000
0001
1000
0010
0100
,
0001
1000
0001
0010
0100
1000
0001
1000
0010
1000
0100
0010
0001
0100
0001
1000
,
0001
0010
0001
1000
0010
0100
0001
1000
0001
0010
0100
1000
0001
1000
0100
0010
,
0001
1000
0001
0100
0010
1000
0001
1000
0100
1000
0010
0100
0001
0010
0001
1000
,
0001
0100
0001
1000
0100
0010
0001
1000
0001
0100
0010
1000
0001
1000
0010
0100
,
0001
1000
0001
0010
0100
1000
0001
1000
0100
1000
0010
0100
0001
0010
0001
1000
,
0001
0010
0001
1000
0010
0100
0001
1000
0001
0010
0100
1000
0001
1000
0100
0010
,
0001
1000
0001
0100
0010
1000
0001
1000
0010
1000
0100
0010
0001
0100
0001
1000
,
0001
0100
0010
1000
0100
0010
0001
1000
,
0001
0100
0010
0000
1000
0001
0100
0000
0010
0000
0010
0000
2000
0000
3000
0000
,
0001
1000
0010
0100
0001
1000
0100
0010
0100
1000
0100
0010
0001
1000
0010
1000
,
0001
0100
0001
1000
0100
0010
0100
1000
0100
0010
0001
1000
0010
0100
0001
0100
,
0001
1000
0001
0010
0100
0010
0001
0010
0001
1000
0001
0010
0100
1000
0001
1000
,
0010
0100
0001
1000
0100
0010
0100
1000
0001
0000
0100
0010
1000
0000
0010
0100
,
0001
1000
0100
0010
0001
1000
0100
0010
0100
1000
0001
0010
0001
1000
0010
0100
,
0010
1000
0001
1000
0100
0010
0100
1000
0001
1000
0010
0100
0001
0100
0001
1000
,
0100
0010
0001
0010
0001
1000
0010
1000
0001
1000
0010
0100
0001
1000
0001
1000
,
0100
0010
0001
1000
0001
0100
0010
0100
0001
0000
1000
0100
0010
0000
0100
1000
,
0001
0100
0010
1000
0001
1000
0100
0010
0001
0010
0001
1000
0010
0100
0001
1000
,
0001
0010
0100
0010
0001
1000
0010
1000
0010
0100
0010
1000
0001
1000
0100
0010
,
0001
0010
0001
1000
0010
0100
0001
1000
0001
0010
0100
0010
0001
1000
0010
0100
,
0010
1000
0001
0010
0001
1000
0100
0010
0001
0000
1000
0010
1000
0000
0001
0010
,
0001
1000
0100
0010
0001
1000
0010
1000
0010
0100
0001
0100
0010
1000
0001
0010
,
0100
0010
0001
1000
0010
1000
0001
0010
0001
1000
0100
1000
0100
0010
0001
0010
,
0001
1000
0010
0100
0001
1000
0001
0010
0001
1000
0100
0010
0001
1000
0010
0100
,
0001
0100
0001
0000
1000
0010
1000
0000
0100
0010
0001
0000
0010
0100
1000
0001
,
1000
0001
0100
0010
1000
0001
0010
0100
0010
0001
0010
0100
1000
0001
0100
0001
,
1000
0010
1000
0001
0010
0100
0010
0001
0010
0100
1000
0001
0100
0010
1000
0010
,
1000
0001
1000
0100
0010
0100
1000
0100
1000
0001
1000
0100
0010
0001
1000
0001
,
0100
0010
1000
0001
0010
0100
0010
0001
1000
0000
0010
0100
0001
0000
0100
0010
,
1000
0001
0010
0100
1000
0001
0010
0100
0010
0001
1000
0100
1000
0001
0100
0010
,
0100
0001
1000
0001
0010
0100
0010
0001
1000
0001
0100
0010
1000
0010
1000
0001
,
0010
0100
1000
0100
1000
0001
0100
0001
1000
0001
0100
0010
1000
0001
1000
0001
,
0010
0100
1000
0001
1000
0010
0100
0010
1000
0000
0001
0010
0100
0000
0010
0001
,
1000
0000
1000
0010
0000
2000
0000
3000
,
0100
0000
0100
0010
0000
0002
0000
0003
,
2000
0000
3000
0020
0000
0030
0000
1000
,
0000
0100
0010
0002
0000
1003
0010
0100
,
0001
0000
0001
0010
0000
0200
0000
0300
,
1000
0000
1000
0010
0000
2000
0000
3000
,
0200
0000
0300
0020
0000
0030
0000
0001
,
1000
0010
0100
0000
0001
0010
0100
0000
0010
0000
0010
0000
0002
0000
0003
0000
,
1000
0100
0010
0001
1000
0001
1000
0100
0010
0001
1000
0001
1000
0010
0100
0001
,
1000
0001
1000
0100
1000
0010
1000
0001
1000
0100
0010
0001
1000
0001
0010
0100
,
1000
0010
0100
0001
1000
0001
1000
0010
0100
0001
1000
0001
1000
0100
0010
0001
,
1000
0001
1000
0010
1000
0100
1000
0001
1000
0010
0100
0001
0010
0100
0010
0001
,
1000
0100
1000
0100
0010
0001
1000
0010
0100
0001
1000
0100
1000
0001
0100
0010
,
1000
0100
1000
0100
0010
0001
1000
0010
0100
0001
1000
0100
1000
0001
0100
0010
,
1000
0100
1000
0100
0010
0001
1000
0001
0100
0001
1000
0001
0100
0001
1000
0100
,
0010
0001
1000
0001
0010
0001
1000
0001
0010
0100
1000
0010
0100
0001
0010
0100
,
1000
0010
0100
0001
1000
0001
1000
0010
0100
0001
1000
0001
1000
0100
0010
0001
,
1000
0001
1000
0010
1000
0100
1000
0001
1000
0010
0100
0001
1000
0001
0100
0010
,
1000
0100
0010
0001
1000
0001
1000
0100
0010
0001
1000
0001
1000
0010
0100
0001
,
1000
0001
1000
0100
1000
0010
1000
0001
1000
0100
0010
0001
0100
0010
0100
0001
,
1000
0010
1000
0010
0100
0001
1000
0100
0010
0001
1000
0010
1000
0001
0010
0100
,
1000
0010
1000
0010
0100
0001
1000
0100
0010
0001
1000
0010
1000
0001
0010
0100
,
1000
0010
0100
0001
1000
0010
0100
0001
1000
0010
0100
0001
1000
0100
0010
0100
,
1000
0001
1000
0001
0100
0010
1000
0100
0010
0001
1000
0001
0100
0001
1000
0001
,
1000
0100
0010
0001
1000
0001
1000
0100
0010
0001
1000
0001
1000
0010
0100
0001
,
1000
0001
1000
0100
1000
0010
1000
0001
1000
0100
0010
0001
1000
0001
0010
0100
,
1000
0010
0100
0001
1000
0001
1000
0010
0100
0001
1000
0001
1000
0100
0010
0001
,
1000
0001
1000
0010
1000
0100
1000
0001
1000
0010
0100
0001
0010
0100
0010
0001
,
1000
0100
1000
0100
0010
0001
1000
0010
0100
0001
1000
0100
1000
0001
0100
0010
,
1000
0100
1000
0100
0010
0001
1000
0010
0100
0001
1000
0100
1000
0001
0100
0010
,
1000
0100
1000
0100
0010
0001
1000
0001
0100
0001
1000
0001
0100
0001
1000
0100
,
0010
0001
1000
0001
0010
0001
1000
0001
0010
0100
1000
0010
0100
0001
0010
0100
,
1000
0010
0100
0001
1000
0001
1000
0010
0100
0001
1000
0001
1000
0100
0010
0001
,
1000
0001
1000
0010
1000
0100
1000
0001
1000
0010
0100
0001
1000
0001
0100
0010
,
1000
0100
0010
0001
1000
0001
1000
0100
0010
0001
1000
0001
1000
0010
0100
0001
,
1000
0001
1000
0100
1000
0010
1000
0001
1000
0100
0010
0001
0100
0010
0100
0001
,
1000
0010
1000
0010
0100
0001
1000
0100
0010
0001
1000
0010
1000
0001
0010
0100
,
1000
0010
1000
0010
0100
0001
1000
0100
0010
0001
1000
0010
1000
0001
0010
0100
,
1000
0010
0100
0001
1000
0010
0100
0001
1000
0010
0100
0001
1000
0100
0010
0100
,
1000
0001
1000
0001
0100
0010
1000
0100
0010
0001
1000
0001
0100
0001
0010
0001
,
1000
0100
1000
0001
0100
0001
1000
0100
0010
0001
1000
0100
0010
0001
0010
0100
,
1000
0001
1000
0010
1000
0001
1000
0010
1000
0100
0010
0100
1000
0100
0010
0100
,
1000
0010
1000
0001
0010
0001
1000
0010
0100
0001
1000
0010
0100
0001
0100
0010
,
1000
0001
1000
0100
1000
0001
1000
0100
1000
0010
0100
0010
1000
0010
0100
0010
,
1000
0001
0100
0000
0000
0010
1000
0000
,
0000
0001
1000
0100
0010
0000
0110
0000
,
1000
0001
0100
0010
1000
0001
0010
0100
0010
0001
0010
0100
1000
0001
0100
0001
,
1000
0010
1000
0001
0010
0100
0010
0001
0010
0100
1000
0001
0100
0010
1000
0010
,
1000
0001
1000
0100
0010
0100
1000
0100
1000
0001
1000
0100
0010
0001
1000
0001
,
0100
0010
1000
0001
0010
0100
0010
0001
1000
0000
0010
0100
0001
0000
0100
0010
,
1000
0001
0010
0100
1000
0001
0010
0100
0010
0001
1000
0100
1000
0001
0100
0010
,
0100
0001
1000
0001
0010
0100
0010
0001
1000
0001
0100
0010
1000
0010
1000
0001
,
0010
0100
1000
0100
1000
0001
0100
0001
1000
0001
0100
0010
1000
0001
1000
0001
,
0010
0100
1000
0001
1000
0010
0100
0010
1000
0000
0001
0010
0100
0000
0010
0001
,
1000
0010
0100
0001
1000
0001
0010
0100
1000
0100
1000
0001
0100
0010
1000
0001
,
1000
0100
0010
0100
1000
0001
0100
0001
0100
0010
0100
0001
1000
0001
0010
0100
,
1000
0100
1000
0001
0100
0010
1000
0001
1000
0100
0010
0100
1000
0001
0100
0010
,
0100
0001
1000
0100
1000
0001
0010
0100
1000
0000
0001
0100
0001
0000
1000
0100
,
1000
0001
0010
0100
1000
0001
0100
0001
0100
0010
1000
0010
0100
0001
1000
0100
,
0010
0100
1000
0001
0100
0001
1000
0100
1000
0001
0010
0001
0010
0100
1000
0100
,
1000
0001
0100
0010
1000
0001
1000
0100
1000
0001
0010
0100
1000
0001
0100
0010
,
1000
0010
1000
0000
0001
0100
0001
0000
0010
0000
0010
0000
0200
0000
0300
0000
,
1000
0100
1000
0001
0100
0010
1000
0001
,
0010
0100
1000
0010
0100
0001
1000
1000
,
0001
0010
0100
1000
0001
0100
0010
1000
,
0001
0000
1000
0000
0100
0000
0010
0000
0001
0000
1000
0010
0100
0000
0001
0010
,
0100
1000
0010
0100
0001
0010
0100
0010
,
0001
1000
0010
1000
0100
0010
0001
0001
,
1000
0010
0100
0001
0010
0001
1000
0010
,
0100
0000
0001
0000
0010
0000
0100
0000
1000
0000
0001
1000
0010
0000
0100
0001
,
0010
0100
1000
0100
0010
0001
1000
0010
,
0100
0001
1000
0100
0010
0100
1000
1000
,
0010
0100
0010
1000
0001
0010
0100
1000
,
0001
0000
0100
0000
0010
0000
1000
0000
0100
0000
0010
0001
1000
0000
0001
0100
,
0010
1000
0100
0010
0001
0100
0001
1000
,
0001
0010
0001
1000
0100
0010
0001
0001
,
1000
0010
0100
0001
1000
0001
0010
0001
,
1000
0100
0010
0100
1000
0001
0100
0001
1000
0010
0100
0010
1000
0001
0010
0100
,
0020
0000
0030
0000
,
0000
0000
0000
0000
,
00M0
0000
0000
0000
;
