#TITLE:At Zanarkand;
#SUBTITLE:(SMPS);
#ARTIST:Masato Matsuda;
#TITLETRANSLIT:FFX1-2;
#SUBTITLETRANSLIT:;
#ARTISTTRANSLIT:;
#CREDIT:Steps by Vero;
#BANNER:At Zanarkand.PNG;
#BACKGROUND:At Zanarkand-bg.PNG;
#LYRICSPATH:;
#CDTITLE:!Verotitle.png;
#MUSIC:At Zanarkand.mp3;
#OFFSET:0.820;
#SAMPLESTART:41.514;
#SAMPLELENGTH:12.000;
#SELECTABLE:YES;
#BPMS:0.000=92.000,4.000=82.000,4.500=92.000,8.000=82.000,8.500=112.000,9.250=92.000,11.500=82.000,12.500=78.000,14.000=92.000,15.500=82.000,16.000=92.000,18.500=102.000,19.250=92.000,22.500=78.000,24.000=92.000,25.500=82.000,26.000=92.000,31.500=68.000,32.000=92.000,34.000=82.001,35.000=92.001,43.500=82.001,44.000=92.001,58.000=96.001,60.500=92.001,66.000=96.001,67.500=86.001,69.000=92.001,70.000=82.001,71.000=78.001,72.000=82.001,73.000=86.001,74.000=92.001,76.500=88.001,77.000=92.001,82.500=78.001,83.000=92.001,92.000=102.001,92.500=92.001,101.500=82.001,103.000=78.001,104.000=82.001,105.000=88.001,108.500=98.001,110.500=82.001,111.000=92.001,113.500=88.001,114.500=92.001,116.500=66.001,117.000=78.001,118.000=82.001,120.000=84.001,122.000=76.001,123.000=104.001,125.000=86.001,125.500=106.001,127.000=92.001,128.500=82.001,129.000=78.001,129.500=62.002,130.000=92.002;
#STOPS:5.250=1.740
,9.250=1.760
,19.250=1.700
,98.000=1.660
;
#BGCHANGES:;
// cache tags:
#FIRSTBEAT:2.000;
#LASTBEAT:130.000;
#SONGFILENAME:Songs/finall/At Zanarkand/At Zanarkand.sm;
#HASMUSIC:1;
#HASBANNER:1;
#MUSICLENGTH:105.046;
// end cache tags

//---------------dance-single - Heavy----------------
#NOTES:
     dance-single:
     Heavy:
     Hard:
     6:
     0.386,0.418,0.466,0.000,0.038,235.000,49.000,0.000,0.000,0.000:
0000
0000
0000
0000
1000
0100
0010
0001
,
0010
0000
0100
0000
0000
0110
0000
0000
0001
0000
0010
0000
0100
0000
1000
0000
,
0100
0000
0010
0000
0000
1100
0000
0000
0010
0000
1000
0000
0010
0000
1000
0000
,
0010
1000
1010
0000
0001
0000
0000
0010
,
0011
0000
0100
0000
0010
0000
0100
0000
0010
0000
0001
0000
0000
0010
0000
0000
,
0100
1000
0100
1000
0100
1000
1100
0000
,
0010
0000
0000
0100
0110
0001
0100
0010
,
1000
0001
0100
0010
1000
0100
0010
0001
,
0110
0001
0010
0001
0010
0100
1100
0100
,
1010
0100
0011
0100
1000
0100
0010
0001
,
0110
0010
0011
0010
0100
1000
0100
0010
,
0011
0100
0010
0100
0010
0001
1001
0001
,
1100
0100
0010
0001
0110
0100
1000
0010
,
0001
0100
0110
0001
0010
0100
1000
0100
,
0010
0001
0001
1000
0100
0010
0001
0011
,
0010
0110
0100
1100
0100
0010
0011
0100
,
0010
0001
0010
0100
0010
0100
0010
0100
,
1001
0010
1001
0010
1001
0010
1001
0000
,
0011
0000
0100
0000
0011
0001
0010
0100
,
1000
0100
0011
0010
0100
0010
0100
0010
,
0100
0001
0010
0100
1000
0100
0010
0001
,
0010
0001
0010
0100
1100
0100
1000
0100
,
1000
0000
0000
0000
0100
0000
0000
0000
1100
0000
0000
0000
0010
0000
0000
0000
0001
0000
0000
0000
0010
0000
0000
0000
0001
0000
0000
0000
0010
0000
0100
1000
,
0100
0010
0001
0010
0001
0100
0010
1000
,
0001
0000
0000
0000
0000
0000
0000
0000
0100
0000
0000
0000
0000
0000
0000
0000
0010
0000
0000
0000
0000
0000
0000
0000
1000
0000
0000
0000
0000
0000
0000
0010
0100
0000
0000
0000
0000
0000
0000
0000
0000
0000
0000
0000
0000
0000
0000
0000
1001
0000
0000
0000
0000
0000
0000
0000
0010
0000
0000
0000
0000
0000
0000
0000
,
0001
0000
0000
0000
0010
0000
0000
0000
0001
0000
0000
0000
0100
0000
0010
0100
0010
0000
0000
0000
0000
0000
0000
0000
0001
0000
0000
0000
0000
0000
0000
0000
,
0110
0011
0110
0011
0101
1100
1001
0010
,
1100
0010
0011
0100
0110
1000
0100
0001
,
0010
0100
1100
0100
0011
0010
0100
0010
,
0100
0010
1100
0000
0010
0000
0001
0000
,
0110
0000
0011
0110
,
0000
0000
0001
0110
0000
0000
1100
0100
,
0010
0001
0010
0100
0010
0000
0000
0000
;

//---------------dance-double - StepMania Piano Styl----------------
#NOTES:
     dance-double:
     StepMania Piano Styl:
     Hard:
     10:
     0.424,0.387,0.733,0.000,0.038,235.000,77.000,0.000,0.000,0.000:
00000000
00000000
00000000
00000000
10001000
00000100
00000010
00000001
,
01000010
00000000
00000100
00000000
00000000
00100001
00000000
00000000
10001000
00000000
00000100
00000000
00000010
00000000
00000001
00000000
,
01000010
00000000
00000100
00000000
00000000
00100001
00000000
00000000
10000010
00000000
00100000
00000000
01000010
00000000
10000000
00000000
,
00100010
01000000
00010010
00000000
00000001
00000000
00000000
00000010
,
00100000
00000000
00010000
00000000
00100000
00000000
01000000
00000000
10000000
00000000
00010000
00000000
00000000
00000001
00000000
00000000
,
01000100
00100000
01000100
10000000
01000100
00100000
00010100
00000000
,
00000010
00000000
00000000
00000001
00100000
01000000
00100000
00010000
,
01000000
00100000
00010000
00001000
00000100
00000010
00000100
00001000
,
01000000
00100000
01000000
00100010
00010100
00101000
00000100
10000000
,
00000010
00100000
00010100
00010000
00100010
00100000
00010000
00001000
,
01000100
00100000
00010010
10000000
01000000
00100000
00010000
01000000
,
00100010
00010000
00100000
01000010
10000100
01001000
00100010
00010000
,
00100100
01000000
00100010
00010000
10000001
01000000
00100000
00010001
,
01000010
00100000
00010100
10000000
01000000
00100000
00010000
01000000
,
00100010
00010000
00100000
00010010
00100100
01001000
00000010
01000000
,
00000001
10000000
10001000
01000000
00100100
01000000
00100000
00000010
,
10000100
01000000
00101000
10000000
01000000
00100000
00010010
00100100
,
00001000
00100000
00001000
00100000
00001000
00100000
00101000
00000000
,
00001000
00000000
00000100
00000000
00100010
01000000
10000000
01000010
,
00100100
00011000
00100010
00010000
00001000
00000001
00000010
00000100
,
00000001
00010000
01000001
00000010
00000100
00000001
10000001
01000000
,
00100000
01000000
00100001
00010000
00100100
10000000
01001000
00100000
,
00010100
00000000
00000000
00000000
01000000
00000000
00000000
00000000
00100001
00000000
00000000
00000000
10000000
00000000
00000000
00000000
01000000
00000000
00000000
00000000
00100000
00000000
00000000
00000000
00010010
00000000
00000000
00000000
00100000
00000000
00000001
00000010
,
01000100
10000000
01000000
00100000
00010000
01000000
00100010
00010000
,
10000000
00000000
00000000
00000000
00000000
00000000
00000000
00000000
01000000
00000000
00000000
00000000
00000000
00000000
00000000
00000000
00100010
00000000
00000000
00000000
00000000
00000000
00000000
00000000
00010000
00000000
00000000
00000000
00000000
00000000
00000000
00000001
01000010
00000000
00000000
00000000
00000000
00000000
00000000
00000000
00000000
00000000
00000000
00000000
00000000
00000000
00000000
00000000
00100010
00000000
00000000
00000000
00000000
00000000
00000000
00000000
10000000
00000000
00000000
00000000
00000000
00000000
00000000
00000000
,
01000000
00000000
00000000
00000000
00100000
00000000
00000000
00000000
00010010
00000000
00000000
00000000
01000000
00000000
00000010
00000100
10001000
00000000
00000000
00000000
00000000
00000000
00000000
00000000
00000010
00000000
00000000
00000000
00000000
00000000
00000000
00000000
,
10000000
01000000
00100100
00010000
00100000
00010000
00101000
01000000
,
10000100
01000000
00100010
00010000
01000001
00100000
00010010
10000000
,
01000000
00100000
00010100
01000000
10001000
01000000
00100000
00010000
,
00010000
00001000
01000100
00000000
00000010
00000000
00000001
00000000
,
00100100
00000000
00010010
00100100
,
00000000
00000000
00000100
00101000
00000000
00000000
10000010
01000000
,
00100000
10000000
01000000
00100000
00010000
00000000
00000000
00000000
;
