#TITLE:Hardcore Overdoze;
#SUBTITLE:;
#ARTIST:Euphoria;
#TITLETRANSLIT:;
#SUBTITLETRANSLIT:;
#ARTISTTRANSLIT:;
#CREDIT:;
#BANNER:HardcoreOverdoze-bn.png;
#BACKGROUND:HardcoreOverdoze-bg.png;
#LYRICSPATH:;
#CDTITLE:KOMBO.png;
#MUSIC:Hardcore Overdoze.mp3;
#OFFSET:-5.330;
#SAMPLESTART:58.157;
#SAMPLELENGTH:22.000;
#SELECTABLE:YES;
#BPMS:0.000=181.600,16.000=726.400,80.000=181.601,372.000=726.404,404.000=90.801,422.000=181.603;
#STOPS:;
#BGCHANGES:;
// cache tags:
#FIRSTBEAT:0.000;
#LASTBEAT:420.250;
#SONGFILENAME:Songs/Definitive Keyboard Megapack/Hardcore Overdoze[KOMBO]/HardcoreOverdoze.sm;
#HASMUSIC:1;
#HASBANNER:1;
#MUSICLENGTH:131.506;
// end cache tags

//---------------dance-single - KOMBO----------------
#NOTES:
     dance-single:
     KOMBO:
     Hard:
     14:
     1.000,1.000,1.000,0.867,1.000,1029.000,397.000,114.000,0.000,65.000:

1000
0100
0010
0000
0010
0100
0001
0000
2002
3003
0000
0000
2002
3003
0000
0000
,
0001
0010
0100
1000
0100
0000
0010
0000
2002
3003
0000
0000
0000
0000
0100
0000
,
1001
0000
0000
0000
1000
0100
0010
0000
0011
0000
0110
0000
1001
0000
0000
0000
,
0001
0000
0010
0000
0100
0000
1000
0000
0110
0000
0000
0000
1001
0000
0000
0000
1001
0000
0000
0000
0000
0000
0000
0000
2002
3003
0000
0000
0000
0000
0000
0000
,
2002
0000
0000
0000
,
0000
0000
0000
0000
,
0000
0000
0000
0000
,
0000
0000
0000
0000
,
0000
0000
0000
0000
,
0000
0000
0000
0000
,
0000
0000
0000
0000
,
0000
0000
0000
0000
,
0000
0000
0000
0000
,
0000
0000
0000
0000
,
0000
0000
0000
0000
,
0000
0000
0000
0000
,
0000
0000
0000
0000
,
0000
0000
0000
0000
,
0000
0000
0000
0000
,
3003
0000
0000
0000
,
1100
0001
0010
1000
0100
0001
1100
0001
0010
0001
1100
0001
0100
1000
0100
0001
,
1100
0010
0001
1000
0100
0010
1100
0010
0100
0010
1100
0001
0100
0001
0010
0100
,
0011
1000
0010
1000
0100
0010
1001
0100
0010
0100
1001
0010
0100
1000
0100
0010
,
0201
1000
0001
1000
0001
1000
0311
0100
0010
0001
1100
0010
1000
0001
0110
1000
,
0011
1000
0100
0001
0010
1000
0011
1000
0100
1000
0011
1000
0010
0001
0010
1000
,
0011
0100
1000
0001
0010
0100
0011
0100
0010
0100
0011
1000
0010
1000
0100
0010
,
1100
0001
0100
0001
0010
0100
1001
0010
0100
0010
1001
0100
0010
0001
0010
0100
,
0020
1000
0001
1000
0001
1000
0101
1000
0031
1000
0100
0010
1100
0000
0011
0000
,
0011
1000
0100
0001
0010
1000
0011
1000
0100
1000
0011
1000
0010
0001
0010
1000
,
0011
0100
1000
0001
0010
0100
0011
0100
0010
0100
0011
1000
0010
1000
0100
0010
,
1100
0001
0100
0001
0010
0100
1001
0010
0100
0010
1001
0100
0010
0001
0010
0100
,
0012
1000
0010
1000
0010
1000
0113
0001
1000
0001
0010
0100
1000
0100
1001
0000
,
1001
0000
0110
0000
1001
0010
0100
0010
0100
0010
0100
0010
1100
0010
0100
0010
,
0100
0010
0100
0010
0101
0010
0100
0010
0100
0010
0100
0010
1100
0010
0100
0010
,
0100
0010
0100
0010
0101
0010
0100
0010
0100
0010
0100
0010
1100
0010
0100
0010
,
0101
0000
0000
0000
0000
0000
0010
0100
2000
0000
0000
0000
0000
0000
0000
0000
,
3011
1000
0101
0010
1100
0010
1100
0001
,
1100
0011
0110
1010
0110
1100
1010
0011
,
0110
1000
0011
1000
0011
0100
1001
0010
,
1100
0101
1001
1100
0101
0110
0011
0101
,
1001
0100
0011
1000
0101
0010
1100
0010
,
0101
1000
0011
0110
1100
0011
1001
0101
,
1100
0010
0101
1000
0110
0001
1100
0010
,
1010
0110
0011
1001
0101
0110
1010
1001
,
1001
0100
0011
0000
1100
0010
0101
0000
0011
1000
0101
0000
1001
0100
1010
0000
,
0101
0010
1100
0000
0110
0001
1010
0000
0101
0010
1100
0000
0110
0001
1100
0000
,
1010
0001
0110
0000
1100
0001
1010
0000
0101
0010
1100
0000
0011
0100
1010
0000
,
0101
1000
0011
0000
1010
0100
1001
0000
0011
1000
0110
0000
0101
0010
1100
0000
,
1001
0010
0101
0000
0110
1000
0011
0000
0101
0010
1100
0000
0101
1000
0011
0000
,
1010
0001
1100
0000
1001
0010
1100
0000
0011
0100
1010
0000
1001
0010
1100
0000
,
0110
1000
0011
0000
0011
1000
0110
0000
1010
0001
1100
0000
0110
0001
1010
0000
,
0011
0100
0010
0100
0011
0100
0011
0100
0011
0100
0010
0100
0011
0100
0011
0100
,
0011
1000
0100
0001
0010
1000
0011
1000
0100
1000
0011
1000
0010
0001
0010
1000
,
0011
0100
1000
0001
0010
0100
0011
0100
0010
0100
0011
1000
0010
1000
0100
0010
,
1100
0001
0100
0001
0010
0100
1001
0010
0100
0010
1001
0100
0010
0001
0010
1000
,
0210
0000
0001
0000
0310
0000
2002
3003
0100
0000
2200
3300
0001
0000
2020
3030
,
0011
1000
0100
0001
0010
1000
0011
1000
0100
1000
0011
1000
0010
0001
0010
1000
,
0011
0100
1000
0001
0010
0100
0011
0100
0010
0100
0011
1000
0010
1000
0100
0010
,
1100
0001
0100
0001
0010
0100
1001
0010
0100
0010
1001
0100
0010
0001
0010
0100
,
0220
0000
0000
0000
0000
0000
0000
0330
,
0011
1000
0100
0001
1110
0001
0110
1000
0100
1000
0011
1000
0111
1000
0010
1000
,
0011
0100
1000
0100
1011
0100
0011
0100
0010
0100
1001
0010
1101
0010
0100
0010
,
1100
0001
0100
0001
1110
0001
1100
0010
0101
0010
0100
1000
0111
1000
0010
0001
,
0020
1000
0100
1030
0111
1000
0011
0100
0010
0100
0011
0100
1011
0100
1000
0100
,
0011
1000
0100
0001
1110
0001
0110
0001
1100
0010
0101
1000
0111
1000
0010
1000
,
0011
0100
1000
0100
1011
0100
0011
1000
0010
1000
0101
0010
1101
0010
1000
0010
,
1100
0001
0100
1000
0111
1000
0101
0010
0100
0010
1001
0100
0010
0001
0010
0100
,
0020
1000
0001
1000
0001
1000
0101
1000
0031
0100
0011
1000
0100
0010
0001
0010
,
1001
0000
0101
0100
0000
1000
0110
0000
0110
0000
0011
0001
0000
0100
1001
0000
,
0110
0000
1100
1000
0000
0010
1001
0000
0101
0000
1001
0000
1010
0000
1001
0000
,
1001
0000
0101
0100
0000
1000
0110
0000
1001
0000
1010
0010
0000
0001
0110
0000
,
0110
0000
1100
1000
0000
0010
1001
0000
1001
0000
0101
0000
1100
0000
0110
0000
,
0110
0000
0011
0001
0000
0100
1001
0000
1001
0000
1010
0010
0000
0001
0110
0000
,
0110
0000
1100
1000
0000
0010
1001
0000
0101
0000
1100
0000
1001
0000
0110
0000
,
1001
0000
1010
0010
0000
0001
0110
0000
1001
0000
0101
0100
0000
1000
0110
0000
,
0110
0000
0011
0001
0000
0100
1001
0000
0101
0000
1010
0000
0011
0000
1010
0000
,
0011
1000
0100
0001
1110
0001
0010
0100
0011
0100
0010
1000
0111
1000
0010
1000
,
0011
0100
1000
0100
1011
0100
0010
1000
0110
1000
0001
0010
1101
0010
0100
0010
,
1100
0001
0100
0001
1110
0001
1000
0010
0101
0010
0100
1000
0111
1000
0010
0001
,
0110
1000
0100
1000
0111
1000
0010
0100
0011
0100
0001
0100
1011
0100
1000
0100
,
0011
1000
0100
0001
1110
0001
0010
0001
1100
0010
0100
1000
0111
1000
0010
1000
,
0011
0100
1000
0100
1011
0100
0010
1000
0110
1000
0100
0010
1101
0010
1000
0010
,
1100
0001
0100
1000
0111
1000
0100
0010
1100
0010
0001
0010
1100
0001
0010
0100
,
0020
1000
0001
1000
0001
1000
0001
1000
0031
0100
0010
1000
0100
0010
0001
0010
,
2200
3300
0000
0000
0000
0000
0000
0000
0000
0000
0000
0000
0000
0000
0000
0000
,
1001
0000
0000
0000
0022
0033
0000
0000
1010
0000
0000
0000
0202
0303
0000
0000
0110
0000
0000
0000
2020
3030
0000
0000
0101
0000
0000
0000
2002
3003
0000
0000
,
1100
0000
0000
0000
2020
3030
0000
0000
0101
0000
0000
0000
2200
3300
0000
0000
1001
0000
0000
0000
0202
0303
0000
0000
0011
0000
0000
0000
2002
3003
0000
0000
,
1010
0000
0000
0000
0220
0330
0000
0000
0011
0000
0000
0000
2020
3030
0000
0000
1001
0000
0000
0000
0202
0303
0000
0000
1010
0000
0000
0000
2002
3003
0000
0000
,
0110
0000
0000
0000
2020
3030
0000
0000
1001
0000
0000
0000
0022
0033
0000
0000
0101
0000
0000
0000
2020
3030
0000
0000
1001
0000
0000
0000
0022
0033
0000
0000
,
0101
0000
0000
0000
2002
3003
0000
0000
1100
0000
0000
0000
2020
3030
0000
0000
0101
0000
0000
0000
0220
0330
0000
0000
1001
0000
0000
0000
2020
3030
0000
0000
,
0011
0000
0000
0000
2002
3003
0000
0000
1010
0000
0000
0000
2200
3300
0000
0000
0110
0000
0000
0000
0202
0303
0000
0000
1001
0000
0000
0000
0220
0330
0000
0000
,
1100
0001
1100
0001
1100
0001
1100
0001
1100
0001
1100
0001
1100
0001
1100
0001
,
1000
0010
0100
0001
1000
0010
0100
0001
1000
0010
0100
0001
1000
0010
0100
0001
1000
0010
0100
0001
1000
0010
0100
0001
1000
0010
0100
0001
1000
0010
0000
0000
,
2011
0011
0011
0011
,
0011
0011
0011
0011
,
0011
0011
0011
0011
,
0011
0011
0011
0011
,
0011
0011
0011
0011
,
0011
0011
0011
0011
,
0011
0011
0011
0011
,
0011
0011
3011
0000
,
2222
3333
0000
0000
0000
0000
0002
0000
0003
0000
0020
0000
0030
0000
0200
0000
0320
0000
0030
0000
0000
0000
0020
0000
0030
0000
2000
0000
3000
0000
2000
0000
,
3002
0003
0000
0200
0300
0002
0003
0020
2030
0000
3000
0200
0300
0002
0003
2000
,
3020
0030
0000
0020
0030
0020
2030
3000
0020
0000
0030
0200
0300
0002
0003
0200
,
1300
0000
0000
0002
0203
0320
0030
2000
3022
0000
0000
0000
0000
0000
0000
0033
,
2222
3333
0000
0000
0000
0000
0000
0000
0000
0000
0000
0000
0000
0000
0000
0000
;
