#TITLE:B4U;
#SUBTITLE:(B4 ZA BEAT MIX);
#ARTIST:NAOKI;
#TITLETRANSLIT:;
#SUBTITLETRANSLIT:;
#ARTISTTRANSLIT:;
#CREDIT:;
#BANNER:B4U (B4 ZA BEAT MIX)-banner.png;
#BACKGROUND:B4U (B4 ZA BEAT MIX)-bg.png;
#LYRICSPATH:;
#CDTITLE:Magnakcd.png;
#MUSIC:B4U (B4 ZA BEAT MIX).ogg;
#OFFSET:1.403;
#SAMPLESTART:47.770;
#SAMPLELENGTH:11.000;
#SELECTABLE:YES;
#BPMS:0.000=170.000;
#STOPS:;
#BGCHANGES:0.000=B4U (B4 ZA BEAT MIX)-bg.png=1.000=0=0=1,
4.000=EV01454N.mpg=1.000=0=0=1,
12.000=VOL1-41-NTSC.mpg=1.000=0=0=1,
20.000=VOL1-31-NTSC.mpg=1.000=0=0=1,
28.000=jb_072.mpg=1.000=0=0=1,
36.000=VOL1-22-NTSC.mpg=1.000=0=0=1,
44.000=EV01455N.mpg=1.000=0=0=1,
52.000=jb_043.mpg=1.000=0=0=1,
60.000=VOL1-33-NTSC.mpg=1.000=0=0=1,
68.000=B4U (B4 ZA BEAT MIX)-bg.png=1.000=0=0=1,
72.000=EV01453N.mpg=1.000=0=0=1,
76.000=VOL1-16-NTSC.mpg=1.000=0=0=1,
84.000=VOL1-22-NTSC.mpg=1.000=0=0=1,
92.000=732_JumpBack.mpg=1.000=0=0=1,
100.000=jb_072.mpg=1.000=0=0=1,
108.000=vol3-14-ntsc.mpg=1.000=0=0=1,
124.000=669_JumpBack.mpg=1.000=0=0=1,
140.000=696_JumpBack.mpg=1.000=0=0=1,
156.000=vol3-08-ntsc.mpg=1.000=0=0=1,
172.000=jb_047.mpg=1.000=0=0=1,
174.000=vol3-09-ntsc.mpg=1.000=0=0=1,
176.000=EV01444N.mpg=1.000=0=0=1,
178.000=vol4-04-ntsc.mpg=1.000=0=0=1,
180.000=VOL1-19-NTSC.mpg=1.000=0=0=1,
181.000=vol4-06-ntsc.mpg=1.000=0=0=1,
182.000=682_JumpBack.mpg=1.000=0=0=1,
183.000=vol4-10-ntsc.mpg=1.000=0=0=1,
186.750=B4U (B4 ZA BEAT MIX)-bg.png=1.000=0=0=1,
188.000=EV01454N.mpg=1.000=0=0=1,
204.000=vol3-12-ntsc.mpg=1.000=0=0=1,
212.000=vol3-08-ntsc.mpg=1.000=0=0=1,
220.000=VOL1-15-NTSC.mpg=1.000=0=0=1,
99999=-nosongbg-=1.000=0=0=0 // don't automatically add -songbackground-
;
// cache tags:
#FIRSTBEAT:4.000;
#LASTBEAT:227.500;
#SONGFILENAME:Songs/DDR 4 ITG/b4u (b4 za beat mix)/B4U (B4 ZA BEAT MIX).sm;
#HASMUSIC:1;
#HASBANNER:1;
#MUSICLENGTH:79.203;
// end cache tags

//---------------dance-single - Sora_r21Freak----------------
#NOTES:
     dance-single:
     Sora_r21Freak:
     Challenge:
     11:
     0.945,1.000,0.657,0.114,1.000,461.000,52.000,9.000,56.000,8.000:

0000
0000
0000
0000
,
1000
0000
0001
0000
1000
0100
0000
0010
0100
0000
1000
0001
0000
0100
0010
0000
,
1000
0000
0100
0000
0010
0001
0000
0001
0100
0000
0100
1000
0000
1000
0100
0000
,
0001
0000
0100
0000
0010
1000
0000
0001
0010
0000
0100
1000
0000
0010
0100
0000
,
0001
0000
0010
0000
1000
0010
0000
0010
0001
0000
0001
1000
0000
1000
0010
0000
,
2MM2
0000
0M00
0000
0000
0000
0M00
0010
,
0020
0000
0M00
0000
0000
3000
M000
0100
,
0200
M000
1333
0000
,
0101
0000
0000
0000
1010
0000
0000
0000
0101
0000
0000
0010
1000
0000
0100
0000
,
0010
0000
0001
1000
0000
1000
0001
0000
1000
0010
0000
0100
0001
0000
1000
0000
,
0100
0000
0010
0100
0000
0100
1000
0000
0010
0100
0000
0001
1000
0000
0100
0000
,
0010
0000
0001
1000
0000
1000
0010
0000
0100
0001
0000
1000
0010
0000
1000
0000
,
0010
0000
0100
0001
0000
0001
1000
0000
0100
0010
0000
0100
1000
0000
0001
0000
,
0100
0000
0010
1000
0000
1000
0001
0000
0010
0100
0000
1000
0001
0000
1000
0000
,
0010
0000
0100
0001
0000
0001
1000
0000
0100
1000
0000
0001
0100
0000
0010
0000
,
1000
0000
0100
1000
0000
1000
0010
0000
0100
0001
0000
1000
0010
0000
1000
0000
,
0001
0000
1000
0001
0000
0001
0010
0000
0100
1000
0000
0001
0100
0000
0010
0000
,
1MM1
MMMM
1MM1
MMMM
1MM1
0000
0100
0010
,
4M01
01M0
0M1M
01M0
,
3001
0010
0100
1000
0000
0000
0010
1000
0010
0100
0000
0000
0001
0100
0001
1000
,
0000
0001
1000
0100
0010
0001
1000
0010
1000
0001
0010
0001
1000
0100
0010
0001
,
1000
0010
1000
0001
0000
0000
0010
0100
1000
0001
0000
0000
1000
0010
0100
0001
,
1000
0010
1000
0010
0000
1000
0100
1000
0010
0000
0100
0000
0101
0000
1001
0000
,
0001
0010
0100
1000
0000
0000
0001
0100
0010
0100
0000
0000
0001
1000
0100
0010
,
0000
0100
1000
0001
0100
0001
1000
0010
1000
0001
0010
0100
1000
0001
1000
0010
,
0100
0001
1000
0010
0000
0000
1000
0001
0010
0100
0000
0000
1000
0001
0100
0001
,
0010
0001
1000
0100
0000
0010
0100
1000
0000
0001
0100
0010
1000
0001
0010
0000
,
0100
0000
0010
0001
0000
0000
1000
0000
0010
0000
1000
0000
1100
0000
1000
0010
,
0100
0001
0000
0010
0100
0000
1000
0001
0000
1000
0010
0000
M10M
00M0
0000
0000
,
0010
0000
1000
0010
0000
0100
0001
0010
0100
0000
1000
0000
1100
0000
1000
0000
,
0010
0100
0001
0100
0001
0000
1000
0000
0100
0000
0010
0000
0011
0000
0100
0000
,
1000
0000
0000
1010
0000
0000
0100
0010
1000
0000
0000
1001
0000
0000
1000
0010
,
0100
0001
1000
0000
0100
0000
0010
0000
0011
0000
0000
1001
0000
0000
0000
0000
,
0010
1000
0100
0001
0100
1000
0010
0001
,
0011
0000
1010
0000
1100
0011
0101
1010
,
0001
0100
0000
0010
0000
1000
0000
0100
0000
0001
0000
0100
1000
0000
0010
0000
,
0101
0000
1001
0000
0101
0000
0010
1000
,
0100
0010
0000
1000
0000
0010
0000
0001
0000
0100
0000
0010
1000
0000
0001
0000
,
1000
0100
0010
0100
1000
0000
0010
0000
0001
0000
0010
0000
0100
0000
0001
0000
,
1000
0100
0000
0001
0000
0100
0000
1000
0000
0010
0000
0100
0001
0000
1000
0000
,
1010
0000
1001
0000
1010
0000
0100
0001
,
0010
0100
0000
1000
0000
0100
0000
0010
0000
0001
0000
1000
0010
0000
0100
0000
,
0010
0100
0001
1000
0010
0000
1000
0000
0100
0000
0110
0000
0000
0000
0000
0000
,
1MM1
0000
11M1
0000
,
11MM
0000
1M11
0000
,
1MM1
M11M
1MM1
M11M
,
0001
0000
0010
0000
0100
0000
1000
0000
0001
0010
010M
10M0
0M00
0000
0000
0000
,
0001
0100
0000
0010
0000
1000
0000
0100
0000
0001
0000
0100
1000
0000
0010
0000
,
0101
0000
1001
0000
0101
0000
1010
1001
,
0100
0001
0000
1000
0000
0100
0000
0010
0000
1000
0000
0010
0001
0000
0100
0000
,
0010
1000
0001
0010
0100
0000
1000
0000
0001
0000
0100
0000
1000
0000
0100
0000
,
0001
0010
0000
0100
0000
1000
0000
0010
0000
0100
0000
1000
0100
0000
0001
0000
,
1010
0000
1001
0000
1010
0000
0101
0011
,
0010
0100
0000
1000
0000
0010
0000
0001
0000
0010
0000
1000
0001
0000
0011
0000
,
0100
1000
0001
0100
0010
0000
1000
0000
0010
0000
0200
0000
M0MM
0000
0300
0000
,
1010
1100
0000
1M00
0001
M200
00M2
0000
,
2020
0000
0000
0000
0000
0000
3333
MMMM
;
