#TITLE:Electric Butterfly;
#SUBTITLE:;
#ARTIST:t+pazolite;
#TITLETRANSLIT:;
#SUBTITLETRANSLIT:;
#ARTISTTRANSLIT:;
#CREDIT:;
#BANNER:electricbncq4.jpg;
#BACKGROUND:electricbggz8.jpg;
#LYRICSPATH:;
#CDTITLE:!cdtitle.png;
#MUSIC:electric butterfly.ogg;
#OFFSET:-1.780;
#SAMPLESTART:47.172;
#SAMPLELENGTH:11.000;
#SELECTABLE:YES;
#BPMS:0.000=185.000;
#STOPS:;
#BGCHANGES:;
// cache tags:
#FIRSTBEAT:4.000;
#LASTBEAT:392.500;
#SONGFILENAME:Songs/SSSC Pack 2/Electic Butterfly - [Kommisar]/eb.sm;
#HASMUSIC:1;
#HASBANNER:1;
#MUSICLENGTH:105.000;
// end cache tags

//---------------dance-single - stremz----------------
#NOTES:
     dance-single:
     stremz:
     Challenge:
     13:
     1.000,1.000,0.419,0.076,1.000,1012.000,44.000,8.000,208.000,0.000:

0000
0000
0000
0000
,
1001
1001
1001
1001
,
1010
0000
0010
0000
1000
0001
0100
0001
1000
0000
0010
0000
1000
0001
0010
0100
,
1000
0000
0010
0000
1000
0001
0100
0001
1000
0000
0010
0000
1000
0001
0010
0100
,
1000
0000
0010
0000
1000
0001
0100
0001
1000
0000
0010
0000
1000
0001
0010
0100
,
1000
0000
0010
0000
1000
0001
0010
0100
1000
0001
1000
0100
0010
0001
1000
0001
,
1000
0000
0001
0000
1000
0100
0010
0001
1000
0000
0001
0000
1000
0001
0010
0001
,
1000
0000
0001
0000
1000
0100
0010
0001
1000
0000
0001
0000
1000
0001
0010
0001
,
1000
0000
0001
0000
1000
0100
0010
0001
1000
0000
0001
0000
1000
0001
0010
0001
,
1000
0000
0001
0000
1000
0100
0010
0001
1000
0010
1000
0001
0010
0100
1000
0001
,
1000
0000
0001
0010
0001
0000
1000
0000
0010
0000
0100
0001
0100
0000
0010
0000
,
1000
0000
0100
1000
0100
0000
1000
0000
0001
0000
0100
0001
0100
0000
0010
0000
,
1000
0000
0100
0010
0001
0000
1000
0000
0010
0000
0100
0001
0100
0000
0010
0000
,
1000
0000
0001
1000
0100
0000
0010
0000
0001
0000
0100
0000
0001
1000
0001
1000
,
0001
0000
1000
0100
1000
0000
0001
0000
0100
0000
0010
1000
0010
0000
0100
0000
,
0001
0000
0010
0001
0010
0000
0001
0000
1000
0000
0010
1000
0010
0000
0100
0000
,
0001
0000
0010
0100
1000
0000
0001
0000
0100
0000
0010
1000
0010
0000
0100
0000
,
0001
0000
1000
0001
0010
0000
0100
0000
1000
0001
1000
0001
1000
0MM1
1MM0
0MM1
,
1MM0
0000
0010
0000
0010
0000
1000
0000
0001
0000
0100
0001
0000
0100
0001
0000
,
1000
0100
0000
1000
0100
0000
1000
0000
0001
0000
0100
0010
0000
0100
0001
0000
,
1000
0000
0100
0000
0100
0000
1000
0000
0001
0000
0010
0001
0000
0010
0001
0000
,
0100
0010
0000
0100
0001
0000
1000
0000
0001
0000
1000
0100
0000
0010
0001
0000
,
1000
0000
0001
0000
0001
0000
1000
0000
0001
0000
0010
0100
0000
0010
0100
0000
,
1000
0100
0000
1000
0100
0000
0001
0000
0100
0000
0010
0001
0000
0010
0001
0000
,
1000
0000
0010
0000
0010
0000
1000
0000
0001
0000
0100
0001
0000
0100
0001
0000
,
0010
0100
0000
0010
0100
0000
1000
0010
0000
0100
0001
0000
1000
0000
0001
0000
,
1100
0000
0000
0100
0000
0000
0010
0000
0000
0001
0000
0000
0100
0000
0010
0000
,
1000
0000
0000
0001
0000
0000
0010
0000
0000
0100
0000
0000
1000
0000
0001
0000
,
1010
0000
0000
0010
0000
0000
1000
0000
0000
0001
0000
0000
0100
0000
1000
0000
,
0100
0000
0000
0001
0000
0000
1000
0000
0000
0100
0000
0000
0010
0000
0001
0000
,
1100
0000
0000
1000
0000
0000
0001
0000
0000
0001
0000
0000
1000
0000
0001
0000
,
0101
0000
0000
0001
0000
0000
0001
0000
0000
1000
0000
0000
0001
0000
0010
0000
,
0110
0000
0000
0100
0000
0000
0100
0000
1000
0001
0000
0000
0100
0000
0010
0000
,
1000
0000
0000
0000
0000
0000
0000
0000
0000
0000
0000
0000
0000
0000
0000
0000
0000
0000
0000
0000
0000
0000
0000
0000
0000
0000
0000
0000
0000
0000
0000
0000
0000
0000
0000
0000
0001
0000
0000
0000
0000
0000
0000
0000
0000
0000
0000
0000
0000
0000
0000
0000
0000
0000
0000
0000
0000
0000
0000
0000
0000
0000
0000
0000
0000
0000
0000
0000
0000
0000
0000
0000
0001
0000
0000
0000
0000
0000
0000
0000
0000
0000
0000
0000
0000
0000
0000
0000
0000
0000
0000
0000
0000
0000
0000
0000
0000
0000
0000
0000
0000
0000
0000
0000
0000
0000
0000
0000
1000
0000
0000
0000
0000
0000
0000
0000
0000
0000
0000
0000
0000
0000
0000
0000
0000
0000
0000
0000
0000
0000
0000
0000
0000
0000
0000
0000
0000
0000
0000
0000
0000
0000
0000
0000
2M02
0000
0000
0000
0000
0000
0M00
0000
0000
0000
0000
0000
0M00
0000
0000
0000
0000
0000
0M00
0000
0000
0000
0000
0000
0M00
0000
0000
0000
0000
0000
0M00
0000
0000
0000
0000
0000
0M00
0000
0000
0000
3003
0000
0M00
0000
0000
0000
0000
0000
,
0001
0000
0000
0000
1000
0000
0100
0000
0010
0000
0000
0000
0001
0000
0010
0000
0100
0000
0000
0000
1000
0000
0000
0000
00M2
00M0
00M0
00M0
00M0
00M0
00M0
00M0
,
1003
0100
0010
0001
0100
0001
1000
0001
0010
0100
1000
0010
1000
0001
0100
0001
,
1000
0100
0010
0001
1000
0001
0100
0001
1000
0001
0010
0100
1000
0010
1000
0010
,
0100
0010
1000
0100
0010
0001
1000
0010
1000
0010
0100
0001
1000
0100
1000
0100
,
0010
0001
0100
0001
0100
0001
0010
0100
1000
0001
0010
0001
0010
0100
1000
0001
,
1000
0010
1000
0001
0100
0001
0010
0100
1000
0001
1000
0100
0010
0001
1000
0001
,
1000
0010
0100
0010
1000
0001
0010
0001
1000
0100
0010
0001
0010
0100
1000
0001
,
0100
0001
1000
0010
1000
0001
0010
0100
1000
0001
0010
0001
0010
0100
1000
0001
,
1000
00M0
0000
1100
000M
0000
0110
M000
0000
0011
0M00
0000
1001
0000
0101
00M0
,
0100
0000
0001
0010
M001
0000
0010
0000
0100
0000
1000
0001
10M0
0000
0100
0000
,
1000
0000
0001
0100
00M1
0000
1000
0000
0010
0100
0001
1000
0100
0010
0001
1000
,
0001
0000
1000
0100
100M
0000
0100
0000
0010
0001
1000
0001
0010
0100
1000
0001
,
1000
0000
0001
0010
0000
0001
1000
0000
0010
0000
1000
0000
0001
0010
0100
1000
,
0001
0000
1000
0010
1M00
0000
0010
0000
0100
0000
0001
1000
0M01
0000
0010
0000
,
0001
0000
1000
0100
100M
0000
0100
0000
0010
0001
1000
0001
0010
0100
1000
0001
,
1000
0000
0000
0000
0001
0000
0100
0000
00M1
0000
0000
0000
1000
0000
0000
0000
0001
0000
0100
0000
0001
0000
0100
0000
00M2
00M0
00M0
00M0
00M0
00M0
00M3
0000
,
1001
0000
0M00
0011
0000
0M00
1001
0000
00M0
0101
00M0
0000
0110
000M
1010
0000
,
1000
0100
0010
0001
0100
1000
0100
0001
,
002M
000M
000M
000M
000M
000M
000M
000M
000M
000M
000M
000M
000M
000M
000M
000M
100M
000M
000M
000M
000M
000M
000M
000M
010M
000M
000M
000M
000M
0000
0030
0000
,
0011
0000
0001
1000
0000
0100
1000
0100
0010
0000
0001
0010
0000
0001
1000
0100
,
0010
0000
0001
1000
0000
0100
1000
0010
0100
0000
0001
0100
0000
0010
1000
0001
,
1000
0000
0010
0100
0000
0001
1000
0100
1000
0000
0001
0010
0000
0001
0100
0010
,
1000
0000
0100
0010
0000
0001
0100
0001
1000
0000
0001
1000
0001
0010
0100
1000
,
0001
0000
1000
0001
0000
0010
0001
0010
0100
0000
1000
0100
0000
1000
0001
0010
,
0100
0000
1000
0001
0000
0010
0001
0100
0010
0000
1000
0100
0000
1000
0010
0100
,
0001
0000
0100
0010
0000
1000
0001
0010
0001
0000
1000
0100
0000
1000
0010
0100
,
0001
0000
0010
0100
0000
1000
0010
1000
0001
0000
1000
0001
1000
0001
0010
0000
,
1100
0000
1000
0100
0010
0001
0100
0010
1000
0000
0001
0100
0010
1000
0010
1000
,
0001
0000
0010
0100
1000
0010
1000
0100
0010
0000
0001
1000
0010
0100
0010
1000
,
0001
0000
1000
0001
0010
0100
1000
0001
1000
0000
0100
0010
0001
0100
0001
1000
,
0100
0000
0010
0001
0010
0100
1000
0100
1000
0000
0001
0100
0010
1000
0001
0100
,
0001
0000
1000
0100
1000
0100
0010
0001
1000
0000
0001
0100
0001
1000
0010
1000
,
0001
0000
0100
0001
1000
0001
0010
0001
0100
0000
0010
1000
0001
0010
0100
1000
,
0001
0000
1000
0100
1000
0001
0100
0010
0100
0000
0001
0100
0010
1000
0010
0100
,
0001
0000
1000
0010
0100
0010
1000
0001
1000
0000
0001
0010
0000
0100
1000
0000
,
1001
0000
MMMM
MMMM
MMMM
MMMM
MMMM
0000
1001
0000
MMMM
MMMM
MMMM
MMMM
MMMM
0000
,
1001
0000
MMMM
MMMM
MMMM
MMMM
MMMM
0000
1001
0000
MMMM
MMMM
MMMM
MMMM
MMMM
0000
,
1001
0000
00M0
0000
1100
000M
0000
0000
0110
M000
0000
0000
M011
0000
0M00
0000
,
1000
0010
1000
0001
1000
0100
0010
0001
0010
0100
1000
0001
0100
0001
1000
0001
,
0200
0000
0000
0000
,
0300
0000
0000
0000
,
0001
0000
0000
0001
0000
0000
1000
0000
0000
1000
0000
0000
0100
0000
0010
0000
,
0001
0000
0000
1000
0000
0000
0010
0000
0000
0100
0000
0000
0001
0000
0010
0000
,
0100
0000
0000
0100
0000
0000
1000
0000
0000
1000
0000
0000
0001
0000
0100
0000
,
0010
0000
0000
0010
0000
0000
1000
0000
0000
1000
0000
0000
0100
0000
0010
0000
,
0001
0000
0000
0100
0000
0000
0001
0000
0000
1000
0000
0000
1000
0000
0001
0000
,
MMMM
MMMM
0000
0000
,
1000
0000
0000
0000
0001
0000
0010
0000
0100
0000
0000
0000
1000
0000
0100
0000
0010
0000
0000
0000
0001
0000
0000
0000
2M00
0M00
0M00
0M00
0M00
0M00
0M00
0M00
,
3001
0010
0100
1000
0010
1000
0001
1000
0100
0010
0001
0100
0001
1000
0010
1000
,
0001
0010
0100
1000
0001
1000
0010
1000
0001
1000
0100
0010
0001
0100
0001
0100
,
0010
0100
0001
0010
0100
1000
0001
0100
0001
0100
0010
1000
0001
0010
0001
0010
,
0100
1000
0010
1000
0010
1000
0100
0010
0001
1000
0100
1000
0100
0010
0001
1000
,
0001
0100
0001
1000
0010
1000
0100
0010
0001
1000
0001
0010
0100
1000
0001
1000
,
0001
0100
0010
0100
0001
1000
0100
1000
0001
0010
0100
1000
0100
0010
0001
1000
,
0010
1000
0001
0100
0001
1000
0100
0010
0001
1000
0100
1000
0100
0010
0001
1000
,
0001
0000
0000
0000
0000
0000
M000
0000
0000
0011
0000
0000
0000
0000
M000
0000
0000
0000
0110
0000
0000
0000
000M
0000
0000
0000
0000
1100
0000
0000
0000
0000
00M0
0000
0000
0000
1001
0000
0000
0000
0000
0000
1100
0000
00M0
0000
0000
0000
,
0001
0000
1000
0100
100M
0000
0100
0000
0010
0000
0001
1000
0M01
0000
0010
0000
,
0001
0000
1000
0010
100M
0000
0010
0000
0100
0001
1000
0001
0010
0100
1000
0001
,
1000
0000
0001
0100
M001
0000
1000
0000
0010
0100
0001
1000
0100
0010
0001
1000
,
0001
0000
1000
0100
0000
1000
0001
0000
0100
0000
0001
0000
1000
0100
0010
0001
,
1000
0000
0001
0010
M001
0000
0010
0000
0100
0000
1000
0001
10M0
0000
0100
0000
,
1000
0000
0001
0010
M001
0000
0010
0000
0100
1000
0001
1000
0100
0010
0001
1000
,
0001
0000
0000
0000
1000
0000
0010
0000
100M
0000
0000
0000
0100
0000
0000
0000
1000
0000
0001
0000
1000
0000
0001
0000
2M00
0M00
0M00
0M00
0M00
0M00
3M00
0000
,
1001
0000
0000
0000
0000
0000
00M0
0000
0000
1100
0000
0000
0000
0000
00M0
0000
0000
0000
1001
0000
0000
0000
0M00
0000
0000
0000
0000
0011
0000
0000
0M00
0000
0000
0000
0000
0000
0110
0000
0000
0000
0000
0000
M011
0000
0000
0000
0000
0000
,
1001
MMMM
0000
0000
0000
0000
0000
0000
;
