#TITLE:Revelations;
#SUBTITLE:;
#ARTIST:Dragonforce;
#TITLETRANSLIT:;
#SUBTITLETRANSLIT:;
#ARTISTTRANSLIT:;
#CREDIT:B. Abear;
#BANNER:Bn-Revelations.png;
#BACKGROUND:Bg-Revelations.png;
#LYRICSPATH:;
#CDTITLE:;
#MUSIC:07 - Revelations.ogg;
#OFFSET:0.205;
#SAMPLESTART:85.014;
#SAMPLELENGTH:23.400;
#SELECTABLE:YES;
#BPMS:0.000=170.000,61.000=190.000,561.000=140.000,593.000=140.500,609.000=140.000,620.000=140.000,657.000=139.750,670.000=140.000,821.000=139.500,825.000=190.000;
#STOPS:261.000=0.947
,310.000=1.579
,477.000=0.947
,526.000=1.579
;
#BGCHANGES:;
// cache tags:
#FIRSTBEAT:1.000;
#LASTBEAT:1177.375;
#SONGFILENAME:Songs/Dragonforce/Revelations/Revelations.sm;
#HASMUSIC:1;
#HASBANNER:1;
#MUSICLENGTH:412.212;
// end cache tags

//---------------dance-single - B. Abear----------------
#NOTES:
     dance-single:
     B. Abear:
     Challenge:
     14:
     1.000,1.000,0.209,0.422,1.000,3143.000,86.000,174.000,79.000,0.000:

0000
0000
0000
0000
1001
0000
0001
1000
0001
1000
0200
0000
0000
0000
0310
0000
,
0001
0000
0000
1000
0000
0000
0020
0000
0000
0000
0000
0000
0000
0000
0000
0230
0000
0000
0000
0000
0000
0301
1000
0001
,
1000
0000
0100
0000
1100
0000
1000
0100
1000
0100
0020
0000
0000
0000
0031
0000
,
1000
0000
0000
0010
0000
0000
0200
0000
0000
0000
0000
0000
0000
0000
0000
0302
0000
0000
0000
0000
0000
1003
0100
1000
,
0100
0000
0010
0000
0011
0000
0001
1000
0001
1000
0020
0000
0000
0000
0130
0000
,
0001
0000
0010
0000
0200
0000
0000
0000
0000
0000
1300
0000
0001
0100
0010
1000
,
0001
1000
2200
0000
0000
0000
0000
0000
,
0300
0000
0000
3100
0010
0100
0010
0000
0000
0000
0000
0000
0001
0000
0000
1001
0000
0000
0000
0000
0000
1000
0000
0000
,
1010
0000
0010
0000
0110
0000
0100
0001
0100
0001
2000
0000
0000
0000
3100
0000
,
0010
0000
0000
0001
0000
0000
2000
0000
0000
0000
0000
0000
0000
0000
0000
3020
0000
0000
0000
0000
0000
0130
0001
0100
,
0001
0000
1000
0000
1001
0000
0001
0010
0001
0010
0200
0000
0000
0000
1300
0000
,
0001
0000
0100
0000
0020
0000
0000
0000
0000
0000
1030
0000
0001
1000
0100
0010
,
0001
0000
1000
0000
1010
0000
0010
0100
0010
0100
0002
0000
0000
0000
1003
0000
,
0100
0000
0000
0010
0000
0000
0002
0000
0000
0000
0000
0000
0000
0000
0000
2003
0000
0000
0000
0000
0000
3001
0100
0001
,
0100
0010
1020
0000
0000
2030
0000
0000
,
3001
0000
1000
0001
1000
0010
0100
0001
1000
0010
0100
0001
1000
0010
0100
0001
,
1000
0000
0000
0000
1001
0000
0001
1000
0001
1000
0200
0000
0000
0000
1300
0000
,
0010
0100
0002
0000
0000
2003
0000
0000
,
3200
0000
0320
0000
0000
0000
0000
0031
,
1000
0010
0200
0000
0000
0302
0000
0000
,
2003
0000
3002
0000
0000
0000
0000
0013
,
0100
1000
0002
0000
0000
0203
0000
0000
,
0320
0000
2030
0000
0000
3200
0000
0000
,
2300
0000
0000
0000
3010
0100
0001
1000
0001
1000
0001
1000
0010
0100
0001
1000
,
0001
1000
0001
1000
0100
0000
1000
0001
1000
0001
0200
0000
0000
0000
0310
0000
,
1000
0001
0020
0000
0000
0230
0000
0000
,
2300
0000
0000
0000
3001
0000
1000
0100
1000
0100
0020
0000
0000
0000
0031
0000
,
1000
0010
0200
0000
0000
0302
0000
0000
,
2003
0000
0000
0000
3001
0000
0100
0001
0100
0001
2000
0000
0000
0000
3001
0000
,
0010
0000
0100
0000
1000
0100
0010
0001
0010
0001
0010
0001
1000
0001
0010
0001
,
0010
0001
1000
0001
0100
0010
1000
0001
1000
0001
0100
0010
1000
0001
1000
0001
,
0100
0001
0100
0000
0202
0000
0303
0000
0220
0000
0330
0000
2020
0000
3030
0000
,
1001
0000
0MM0
0000
0001
0000
1000
0001
0100
0010
2000
0000
0000
0000
0000
0000
,
3100
0000
0000
0000
2000
0000
3001
0100
0010
1000
0002
0000
1003
0100
0010
0100
,
2000
0000
3001
0010
0001
0000
1000
0001
1000
0001
0020
0000
0000
0000
0000
0000
,
0000
0000
0000
0000
0230
0000
1300
0001
1000
0010
0200
0000
0310
1000
0001
0010
,
0100
1000
0001
1000
0100
0000
1000
0001
1000
0001
0200
0000
0000
0000
0000
0000
,
0000
0000
0320
1000
1030
0002
1000
1003
,
0200
0000
1300
0000
0001
1000
0100
1000
0001
0100
0001
1000
0010
1000
0001
0010
,
0001
1000
0100
1000
0001
0100
0001
0100
0010
0100
0010
0100
0010
1000
0010
1000
,
0001
0000
0001
0000
1001
0000
1000
0001
0010
0100
2000
0000
0000
0000
0000
0000
,
3100
0000
0000
0000
2000
0000
3001
0100
0010
0100
0002
0000
1003
0100
1000
0001
,
2000
0000
3001
0010
0001
0000
1000
0001
1000
0001
0020
0000
0000
0000
0000
0000
,
0000
0000
0000
0000
0230
0000
1300
0001
1000
0010
0200
0000
0310
1000
0001
0010
,
0100
1000
0001
1000
0100
0000
1000
0001
1000
0001
0200
0000
0000
0000
0000
0000
,
0000
0000
0320
1000
1030
0002
1000
1003
,
0200
0000
1300
0000
0001
0010
0100
1000
0100
1000
0001
1000
0100
1000
0100
1000
,
0001
1000
0010
1000
0010
0100
0001
1000
0001
1000
0010
0100
0001
1000
0001
1000
,
0010
0000
0010
0000
1010
0000
1000
0000
0001
1000
0001
0000
0010
0000
0100
0000
,
1000
0100
1000
0000
1001
0000
0001
0000
0100
0010
0100
0000
0010
0000
1000
0000
,
0001
1000
0001
0000
0011
0000
0010
0000
0100
1000
0100
0000
1000
0000
0001
0000
,
0010
0001
0010
0000
0001
1000
0001
1000
0001
0100
0001
0100
0001
1000
0001
1000
,
0001
0100
0001
0100
0001
0000
1000
0000
0001
0010
0001
0000
1000
0000
0100
0000
,
1000
0100
1000
0000
1100
0000
0100
0000
0010
0001
0010
0000
0100
0000
1000
0000
,
0001
0100
0001
0000
1000
0100
0010
0001
1000
0100
0010
0001
1000
0100
0010
0001
,
1000
0001
1000
0001
0100
0010
0100
0010
0100
0010
0100
0010
0100
0010
0100
0010
,
1000
0000
0MM1
0000
0001
0020
0000
0130
,
1000
0010
0100
0001
1MM0
0000
0000
0000
1000
0000
0020
0000
0000
0000
0130
0000
,
0001
0010
0100
1000
0001
0000
0100
0000
0010
1000
0001
0000
0010
0000
0100
0000
,
1000
0001
0010
0000
0100
0000
1000
0000
0001
0010
0100
0000
0010
0000
0001
0000
,
1000
0010
0100
0000
M0M1
0000
0000
0000
0001
0000
0200
0000
0000
0000
0310
0000
,
1000
0100
0010
0001
1MM0
0000
0001
0000
1000
0100
1000
0000
0001
0000
0010
0000
,
0100
0010
0100
0000
1000
0001
1000
0001
1000
0001
1000
0001
1000
0001
1000
0001
,
1000
0001
1000
0001
1000
0001
1000
0001
0100
0010
1000
0001
0100
0010
1000
0001
,
0100
0010
1000
0001
0100
0010
0100
0010
0100
0010
1000
0010
1000
0010
1000
0010
,
1000
0001
1000
0001
MM10
0000
0000
0000
0001
0010
0100
1000
0001
0100
0010
0100
,
0001
1000
0100
1000
0001
0010
0100
1000
0001
0010
0001
1000
0100
1000
0001
0100
,
0001
0100
0010
1000
0001
0010
0100
1000
0001
0010
0100
1000
0001
0100
0001
1000
,
0100
0010
0001
1000
0010
1000
0001
0010
0100
1000
0100
1000
0100
1000
0100
1000
,
0100
1000
0100
1000
0001
1000
0100
1000
0010
0100
0001
1000
0100
1000
0001
0010
,
0001
1000
0100
0010
0100
1000
0001
0100
0010
1000
0001
1000
0100
1000
0001
0010
,
0100
1000
0001
0010
0001
1000
0100
0010
0100
1000
0001
0100
0010
0100
0010
1000
,
0001
1000
0100
0010
0001
0010
0100
1000
0001
0100
0001
0100
0001
0100
0001
0100
,
0001
0100
0001
0100
0001
0100
0001
0100
0010
1000
0001
1000
0100
0010
0100
1000
,
0001
0010
0001
1000
0100
0010
0001
1000
0010
0100
0010
1000
0001
0010
0001
0010
,
0100
1000
0001
0010
0001
1000
0100
0010
0001
1000
0010
0100
0010
0100
0001
1000
,
0010
0100
0010
0100
0001
1000
0010
0100
0001
1000
0001
1000
0001
1000
0001
1000
,
0001
0000
0000
1000
0000
0000
0001
0000
0000
1000
0000
0000
0100
0000
0000
0000
0000
0000
0100
0000
0000
0000
0000
0000
11MM
0000
0000
0000
0000
0000
0000
0000
0000
0000
0000
0000
0000
0000
0000
0000
0000
0000
1000
0000
0001
0000
1000
0000
,
0001
0000
2000
0000
0000
3200
0000
0000
,
0320
0000
0000
0000
0032
0000
0000
0000
0000
1003
0100
0000
0010
0000
0001
0000
,
0010
0100
2000
0000
0000
3002
0000
0000
,
0203
0000
0000
0000
0301
1000
0001
1000
0001
1000
0001
1000
0001
1000
0100
1000
,
0001
1000
0001
1000
0020
0000
0000
0000
0000
0000
0230
0000
0000
0000
0000
0000
,
0302
0000
0000
0000
1003
0100
1000
0100
1000
0100
1000
0100
0010
0001
1000
0100
,
1000
0001
1000
0001
M100
00M0
0M00
000M
M000
00M0
0M00
000M
M000
00M0
0M00
000M
,
M000
00M0
0M00
0000
0101
0000
M0M0
0000
0202
0000
0303
0000
2002
0000
3003
0000
,
2200
0000
3300
0000
1001
0000
0001
1000
0010
0100
0002
0000
0000
0000
0000
0000
,
0013
0000
0000
0000
0002
0000
1003
0010
0100
0001
2000
0000
3001
0010
0100
0010
,
0002
0000
1003
0100
1000
0000
0001
1000
0001
1000
0200
0000
0000
0000
0000
0000
,
0000
0000
0000
0000
0320
0000
0031
1000
0001
0100
0020
0000
0130
0001
1000
0100
,
0010
0001
1000
0001
0010
0000
0001
1000
0001
1000
0020
0000
0000
0000
0000
0000
,
0000
0000
0230
0001
0301
2000
0001
3001
,
0020
0000
0031
0000
1000
0100
1000
0001
0100
0001
1000
0010
1000
0001
0010
0001
,
1000
0100
1000
0001
0100
0010
1000
0001
1000
0001
1000
0001
1000
0001
1000
0001
,
0010
0000
0010
0000
0011
0000
0001
0010
0100
1000
0002
0000
0000
0000
0000
0000
,
1003
0000
0000
0000
0002
0000
1003
0010
0100
0001
2000
0000
3001
0010
0001
1000
,
0002
0000
1003
0100
1000
0000
0001
1000
0001
1000
0200
0000
0000
0000
0000
0000
,
0000
0000
0000
0000
0320
0000
0031
1000
0001
0100
0020
0000
0130
0001
1000
0100
,
0010
0001
1000
0001
0010
0000
0001
1000
0001
1000
0020
0000
0000
0000
0000
0000
,
0000
0000
0230
0001
0301
2000
0001
3001
,
0020
0000
0031
0000
1000
0010
1000
0001
0010
0001
1000
0100
1000
0001
0100
0001
,
1000
0010
1000
0001
0010
0100
1000
0001
1000
0001
1000
0001
1000
0001
1000
0001
,
0100
0000
0100
0000
0101
0000
0001
0000
1000
0001
1000
0000
0100
0000
0010
0000
,
0001
0010
0001
0000
1001
0000
1000
0000
0010
0100
0010
0000
0100
0000
0001
0000
,
1000
0001
1000
0000
1100
0000
0100
0000
0010
0001
0010
0000
0001
0000
1000
0000
,
0100
1000
0100
0000
1000
0001
1000
0001
1000
0010
1000
0010
1000
0001
1000
0001
,
1000
0010
1000
0010
1000
0000
0001
0000
1000
0100
1000
0000
0001
0000
0010
0000
,
0001
0010
0001
0000
0011
0000
0010
0000
0100
1000
0100
0000
0010
0000
0001
0000
,
1000
0010
1000
0000
0001
0010
0100
1000
0001
0010
0100
1000
0001
0010
0100
1000
,
0001
1000
0001
1000
0010
0100
0010
0100
0010
0100
0010
0100
0010
0100
0010
0100
,
0001
0001
1MM0
0000
1000
0200
0000
0310
,
0001
0100
0010
1000
0MM1
0000
0000
0000
0001
0000
0200
0000
0000
0000
0310
0000
,
1000
0100
0010
0001
1000
0000
0010
0000
0100
0001
1000
0000
0100
0000
0010
0000
,
0001
1000
0100
0000
0010
0000
0001
0000
1000
0100
0010
0000
0100
0000
1000
0000
,
0001
0100
0010
0000
1M0M
0000
0000
0000
1000
0000
0020
0000
0000
0000
0130
0000
,
0001
0010
0100
1000
0MM1
0000
1000
0000
0001
0010
0001
0000
1000
0000
0100
0000
,
0010
0100
0010
0000
0001
1000
0001
1000
0001
1000
0001
1000
0001
1000
0001
1000
,
0001
1000
0001
1000
0001
1000
0001
1000
0010
0100
0001
1000
0010
0100
0001
1000
,
0010
0100
0001
1000
0010
0100
0010
0100
0010
0100
0001
0100
0001
0100
0001
0100
,
0001
1000
0001
1000
01MM
0000
0000
0000
1000
0100
0010
0001
1000
0010
0100
0010
,
1000
0001
0010
0001
1000
0100
0010
0001
1000
0100
1000
0001
0010
0001
1000
0010
,
1000
0010
0100
0001
1000
0100
0010
0001
1000
0100
0010
0001
1000
0010
1000
0001
,
0010
0100
1000
0001
0100
0001
1000
0100
0010
0001
0010
0001
0010
0001
0010
0001
,
0010
0001
0010
0001
1000
0001
0010
0001
0100
0010
1000
0001
0010
0001
1000
0100
,
1000
0001
0010
0100
0010
0001
1000
0010
0100
0001
1000
0001
0010
0001
1000
0100
,
0010
0001
1000
0100
1000
0001
0010
0100
0010
0001
1000
0010
0100
0010
0100
0001
,
1000
0001
0010
0100
1000
0100
0010
0001
1000
0010
1000
0010
1000
0010
1000
0010
,
1000
0010
1000
0010
1000
0010
1000
0010
0100
0001
1000
0001
0010
0100
0010
0001
,
1000
0100
1000
0001
0010
0100
1000
0001
0100
0010
0100
0001
1000
0100
1000
0100
,
0010
0001
1000
0100
1000
0001
0010
0100
1000
0001
0100
0010
0100
0010
1000
0001
,
0100
0010
0100
0010
1000
0001
0100
0010
1000
0001
1000
0001
1000
0001
1000
0001
,
1000
0000
0000
0001
0000
0000
1000
0000
0000
0001
0000
0000
0100
0000
0000
0000
0000
0000
0100
0000
0000
0000
0000
0000
M1M1
0000
0000
0000
0000
0000
0000
0000
0000
0000
0000
0000
0000
0000
0000
0000
0000
0000
0001
0000
1000
0000
0001
0000
,
1000
0000
0200
0000
0000
2300
0000
0000
,
3002
0000
0203
0000
0000
0310
1000
0001
,
1000
0100
0020
0000
0000
0032
0000
0000
,
2003
0000
0000
0000
3001
0100
0001
0100
0001
1000
0001
1000
0100
1000
0100
1000
,
0100
0010
0100
0010
0002
0000
0000
0000
0000
0000
2003
0000
0000
0000
0000
0000
,
3200
0000
0000
0000
1300
0001
1000
0001
1000
0001
1000
0001
0100
0010
1000
0001
,
1000
0100
1000
0100
0010
000M
0M00
00M0
M000
M000
M000
M000
00M0
0M00
000M
M000
,
M000
0M00
M000
0000
0011
0000
MM00
0000
2002
0000
3003
0000
0202
0000
0303
0000
,
0220
0000
0330
0000
M01M
0100
0001
0000
1000
0000
1000
0000
1000
0000
0001
1000
,
0100
1000
0001
0000
0010
0100
1000
0000
0001
0000
0001
0000
0001
0000
0001
0100
,
0010
0100
0001
0000
1000
0100
0010
0000
0100
0000
0100
0000
0100
0000
0100
1000
,
0001
1000
0100
0000
0010
0001
1000
0000
0010
0000
0010
0000
0010
0000
0010
0100
,
0001
0100
0010
0000
1010
1000
0001
0010
0100
0000
1000
0100
1000
0000
0100
1000
,
0100
0010
0001
0000
1000
0001
1000
0000
0001
0000
0001
0000
0001
0000
1000
0001
,
1000
0010
0100
0000
0001
0100
0001
0000
0100
0000
0100
0000
0100
0000
0001
0100
,
0001
0000
0000
1000
0000
0000
0100
0000
0000
0000
0000
0000
0010
0000
0000
0001
0000
0000
0010
0000
0000
0000
0000
0000
0001
0000
0000
0000
0000
0000
0001
0000
0000
0000
0000
0000
0001
0000
0000
0000
0000
0000
1000
0000
0100
0000
0010
0000
,
0001
0000
1000
0100
1000
0001
1000
0100
,
1000
0001
1000
0100
1000
0001
0100
0010
,
0100
0010
1000
0001
1000
0010
1000
0001
,
1000
0010
1000
0001
1000
0010
0100
0001
,
0100
0001
1000
0100
1000
0001
1000
0100
,
1000
0001
1000
0100
1000
0001
0100
0010
,
0100
0010
1000
0001
1000
0010
1000
0001
,
1000
0000
0010
0100
0001
1000
0100
0000
0100
0000
0010
0001
1000
0000
1000
0010
,
0100
0001
0100
0001
1000
0100
0010
0000
0001
1000
0100
0000
1000
0010
0100
0000
,
0001
0100
0010
0000
1000
0001
0010
0000
0100
1000
0001
0000
0100
0010
1000
0000
,
0001
1000
0100
0000
1100
1000
0001
0000
0100
0010
1000
0000
0010
0100
0001
0000
,
1000
0100
0010
0000
0001
0010
0001
0000
1000
0100
0010
0000
0001
1000
0010
0000
,
0100
0010
1000
0000
1010
0010
0100
0000
0001
1000
0100
0000
0010
0100
1000
0000
,
0001
0100
0010
0000
1000
0001
0010
0000
0100
1000
0001
0000
0010
0100
1000
0000
,
0001
0100
0010
0000
1010
1000
0001
0000
1000
0100
0010
0000
0001
1000
0100
0000
,
1000
0000
0000
0010
0000
0000
0100
0000
0001
0000
1000
0000
0001
0000
0000
0010
0000
0000
0001
0000
0000
0010
0000
0000
0100
0000
0000
0010
0000
0000
0100
0000
0000
0010
0000
0000
0100
0000
0000
1000
0000
0000
0100
0000
0000
1000
0000
0000
,
0001
1000
0001
1000
0010
0100
0001
1000
0100
1000
0001
0010
0100
1000
0010
0100
,
0010
1000
0001
0010
0100
0010
0001
1000
0100
1000
0001
0100
0010
1000
0001
0010
,
0001
1000
0100
1000
0001
0010
0100
1000
0010
0100
0001
0100
0010
1000
0001
1000
,
0100
0010
0001
1000
0100
0010
0001
0000
0001
1000
0010
0000
0010
0100
0001
0000
,
1000
0000
1000
0000
0001
0100
0010
1000
0010
0100
0001
1000
0100
1000
0001
0010
,
0100
1000
0001
0010
0001
1000
0100
1000
0010
0100
0001
0100
0001
1000
0100
1000
,
0001
0010
0100
1000
0001
0010
0001
1000
0010
0100
0010
1000
0001
1000
0100
0010
,
0001
0000
0000
1000
0000
0000
0100
0000
0010
0000
0001
0000
1000
0000
0000
0000
0000
0000
0010
0000
0000
0000
0000
0000
0000
0000
0000
0000
0000
0000
0010
0000
0000
0000
0000
0000
0000
0000
0000
0000
0000
0000
0010
0000
0000
0000
0000
0000
,
1001
0010
2020
0000
0000
0000
0000
0000
,
0000
0000
0030
0000
3010
0100
0001
0000
0001
1000
0100
0000
0100
0010
0001
0000
,
0001
1000
0100
0000
0220
0000
0000
0000
0000
0000
0000
0000
0000
0000
0000
0000
,
0000
0000
0030
0000
0310
0001
1000
0000
1000
0001
0100
0000
0100
0010
1000
0000
,
0001
1000
2002
0000
0000
0000
0000
0000
,
0000
0000
0000
0000
0000
0000
0003
0000
0000
0000
0000
0000
3001
0000
0000
0010
0000
0000
0100
0000
0000
1000
0000
0000
0001
0000
0100
0000
0010
0000
1000
0000
0000
0000
0000
0000
0001
0000
0000
0100
0000
0000
0010
0000
1000
0000
0001
0000
,
1000
0100
0120
0000
0100
0000
0100
0001
,
0130
0000
0000
0000
0000
0000
1000
0000
0001
0000
0100
0000
0001
0000
0000
1000
0000
0000
0100
0000
0000
1000
0000
0000
0001
0000
0000
0010
0000
0000
0100
0000
0000
1000
0000
0000
0010
0000
0000
0100
0000
0000
0010
0000
0000
1000
0000
0000
,
0001
1000
0100
0010
0001
0100
0001
1000
0001
0100
0001
1000
0001
0100
0001
1000
,
0001
0100
0001
1000
0100
0010
0001
0000
0001
1000
0100
0000
0100
1000
0001
0000
,
0001
0100
0010
0000
1000
0010
1000
0001
1000
0010
1000
0001
1000
0010
1000
0001
,
1000
0010
1000
0001
0010
0000
0010
0100
0000
0100
1000
0000
0001
0100
0001
0100
,
0010
1000
0010
1000
0002
0000
0000
0000
0000
0000
0000
0000
0000
0000
1003
0000
,
0100
0000
0010
0000
0001
1000
0100
0000
0100
1000
0001
0000
0001
0100
0010
0000
,
1010
1000
0002
0000
0000
0000
0000
0000
,
0000
0000
0000
0013
0100
1000
0001
0000
0000
0000
0000
0000
0101
0000
0000
0100
0000
0000
0110
0000
0000
0010
0000
0000
,
1010
0000
0000
1000
0010
1000
0010
0000
0000
0100
0001
0100
0001
0000
0000
1000
0001
1000
0001
0000
0000
0010
0001
0010
,
0001
0000
0000
0000
0000
0000
1000
0000
0100
0000
1000
0000
0100
0000
0000
0010
0000
0000
0100
0000
0000
0010
0000
0000
0100
0000
0000
1000
0000
0000
0100
0000
0000
1000
0000
0000
0001
0000
0000
0100
0000
0000
0001
0000
0000
0100
0000
0000
,
0010
0000
0000
0100
0000
0000
0010
0000
1000
0000
0010
0000
1000
0000
0000
0000
0000
0000
0001
0000
0100
0000
0001
0000
0100
0000
0000
0000
0000
0000
0001
0000
1000
0000
0001
0000
1000
0000
0000
0000
0000
0000
0100
0000
1000
0000
0100
0000
,
1000
0000
0000
0000
0000
0000
0001
0000
0010
0000
0001
0000
0010
0000
0000
0100
0000
0000
1000
0000
0000
0001
0000
0000
0100
0000
0000
0020
0000
0000
0000
0000
0000
0030
0000
0000
0100
0000
0000
0001
0000
0000
1000
0000
0000
0100
0000
0000
,
0010
0000
0000
0100
0000
0000
1000
0000
0001
0000
1000
0000
0001
0000
0000
0000
0000
0000
0100
0000
0001
0000
0100
0000
0001
0000
0000
0000
0000
0000
1000
0000
0010
0000
1000
0000
0010
0000
0000
0000
0000
0000
0100
0000
0010
0000
0100
0000
,
0010
0000
0000
0000
0000
0000
1000
0000
0001
0000
1000
0000
0001
0000
0000
0000
0000
0000
0010
0000
0001
0000
0010
0000
0001
0000
0000
1000
0000
0000
0100
0000
0000
1000
0000
0000
0001
0000
0000
0100
0000
0000
0010
0000
0000
0100
0000
0000
,
0001
0000
0000
1000
0000
0000
0001
0000
0100
0000
0001
0000
0100
0000
0000
0000
0000
0000
0010
0000
1000
0000
0010
0000
1000
0000
0000
0000
0000
0000
0001
0000
1000
0000
0001
0000
1000
0000
0000
0000
0000
0000
0100
0000
0010
0000
0100
0000
,
0010
0000
0000
0001
0010
0001
0010
0000
0000
0100
1000
0100
1000
0000
0000
0001
0100
0001
0100
0000
0000
0100
0000
0000
,
0010
0000
0010
0000
1010
0000
1000
0010
0100
0001
0100
0010
1010
0000
1000
0010
,
0100
0001
0100
0010
1010
0000
1000
0010
0100
0001
1000
0001
0022
0000
0033
0000
,
0220
0000
0330
0000
0011
0000
0001
0010
0100
1000
0100
0010
0011
0000
0001
0010
,
0100
1000
0100
0010
0011
0000
0001
0010
0100
1000
0001
1000
2200
0000
3300
0000
,
2002
0000
3003
0000
0101
0000
0001
0100
0010
1000
0010
1000
1001
0000
0001
0100
,
0010
1000
0010
1000
1001
0000
0001
0100
0010
1000
0010
1000
2002
0000
3003
0000
,
0022
0000
0033
0000
0110
0000
0100
1000
0001
0010
0001
0010
0110
0000
0100
1000
,
0001
0010
0001
0010
0110
0000
0100
1000
0001
0010
0001
0010
0100
1000
0100
1000
,
0001
1000
0001
1000
0010
0000
0000
0000
0100
0000
0100
0000
0001
0000
0001
0000
,
1000
1000
1100
1100
0110
0110
0011
0011
,
1001
0000
1001
0000
1000
0000
0100
0010
0001
1000
0002
0000
0000
0000
0103
0000
,
0010
0000
0000
0000
0100
0000
0001
1000
0100
0000
2000
0000
0000
0000
3001
0000
,
0100
0000
0010
0000
1000
0000
0001
0010
0100
1000
0002
0000
0000
0000
0000
0000
,
0000
0000
0003
0000
1000
0000
0000
0010
0000
0000
0100
0000
0001
0000
1000
0000
,
0100
0000
1000
0000
0001
1000
0100
1000
0001
1000
0001
1000
0100
1000
0001
1000
,
0001
1000
0100
1000
0010
0100
0001
0100
0010
0100
0010
0100
0001
0100
0010
0100
,
0010
0100
0001
0100
0010
1000
0010
1000
0001
0100
0010
0100
0010
1000
0001
0000
,
1000
0000
0100
0000
0010
0100
0010
0100
0010
0100
0010
0100
1000
0001
0010
0100
,
0010
0100
0010
0100
1000
0000
0001
0100
0010
1000
0001
0000
1000
0100
0010
0001
,
1000
0000
0100
1000
0001
0100
0001
0100
0001
0100
0001
1000
0001
1000
0001
1000
,
0100
1000
0100
1000
0001
0000
0010
0100
1000
0001
1000
0000
0010
0100
0001
1000
,
0100
0000
0010
0100
1000
0001
1000
0001
1000
0001
0100
0001
0100
0001
0100
0001
,
0400
0000
0000
0000
0301
0000
1000
0100
0010
0001
1000
0000
0010
0100
0001
1000
,
0100
0000
0010
0001
1000
0010
0100
0001
1000
0010
0100
0001
1000
0100
0010
0001
,
1000
0100
0010
0001
2000
0000
0000
3000
1000
0010
0100
0000
0001
0000
0100
0000
,
0001
0000
1000
0000
0010
0100
0001
1000
0001
1000
0001
1000
0010
0100
0001
1000
,
0001
1000
0001
1000
0100
0000
0010
0000
0001
0100
0001
1000
0100
1000
0001
0010
,
0001
1000
0010
1000
0001
0010
0100
1000
0001
0100
0010
1000
0002
0000
0000
0000
,
0000
0000
0003
1000
0100
0010
0001
1000
0001
0100
0010
1000
0010
0100
0001
1000
,
0100
1000
0001
0010
0100
0000
1000
0100
0010
0000
0001
0000
0010
0001
0010
0001
,
0010
0001
0010
0001
4000
0100
0000
0100
0000
0100
0000
0001
0000
0001
0000
3001
,
0200
0000
0000
0000
0304
1000
0000
1000
0000
1000
0000
1003
0200
0000
0000
0000
,
0000
0000
0000
0000
0310
0001
0010
0001
1000
0001
1000
0001
1000
0010
1000
0010
,
0100
0010
0100
0010
1000
0010
1000
0010
1000
0001
1000
0001
0010
0001
0010
0001
,
1000
0001
1000
0001
0100
0010
1000
0000
0001
0000
0001
0010
0100
0000
1000
0000
,
1000
0001
0100
0000
0010
1000
0001
0000
0010
0000
0010
0100
1000
0000
0001
0000
,
0001
0100
0010
0000
1000
0001
0010
0000
0100
0000
0100
1000
0001
0000
0100
0000
,
0100
0010
1000
0000
0001
0010
0100
1000
0001
0010
0100
1000
0001
0010
0100
1000
,
0001
0100
0001
0100
0010
1000
0001
0000
1000
0000
1000
0100
0010
0000
0001
0000
,
0001
1000
0100
0000
0010
0001
1000
0000
0010
0000
0010
0100
0001
0000
1000
0000
,
1000
0100
0010
0000
0001
1000
0100
0000
0010
0000
0010
0001
1000
0000
0010
0000
,
0010
0100
0001
0000
1000
0001
0010
0100
0010
0100
0010
0100
1000
0001
0010
0100
,
0010
0100
0010
0100
1000
0000
0001
0000
0100
0000
0010
0000
00M0
0000
1000
0000
,
M000
0002
0000
0000
1003
0200
0000
0000
,
0310
0001
1000
0001
0100
0010
1000
0000
0001
0010
0100
0000
1000
0001
0100
0000
,
0010
1000
0001
0000
1000
0001
1000
0001
0100
0010
1000
0100
0040
0000
0000
0000
,
0000
0000
0000
0000
0130
1000
0001
0100
0010
1000
0001
0100
0001
1000
0100
1000
,
0001
0010
0100
1000
0001
0100
0001
1000
0100
1000
0001
0010
0100
1000
0001
0100
,
0020
0000
0000
0000
0130
0001
0100
0010
1000
0010
0100
0010
1000
0100
1000
0000
,
1000
0000
0001
0000
1000
0100
0010
0001
0010
0001
1000
0100
0010
0001
0010
0001
,
1000
1000
0002
0000
0000
2003
0000
0000
,
3200
0000
0320
0000
0000
0032
0000
0000
,
1003
0010
0210
0000
0000
0302
0000
0000
,
1003
0000
0100
0000
0010
0001
0010
0001
1000
0001
1000
0001
0100
0000
0010
0000
,
0100
0000
M00M
0000
0001
0100
0010
1000
0001
1000
0100
1000
0001
0010
0100
1000
,
0001
0000
0000
0000
0100
0000
0000
0000
0010
0000
0000
1000
0000
0000
0001
0000
0000
0010
0000
0000
0100
0000
0000
0000
1000
0000
0000
0000
0001
0000
0000
0000
1000
0000
0000
0000
0010
0000
0000
0000
0100
0000
0000
0000
0001
0000
0000
0000
1000
0000
0000
0000
0100
0000
0000
0000
0010
0000
0000
0000
0001
0000
0000
0000
,
2000
0000
0000
0000
3001
0010
0100
1000
0001
0000
0001
0000
0001
0000
0001
0000
,
0001
0000
0001
0000
1000
0010
0100
0001
0100
0001
0100
0001
1000
0010
0100
0001
,
1000
0001
1000
0001
0M10
0000
0000
0000
M000
0000
0000
0000
000M
0000
0000
0000
,
0M00
00M0
M000
000M
,
0M00
M000
00M0
000M
,
M000
0000
0000
0000
0000
0000
0M00
0000
0000
0000
0000
0000
00M0
0000
0000
0001
1000
0001
1000
0000
0000
0000
0000
0000
,
0100
0000
0000
0000
1000
0000
0001
0000
0100
0001
0100
0000
0010
0000
1000
0000
,
0001
1000
0001
0000
1000
0000
0100
0000
0010
0001
0010
0000
0100
0000
1000
0000
,
0001
0100
0001
0000
1000
0000
0100
0000
0010
0100
0010
0000
0100
0000
1000
0000
,
0001
1000
0001
0000
1000
0010
1000
0010
1000
0010
1000
0010
0100
0010
1000
0010
,
1000
0010
1000
0010
0100
0001
1000
0001
0010
0100
0010
0001
1000
0100
1000
0001
,
0010
0100
1000
0001
0100
0010
0100
0001
1000
0100
1000
0100
0010
0001
1000
0100
,
1000
0001
0010
0100
1000
0001
0100
0010
0100
0010
1000
0001
0100
0010
0100
0010
,
1000
0001
0100
0010
1000
0001
1000
0001
1000
0001
1000
0001
1000
0001
1000
0001
,
0100
0000
0100
0000
0001
0010
0100
1000
0001
0010
0100
1000
0001
0010
0100
1000
,
0001
0010
0100
1000
0001
0100
0010
1000
0001
0100
0010
1000
0001
1000
0001
1000
,
0100
0000
0100
0000
1000
0000
0001
0000
0100
0010
0100
0000
0001
0000
1000
0000
,
0100
1000
0100
0000
0010
0000
0001
0000
1000
0100
1000
0000
0001
0000
0010
0000
,
0100
1000
0100
0000
0010
0000
0001
0000
1000
0010
1000
0000
0010
0000
0100
0000
,
0001
1000
0001
0000
0100
0001
0100
0001
0100
0001
0100
0001
1000
0100
1000
0001
,
1000
0100
1000
0001
0100
0000
0010
0000
1000
0010
1000
0000
0001
0000
0010
0000
,
0100
1000
0100
0000
0010
0000
0001
0000
1000
0001
1000
0000
0010
0000
0100
0000
,
0001
0100
0001
0000
1000
0000
0100
0000
1000
0001
1000
0000
0001
0000
0010
0000
,
0100
1000
0100
0000
1000
0100
0010
0001
0010
0001
1000
0100
0010
0001
0010
0001
,
1000
0000
0000
0000
0010
0000
0100
0000
0001
1000
0001
0000
0010
0000
0100
0000
,
1000
0100
1000
0000
0001
0000
0100
0000
0010
1000
0010
0000
0100
0000
0001
0000
,
1000
0100
1000
0000
0001
0000
0010
0000
0100
1000
0100
0000
0010
0000
0001
0000
,
1000
0000
0001
0000
0100
0001
0100
0001
0100
0001
0100
0001
1000
0001
1000
0001
,
1000
0001
1000
0001
0010
0100
1000
0001
0010
0100
1000
0001
0010
0100
1000
0001
,
0010
0100
1000
0001
0010
0100
1000
0001
0010
0100
1000
0010
0100
0001
0100
0001
,
1000
0000
1000
0000
0100
0010
0001
1000
0100
0010
0001
1000
0100
0010
0001
1000
,
0100
0010
0001
1000
0100
0010
0001
1000
0100
0010
0001
1000
0001
0100
0001
0100
,
0010
0000
0000
0010
0000
0000
1001
0000
0000
0000
0000
0000
0000
0000
0001
0000
,
0000
1001
0000
0000
0000
0000
0000
0000
0000
0000
1000
0000
0000
0000
0000
0000
0000
0000
1100
0000
0000
0000
0000
0000
0000
0000
0000
0100
0000
0000
0000
0000
0000
0000
0000
0110
0000
0000
0000
0000
0000
0000
0000
0000
0000
0000
0000
0000
,
0000
0000
0000
0000
0000
0000
0000
0000
0000
0000
0000
0000
0000
0000
0000
0000
0000
0000
0000
0000
0000
0000
0000
0000
0000
0000
0000
0000
0000
0000
0000
0000
0000
0000
0000
0000
0000
0000
0000
0000
0000
0000
0000
0000
0000
0000
0000
0000
0000
0000
0000
0000
0000
0000
0000
0000
0000
0000
0000
0000
0000
0000
0000
0000
0000
0000
0000
0000
0010
0000
0000
0000
0000
0000
0000
0000
0000
0000
0001
0000
0000
0000
0000
0000
0000
0000
0000
1000
0000
0000
0000
0000
0000
0000
0000
0000
0001
0000
0000
0000
0000
0000
0000
0000
0000
0000
0000
0000
0000
0000
0000
0000
0000
0000
0000
0000
0000
0000
0000
0000
1000
0000
0000
0000
0000
0000
0000
0000
0000
0000
0000
0000
0000
0000
0000
0000
0000
0000
0000
0000
0000
0000
0000
0000
0100
0000
0000
0000
0000
0000
0000
0000
0000
0000
0000
0000
0000
0000
0000
0000
0000
0000
0000
0000
0000
0000
0000
0000
0000
0000
0000
0000
0000
0000
0000
0000
0000
0000
0000
0000
0000
0000
0000
0000
0000
0000
0010
0000
0000
0000
0000
0000
,
0000
0000
0000
0000
0000
0000
0000
0000
0001
0000
0000
0000
0000
0000
0000
0000
0000
0000
0000
0000
0000
2002
0000
0000
0000
0000
0000
0000
0000
0000
0000
0000
,
0000
0000
0000
0000
,
0000
0000
0000
0000
,
0000
0000
0000
0000
,
0000
0000
0000
0000
,
0000
0000
0000
0000
,
0000
0000
0000
3003
,
0000
0000
0000
0000
0000
0000
0000
0000
0000
0000
0000
1001
0000
0000
0000
0000
0000
0000
0000
0000
0000
0000
0000
0000
0000
0000
0000
0000
0000
0000
0000
0000
;
