#TITLE:Slam;
#SUBTITLE:;
#ARTIST:Pendulum;
#TITLETRANSLIT:;
#SUBTITLETRANSLIT:;
#ARTISTTRANSLIT:;
#CREDIT:;
#BANNER:slambn.png;
#BACKGROUND:slambg.png;
#LYRICSPATH:;
#CDTITLE:;
#MUSIC:slam.ogg;
#OFFSET:1.332;
#SAMPLESTART:41.435;
#SAMPLELENGTH:22.070;
#SELECTABLE:YES;
#BPMS:0.000=174.000;
#STOPS:;
#BGCHANGES:;
// cache tags:
#FIRSTBEAT:4.000;
#LASTBEAT:896.000;
#SONGFILENAME:Songs/Pendulum/Slam/slam.sm;
#HASMUSIC:1;
#HASBANNER:1;
#MUSICLENGTH:307.000;
// end cache tags

//---------------dance-single - I. Pyles----------------
#NOTES:
     dance-single:
     I. Pyles:
     Beginner:
     1:
     0.025,0.035,0.000,0.000,0.000,54.000,0.000,0.000,0.000,0.000:
0000
0000
0000
0000
,
0010
0000
0000
0000
,
0000
0000
0000
0000
,
0000
0000
0000
0000
,
0000
0000
0000
0000
,
0100
0000
0000
0000
,
0000
0000
0000
0000
,
0000
0000
0000
0000
,
0000
0000
0000
0000
,
0100
0000
0000
0000
,
0000
0000
0000
0000
,
0000
0000
0000
0000
,
0000
0000
0000
0000
,
0100
0000
0000
0000
,
0000
0000
0000
0000
,
0000
0000
0000
0000
,
0000
0000
0000
0000
,
0001
0000
0000
0000
,
0000
0000
0000
0000
,
0000
0000
0000
0000
,
0000
0000
0000
0000
,
0010
0000
0000
0000
,
0000
0000
0000
0000
,
0000
0000
0000
0000
,
0000
0000
0000
0000
,
1000
0000
0000
0000
,
0000
0000
0000
0000
,
0000
0000
0000
0000
,
0000
0000
0000
0000
,
1000
0000
0000
0000
,
0000
0000
0000
0000
,
0000
0000
0000
0000
,
0000
0000
0000
0000
,
1000
0000
0000
0000
,
0000
0000
0000
0000
,
0000
0000
0000
0000
,
0000
0000
0000
0000
,
0001
0000
0000
0000
,
0000
0000
0000
0000
,
0000
0000
0000
0000
,
0000
0000
0000
0000
,
0001
0000
0000
0000
,
0000
0000
0000
0000
,
0000
0000
0000
0000
,
0000
0000
0000
0000
,
1000
0000
0000
0000
,
0000
0000
0000
0000
,
0000
0000
0000
0000
,
0000
0000
0000
0000
,
0010
0000
0000
0000
,
0000
0000
0000
0000
,
0000
0000
0000
0000
,
0000
0000
0000
0000
,
0001
0000
0000
0000
,
0000
0000
0000
0000
,
0000
0000
0000
0000
,
0000
0000
0000
0000
,
0100
0000
0000
0000
,
0000
0000
0000
0000
,
0000
0000
0000
0000
,
0000
0000
0000
0000
,
0001
0000
0000
0000
,
0000
0000
0000
0000
,
0000
0000
0000
0000
,
0000
0000
0000
0000
,
0001
0000
0000
0000
,
0000
0000
0000
0000
,
0000
0000
0000
0000
,
0000
0000
0000
0000
,
0001
0000
0000
0000
,
0000
0000
0000
0000
,
0000
0000
0000
0000
,
0000
0000
0000
0000
,
1000
0000
0000
0000
,
0000
0000
0000
0000
,
0000
0000
0000
0000
,
0000
0000
0000
0000
,
0100
0000
0000
0000
,
0000
0000
0000
0000
,
0000
0000
0000
0000
,
0000
0000
0000
0000
,
1000
0000
0000
0000
,
0000
0000
0000
0000
,
0000
0000
0000
0000
,
0000
0000
0000
0000
,
0010
0000
0000
0000
,
0000
0000
0000
0000
,
0000
0000
0000
0000
,
0000
0000
0000
0000
,
0010
0000
0000
0000
,
0000
0000
0000
0000
,
0000
0000
0000
0000
,
0000
0000
0000
0000
,
0100
0000
0000
0000
,
0000
0000
0000
0000
,
0000
0000
0000
0000
,
0000
0000
0000
0000
,
0001
0000
0000
0000
,
0000
0000
0000
0000
,
0000
0000
0000
0000
,
0000
0000
0000
0000
,
1000
0000
0000
0000
,
0000
0000
0000
0000
,
0000
0000
0000
0000
,
0000
0000
0000
0000
,
1000
0000
0000
0000
,
0000
0000
0000
0000
,
0000
0000
0000
0000
,
0000
0000
0000
0000
,
1000
0000
0000
0000
,
0000
0000
0000
0000
,
0000
0000
0000
0000
,
0000
0000
0000
0000
,
1000
0000
0000
0000
,
0000
0000
0000
0000
,
0000
0000
0000
0000
,
0000
0000
0000
0000
,
0001
0000
0000
0000
,
0000
0000
0000
0000
,
0000
0000
0000
0000
,
0000
0000
0000
0000
,
0100
0000
0000
0000
,
0000
0000
0000
0000
,
0000
0000
0000
0000
,
0000
0000
0000
0000
,
1000
0000
0000
0000
,
0000
0000
0000
0000
,
0000
0000
0000
0000
,
0000
0000
0000
0000
,
0001
0000
0000
0000
,
0000
0000
0000
0000
,
0000
0000
0000
0000
,
0000
0000
0000
0000
,
0100
0000
0000
0000
,
0000
0000
0000
0000
,
0000
0000
0000
0000
,
0000
0000
0000
0000
,
0010
0000
0000
0000
,
0000
0000
0000
0000
,
0000
0000
0000
0000
,
0000
0000
0000
0000
,
0010
0000
0000
0000
,
0000
0000
0000
0000
,
0000
0000
0000
0000
,
0000
0000
0000
0000
,
1000
0000
0000
0000
,
0000
0000
0000
0000
,
0000
0000
0000
0000
,
0000
0000
0000
0000
,
0010
0000
0000
0000
,
0000
0000
0000
0000
,
0000
0000
0000
0000
,
0000
0000
0000
0000
,
0010
0000
0000
0000
,
0000
0000
0000
0000
,
0000
0000
0000
0000
,
0000
0000
0000
0000
,
1000
0000
0000
0000
,
0000
0000
0000
0000
,
0000
0000
0000
0000
,
0000
0000
0000
0000
,
0010
0000
0000
0000
,
0000
0000
0000
0000
,
0000
0000
0000
0000
,
0000
0000
0000
0000
,
0001
0000
0000
0000
,
0000
0000
0000
0000
,
0000
0000
0000
0000
,
0000
0000
0000
0000
,
1000
0000
0000
0000
,
0000
0000
0000
0000
,
0000
0000
0000
0000
,
0000
0000
0000
0000
,
0010
0000
0000
0000
,
0000
0000
0000
0000
,
0000
0000
0000
0000
,
0000
0000
0000
0000
,
0001
0000
0000
0000
,
0000
0000
0000
0000
,
0000
0000
0000
0000
,
0000
0000
0000
0000
,
0001
0000
0000
0000
,
0000
0000
0000
0000
,
0000
0000
0000
0000
,
0000
0000
0000
0000
,
0001
0000
0000
0000
,
0000
0000
0000
0000
,
0000
0000
0000
0000
,
0000
0000
0000
0000
,
1000
0000
0000
0000
,
0000
0000
0000
0000
,
0000
0000
0000
0000
,
0000
0000
0000
0000
,
0001
0000
0000
0000
,
0000
0000
0000
0000
,
0000
0000
0000
0000
,
0000
0000
0000
0000
,
0010
0000
0000
0000
,
0000
0000
0000
0000
,
0000
0000
0000
0000
,
0000
0000
0000
0000
,
0001
0000
0000
0000
,
0000
0000
0000
0000
,
0000
0000
0000
0000
,
0000
0000
0000
0000
,
0001
0000
0000
0000
,
0000
0000
0000
0000
,
0000
0000
0000
0000
,
0000
0000
0000
0000
,
1000
0000
0000
0000
,
0000
0000
0000
0000
,
0000
0000
0000
0000
,
0000
0000
0000
0000
,
0010
0000
0000
0000
;

//---------------dance-single - I. Pyles----------------
#NOTES:
     dance-single:
     I. Pyles:
     Easy:
     10:
     0.794,0.876,0.251,0.958,0.202,1326.000,77.000,294.000,88.000,1.000:
0000
0000
0000
0000
,
1002
0000
0103
0010
1000
0001
0020
0001
,
0030
0000
0011
0010
0001
1000
0MM0
0001
,
2001
0000
3100
0010
0001
1000
0020
1000
,
0030
0000
1010
0000
0010
1000
0000
0001
,
1002
0000
0000
0000
0103
0000
0010
0000
1000
0000
0001
0000
0020
0000
0100
0030
,
2000
0000
001M
0000
3002
0000
0000
1003
,
2001
0000
0000
0000
3100
0000
0010
0000
0001
0000
1000
0000
0020
0000
0100
0030
,
0002
0000
M010
0000
2003
0000
0000
3000
,
1001
0000
0002
0103
0020
1030
0200
1300
,
0002
0000
1103
1000
0001
1000
0MM0
0001
,
1001
0000
2000
3010
0200
0301
0020
0130
,
2000
0000
00M1
3000
0020
0000
0000
0130
,
2001
0000
0000
0000
3010
0000
0100
0000
0001
0000
1000
0000
0200
0000
0010
0300
,
0002
0000
M100
0000
2003
0000
0000
3001
,
1002
0000
0000
0000
0013
0000
0100
0000
1000
0000
0001
0000
0200
0000
0010
0300
,
2000
0000
010M
0000
3002
0000
0000
0003
,
2MMM
0000
0000
0000
0000
0000
0000
0000
0010
0000
0000
0000
0000
0000
0000
0000
0010
0000
0000
0000
0000
0000
0000
0000
0010
0000
0000
0000
0000
0000
0000
3000
,
M010
1000
0001
1000
,
0002
0000
0000
0000
0000
0000
0000
0000
0010
0000
0000
0000
0000
0000
0000
0000
0010
0000
0000
0000
0000
0000
0000
0000
0010
0000
0000
0000
0000
0000
0000
0003
,
001M
0001
1000
0001
,
2000
0000
0000
0000
0000
0000
0000
0000
0010
0000
0000
0000
0000
0000
0000
0000
0010
0000
0000
0000
0000
0000
0000
0000
0010
0000
0000
0000
0000
0000
0000
3000
,
M010
1000
0001
1000
,
0002
0000
0000
0000
0000
0000
0000
0000
0010
0000
0000
0000
0000
0000
0000
0000
0010
0000
0000
0000
0000
0000
0000
0000
0010
0000
0000
0000
0000
0000
0000
0003
,
001M
0000
0000
0000
0200
0300
0000
0000
0020
0000
0030
0000
0002
0000
0000
0003
,
2000
0000
0000
0000
0000
0000
0000
0000
0010
0000
0000
0000
0000
0000
0000
0000
0010
0000
0000
0000
0000
0000
0000
0000
0010
0000
0000
0000
0000
0000
0000
3000
,
M010
1000
0001
1000
,
0002
0000
0000
0000
0000
0000
0000
0000
0010
0000
0000
0000
0000
0000
0000
0000
0010
0000
0000
0000
0000
0000
0000
0000
0010
0000
0000
0000
0000
0000
0000
0003
,
001M
0000
0000
0000
0200
0300
0000
0000
0020
0000
0030
0000
0002
0000
0000
0003
,
1000
0100
1000
0001
1000
0100
0010
0001
,
0100
0010
0100
0001
0100
0010
1000
0001
,
1000
0001
1000
0000
0100
0000
0010
0000
0001
1000
0001
0000
0100
0000
0010
0000
,
1000
0001
1000
0000
0001
1000
0001
1000
0001
0000
0010
0000
0010
0000
0100
0000
,
2100
0000
0000
3000
1001
0000
0000
0000
0102
0000
0100
0003
0020
0000
0030
0000
,
2010
3000
1001
0000
0002
0013
0001
0020
,
0000
0000
0230
0000
0310
0001
0011
0000
,
1001
0000
0000
0000
0001
0000
0100
0010
2000
0000
0000
0000
3020
0000
0000
0030
,
0102
0000
0000
0003
1001
0000
0000
0000
2100
0000
0100
3000
0020
0000
0030
0000
,
0012
0003
1001
0000
2000
3010
1000
0020
,
0000
0000
0230
0000
0310
1000
1010
0000
,
1001
0000
0000
0000
1000
0000
0100
0010
0002
0000
0000
0000
0023
0000
0000
0000
,
0130
1000
0010
0100
0010
1000
0010
0100
,
0010
1000
0010
0100
0010
1000
0001
0010
,
0100
1000
0100
0010
0100
1000
0100
0010
,
0100
0000
1000
0000
0100
0000
1000
0001
1000
0000
0001
0000
1000
0000
0010
0000
,
0100
0001
0010
0001
0100
0001
0010
0001
,
0100
0001
0010
0001
0100
0001
1000
0100
,
1000
0001
1000
0000
0010
0000
0100
0000
0001
1000
0001
0000
0010
0000
0100
0000
,
1000
0001
1000
0000
0001
1000
0001
1000
0001
0000
1000
0000
0001
0000
0000
0000
,
2100
0000
0000
3000
1001
0000
0000
0000
0102
0000
0100
0003
0020
0000
0030
0000
,
2010
3000
1001
0000
0002
0013
0001
0020
,
0000
0000
0230
0000
0310
0001
0011
0000
,
1001
0000
0000
0000
0001
0000
0100
0010
2000
0000
0000
0000
3020
0000
0000
0030
,
0102
0000
0000
0003
1001
0000
0000
0000
2100
0000
0100
3000
0020
0000
0030
0000
,
0012
0003
1001
0000
2000
3010
1000
0020
,
0000
0000
0230
0000
0310
1000
1010
0000
,
1001
0000
0000
0000
1000
0000
0100
0010
0002
0000
0000
0000
0023
0000
0000
0000
,
0130
1000
0010
0100
0010
1000
0010
0100
,
0010
1000
0010
0100
0010
1000
0001
0010
,
0100
1000
0100
0010
0100
1000
0100
0010
,
0100
0000
1000
0000
0100
0000
1000
0001
1000
0000
0001
0000
1000
0000
0010
0000
,
0100
0001
0010
0001
0100
0001
0010
0001
,
0100
0001
0010
0001
0100
0001
1000
0100
,
1000
0001
1000
0000
0010
0000
0100
0000
0001
1000
0001
0000
0010
0000
0100
0000
,
1000
0001
1000
0000
0001
1000
0001
1000
0001
0000
1000
0000
0001
0000
0000
0000
,
1000
0001
1000
0100
0010
0001
0100
0010
,
0000
0100
0010
1000
0001
0010
0100
0000
,
1000
0001
1000
0010
0100
0001
0010
0100
,
0000
0000
0010
0000
0100
0000
1000
0001
1000
0000
0010
0000
0100
0000
0000
0000
,
0001
1000
0001
0010
0100
1000
0010
0100
,
0000
0010
0100
0001
1000
0100
0010
0000
,
0001
1000
0001
0100
0010
1000
0100
0010
,
0000
0000
0100
0000
0010
0000
0001
1000
0001
0000
0100
0000
0010
0000
0000
0000
,
1000
0001
1000
0100
0010
0001
0100
0010
,
0000
0100
0010
1000
0001
0010
0100
0000
,
1000
0001
1000
0010
0100
0001
0010
0100
,
0000
0000
0010
0000
0100
0000
1000
0001
1000
0000
0010
0000
0100
0000
0000
0000
,
0001
1000
0001
0010
0100
1000
0010
0100
,
0000
0010
0100
0001
1000
0100
0010
0000
,
0001
1000
0001
0000
0100
0000
0010
0000
1000
0001
1000
0000
0100
0000
0010
0000
,
0001
1000
0001
0000
1000
0001
1000
0001
1000
0000
0001
0000
1000
0000
0000
0000
,
1001
0001
1000
0100
0010
0001
0100
0020
,
0000
0000
0130
0000
0010
0000
0100
0000
0001
0000
0010
0000
0200
0000
0000
0300
,
1001
0001
1000
0010
0100
0001
0010
0200
,
0000
0000
0310
0000
0100
0000
0010
0001
1000
0000
0010
0000
0200
0000
0000
0300
,
1001
1000
0001
0010
0100
1000
0010
0200
,
0000
0000
0310
0000
0100
0000
0010
0000
1000
0000
0100
0000
0020
0000
0000
0030
,
1001
1000
0001
0100
0010
1000
0100
0020
,
0000
0000
0130
0000
0010
0000
0100
1000
0001
0000
0100
0000
0020
0000
0000
0030
,
1001
0001
1000
0100
0010
0001
0100
0020
,
0000
0000
0130
0000
0010
0000
0100
0000
0001
0000
0010
0000
0200
0000
0000
0300
,
1001
0001
1000
0010
0100
0001
0010
0200
,
0000
0000
0310
0000
0100
0000
0010
0001
1000
0000
0010
0000
0200
0000
0000
0300
,
1001
1000
0001
0010
0100
1000
0010
0200
,
0000
0000
0310
0000
0100
0000
0010
0000
1000
0000
0100
0000
0020
0000
0000
0030
,
0001
1000
0001
0000
0100
0000
0010
0000
1000
0001
1000
0000
0100
0000
0010
0000
,
0001
1000
0001
0000
1000
0001
1000
0001
1000
0000
0001
0000
1000
0000
0000
0000
,
0200
0000
0320
0000
0130
2000
0000
3010
,
0200
0000
0320
0000
0130
0002
0000
0003
,
2000
0000
0010
3000
2000
0000
0010
3000
0200
0000
0000
0000
0301
0000
0020
0000
,
0000
0230
0000
0000
0320
0000
0032
0000
,
2003
0001
0001
0001
,
0020
3000
0000
0000
0100
0000
0000
0000
0100
0000
0000
0000
0100
0000
0000
0000
,
2000
0030
0000
0000
0001
0000
0000
0000
0001
0000
0000
0000
0001
0000
0000
0000
,
0020
3000
0000
0000
0100
0000
0000
0000
0100
0000
0000
0000
0100
0000
0030
0000
,
2000
0000
0100
3000
2000
0000
0100
3000
0010
0000
0002
0000
0000
0000
2003
0000
,
3002
0000
0100
0003
0002
0000
0100
0003
0010
0000
2000
0000
0000
0000
3000
0000
,
0002
0000
0010
0003
0002
0000
0010
0003
0200
0000
0000
0000
1300
0000
0020
0000
,
0000
0230
0000
0000
0320
0000
2030
0000
,
3002
1000
1000
1000
,
0020
0003
0000
0000
0100
0000
0000
0000
0100
0000
0000
0000
0100
0000
0000
0000
,
0031
1000
0001
0000
0100
0000
0010
0000
1000
0001
1000
0000
0100
0000
0010
0000
,
0001
1000
0001
0000
1000
0001
1000
0001
1000
0000
0001
0000
1000
0000
0000
0000
,
0100
1000
0001
1000
0100
1000
0001
1000
,
0100
0000
1000
0000
0001
0000
1000
0000
0100
0000
1000
0000
0020
0000
0000
0030
,
0100
0001
1000
0001
0100
0001
1000
0001
,
0020
0000
0230
0000
2300
0000
3002
0000
0203
0000
0000
0000
0320
0000
0000
0030
,
1001
0000
0000
0000
0004
0000
0000
0003
0000
0000
0000
0000
0100
0000
0000
0000
0001
0000
0000
0000
0000
0000
0000
0000
1000
0000
0000
0000
0100
0000
0000
0000
,
0010
0000
0000
0000
0400
0000
0000
0300
0000
0000
0000
0000
4000
0000
0000
3000
0000
0000
0000
0000
0001
0000
0000
0000
1000
0000
0000
0000
0000
0000
0000
0000
,
1001
0000
0000
0000
4000
0000
0000
3000
0000
0000
0000
0000
0010
0000
0000
0000
1000
0000
0000
0000
0000
0000
0000
0000
0001
0000
0000
0000
0010
0000
0000
0000
,
0100
0000
0000
0000
0040
0000
0000
0030
0000
0000
0000
0000
0004
0000
0100
0003
0010
0000
0000
0000
1000
0000
0000
0000
0010
0000
0000
0000
0000
0000
0000
0000
,
0100
0001
1000
0001
0100
0001
1000
0001
,
0100
0000
0001
0000
1000
0000
0001
0000
0100
0000
0001
0000
0020
0000
0000
0030
,
0100
1000
0001
1000
0100
1000
0001
1000
,
0020
0000
0230
0000
0302
0000
2003
0000
3200
0000
0000
0000
0320
0000
0000
0030
,
1001
0000
0000
0000
0004
0000
0000
0003
0000
0000
0000
0000
0010
0000
0000
0000
0001
0000
0000
0000
0000
0000
0000
0000
1000
0000
0000
0000
0010
0000
0000
0000
,
0100
0000
0000
0000
0040
0000
0000
0030
0000
0000
0000
0000
4000
0000
0000
3000
0000
0000
0000
0000
0001
0000
0000
0000
1000
0000
0000
0000
0000
0000
0000
0000
,
0001
1000
0001
0000
0100
0000
0010
0000
1000
0001
1000
0000
0100
0000
0010
0000
,
0001
1000
0001
0000
1000
0001
1000
0001
1000
0000
0001
0000
1000
0000
0000
0000
,
MMM1
0000
0100
0000
0001
0000
0100
0020
,
0000
2030
0000
3020
0100
0030
0001
2000
,
0000
3200
0000
2300
0001
3000
0100
0020
,
0000
2030
0000
3020
0100
0030
0001
0020
,
0000
0230
0000
0320
0001
0030
1000
0002
,
0000
0203
0000
0302
1000
0003
0100
0020
,
0000
0032
0000
0203
0010
0300
1000
0020
,
0000
0230
0000
0302
1000
0003
0001
0000
,
2000
0000
0000
0000
0000
0000
0000
0000
0010
0000
0000
0000
0000
0000
0000
0000
0010
0000
0000
0000
0000
0000
0000
0000
0010
0000
0000
0000
0000
0000
0000
3000
,
M010
1000
0001
1000
,
0002
0000
0000
0000
0000
0000
0000
0000
0010
0000
0000
0000
0000
0000
0000
0000
0010
0000
0000
0000
0000
0000
0000
0000
0010
0000
0000
0000
0000
0000
0000
0003
,
001M
0000
0000
0000
0200
0300
0000
0000
0020
0000
0030
0000
0002
0000
0000
0003
,
2000
0000
0000
0000
0000
0000
0000
0000
0010
0000
0000
0000
0000
0000
0000
0000
0010
0000
0000
0000
0000
0000
0000
0000
0010
0000
0000
0000
0000
0000
0000
3000
,
M010
1000
0001
1000
,
0001
1000
0001
0000
0100
0000
0010
0000
1000
0001
1000
0000
0100
0000
0010
0000
,
0001
1000
0001
0000
1000
0001
1000
0001
1000
0000
0010
0000
0010
0000
0100
0000
,
0102
0000
0000
0003
1001
0000
0000
0000
2100
0000
0100
3000
0020
0000
0030
0000
,
0012
0003
1001
0000
2000
3010
1000
0020
,
0000
0000
0230
0000
0310
1000
1010
0000
,
1001
0000
0000
0000
1000
0000
0100
0010
0002
0000
0000
0000
0023
0000
0000
0030
,
2100
0000
0000
3000
1001
0000
0000
0000
0102
0000
0100
0003
0020
0000
0030
0000
,
2010
3000
1001
0000
0002
0013
0001
0020
,
0000
0000
0230
0000
0310
0001
0011
0000
,
1001
0000
0000
0000
0001
0000
0100
0010
2000
0000
0000
0000
3020
0000
0000
0030
,
0100
0001
0010
0100
0010
0001
0010
0100
,
0010
0001
0010
0100
0010
0001
1000
0010
,
0100
0001
0100
0010
0100
0001
0100
0010
,
0100
0000
0001
0000
0100
0000
0001
1000
0001
0000
1000
0000
0001
0000
0010
0000
,
0100
1000
0010
1000
0100
1000
0010
1000
,
0100
1000
0010
1000
0100
1000
0001
0100
,
0001
1000
0001
0000
0100
0000
0010
0000
1000
0001
1000
0000
0100
0000
0010
0000
,
0001
1000
0001
0000
1000
0001
1000
0001
1000
0000
0001
0000
1000
0000
0000
0000
,
0102
0000
0000
0003
1001
0000
0000
0000
2100
0000
0100
3000
0020
0000
0030
0000
,
0012
0003
1001
0000
2000
3010
1000
0020
,
0000
0000
0230
0000
0310
1000
1010
0000
,
1001
0000
0000
0000
1000
0000
0100
0010
0002
0000
0000
0000
0023
0000
0000
0030
,
2100
0000
0000
3000
1001
0000
0000
0000
0102
0000
0100
0003
0020
0000
0030
0000
,
2010
3000
1001
0000
0002
0013
0001
0020
,
0000
0000
0230
0000
0310
0001
0011
0000
,
1001
0000
0000
0000
0001
0000
0100
0010
2000
0000
0000
0000
3020
0000
0000
0030
,
0100
0001
0010
0100
0010
0001
0010
0100
,
0010
0001
0010
0100
0010
0001
1000
0010
,
0100
0001
0100
0010
0100
0001
0100
0010
,
0100
0000
0001
0000
0100
0000
0001
1000
0001
0000
1000
0000
0001
0000
0010
0000
,
0100
1000
0010
1000
0100
1000
0010
1000
,
0100
1000
0010
1000
0100
1000
0001
0100
,
0001
1000
0001
0000
0100
0000
0010
0000
1000
0001
1000
0000
0100
0000
0010
0000
,
0001
1000
0001
0000
1000
0001
1000
0001
1000
0000
0001
0000
1000
0000
0000
0000
,
0002
0000
0100
0003
0002
0000
0100
0003
0010
0000
2000
0000
0000
0000
3002
0000
,
2003
0000
0100
3000
0020
0000
0100
0030
1000
0000
0002
0000
0000
0000
0003
0000
,
2000
0000
0010
3000
2000
0000
0010
3000
0200
0000
0000
0000
0301
0000
0020
0000
,
0000
0230
0000
0000
0320
0000
0032
0000
,
2003
0000
3020
0000
,
0000
0000
0230
0000
,
0320
0000
2030
0000
,
3200
0000
0320
0000
,
0032
0000
0010
0003
0002
0000
0010
0003
0100
0000
2000
0000
0000
0000
3002
0000
,
2003
0000
0010
3000
2000
0000
0010
3000
0100
0000
0002
0000
0000
0000
0003
0000
,
2000
0000
0100
3000
2000
0000
0100
3000
0020
0000
0000
0000
0031
0000
0200
0000
,
0000
0320
0000
0000
0230
0000
0302
0000
,
2003
0001
0001
0001
,
0200
3000
0000
0000
0010
0000
0000
0000
0010
0000
0000
0000
0010
0000
0000
0000
,
1300
0001
1000
0000
0010
0000
0100
0000
0001
1000
0001
0000
0010
0000
0100
0000
,
1000
0001
1000
0000
0001
1000
0001
1000
0001
0000
1000
0000
0001
0000
0000
0000
,
0000
0000
2000
0000
3002
0000
0100
0003
0020
0000
1000
0030
0020
0000
1000
0030
,
0001
0000
0020
0000
0000
0000
0130
0000
2000
0000
0001
3000
2000
0000
0001
3000
,
0100
0020
0000
0000
2030
0000
3001
0020
,
0000
0130
2000
0000
3020
0000
0230
0000
,
0302
0000
0203
0000
,
0000
0000
0320
0000
,
0230
0000
0302
0000
,
0023
0000
0230
0000
,
2300
0000
0100
3000
2000
0000
0100
3000
0010
0000
0002
0000
0000
0000
2003
0000
,
3002
0000
0100
0003
0002
0000
0100
0003
0010
0000
2000
0000
0000
0000
3000
0000
,
0002
0000
0010
0003
0002
0000
0010
0003
0200
0000
0000
0000
1300
0000
0020
0000
,
0000
0230
0000
0000
0320
0000
2030
0000
,
3002
1000
1000
1000
,
0020
0003
0000
0000
0100
0000
0000
0000
0100
0000
0000
0000
0100
0000
0000
0000
,
0031
1000
0001
0000
0100
0000
0010
0000
1000
0001
1000
0000
0100
0000
0010
0000
,
0001
1000
0001
0000
1000
0001
1000
0001
1000
0000
0001
0000
1000
0000
0000
0000
,
0000
0000
0002
0000
2003
0000
0010
3000
0200
0000
0001
0300
0200
0000
0001
0300
,
1000
0000
0200
0000
0000
0000
0310
0000
0002
0000
1000
0003
0002
0000
1000
0003
,
0010
0200
0000
0000
0302
0000
1003
0200
,
0000
0310
0002
0000
0203
0000
0320
0000
,
2030
0000
3020
0000
,
0000
0000
0230
0000
,
0320
0000
2030
0000
,
3200
0000
0320
0000
,
003M
00M0
0M00
M000
000M
0M00
000M
00M0
0M00
M000
000M
0M00
,
000M
00M0
0M00
M000
000M
0M00
000M
00M0
0M00
M000
000M
0M00
,
000M
00M0
0M00
M000
000M
0M00
000M
00M0
0M00
M000
000M
0M00
,
000M
00M0
0M00
M000
000M
0M00
000M
00M0
0M00
M000
000M
0M00
,
0000
0000
0000
0000
0000
0000
0M00
0000
0000
0000
0000
0000
0000
0000
0000
000M
,
0000
000M
0000
0000
0000
0000
00M0
0000
0M00
0000
00M0
0000
00M0
0000
0000
0000
,
M000
0000
0000
0000
000M
0M00
0000
0000
0000
000M
M000
0000
0000
0000
0000
0000
,
MMMM
0000
0000
0000
;

//---------------dance-single - I. Pyles----------------
#NOTES:
     dance-single:
     I. Pyles:
     Medium:
     11:
     0.848,0.912,0.355,0.958,0.339,1410.000,109.000,294.000,88.000,1.000:
0000
0000
0000
0000
,
1002
0000
0103
0010
1000
0001
0020
0001
,
0030
0000
0011
0010
0001
1000
0MM0
0001
,
2001
0000
3100
0010
0001
1000
0020
1000
,
0030
0000
1010
0000
0010
1000
0000
0001
,
1002
0000
0000
0000
0103
0000
0010
0000
1000
0000
0001
0000
0020
0000
0100
0030
,
2000
0000
001M
0000
3002
0000
0000
1003
,
2001
0000
0000
0000
3100
0000
0010
0000
0001
0000
1000
0000
0020
0000
0100
0030
,
0002
0000
M010
0000
2003
0000
0000
3000
,
1001
0000
0002
0103
0020
1030
0200
1300
,
0002
0000
1103
1000
0001
1000
0MM0
0001
,
1001
0000
2000
3010
0200
0301
0020
0130
,
2000
0000
00M1
3000
0020
0000
0000
0130
,
2001
0000
0000
0000
3010
0000
0100
0000
0001
0000
1000
0000
0200
0000
0010
0300
,
0002
0000
M100
0000
2003
0000
0000
3001
,
1002
0000
0000
0000
0013
0000
0100
0000
1000
0000
0001
0000
0200
0000
0010
0300
,
2000
0000
010M
0000
3002
0000
0000
0003
,
2MMM
0000
0000
0000
0000
0000
0000
0000
0010
0000
0000
0000
0000
0000
0000
0000
0010
0000
0000
0000
0000
0000
0000
0000
0010
0000
0000
0000
0000
0000
0000
3000
,
M010
1000
0001
1000
,
0002
0000
0000
0000
0000
0000
0000
0000
0010
0000
0000
0000
0000
0000
0000
0000
0010
0000
0000
0000
0000
0000
0000
0000
0010
0000
0000
0000
0000
0000
0000
0003
,
001M
0001
1000
0001
,
2000
0000
0000
0000
0000
0000
0000
0000
0010
0000
0000
0000
0000
0000
0000
0000
0010
0000
0000
0000
0000
0000
0000
0000
0010
0000
0000
0000
0000
0000
0000
3000
,
M010
1000
0001
1000
,
0002
0000
0000
0000
0000
0000
0000
0000
0010
0000
0000
0000
0000
0000
0000
0000
0010
0000
0000
0000
0000
0000
0000
0000
0010
0000
0000
0000
0000
0000
0000
0003
,
001M
0000
0000
0000
0200
0300
0000
0000
0020
0000
0030
0000
0002
0000
0000
0003
,
2000
0000
0000
0000
0000
0000
0000
0000
0010
0000
0000
0000
0000
0000
0000
0000
0010
0000
0000
0000
0000
0000
0000
0000
0010
0000
0000
0000
0000
0000
0000
3000
,
M010
1000
0001
1000
,
0002
0000
0000
0000
0000
0000
0000
0000
0010
0000
0000
0000
0000
0000
0000
0000
0010
0000
0000
0000
0000
0000
0000
0000
0010
0000
0000
0000
0000
0000
0000
0003
,
001M
0000
0000
0000
0200
0300
0000
0000
0020
0000
0030
0000
0002
0000
0000
0003
,
1000
0100
1000
0001
1000
0100
0010
0001
,
0100
0010
0100
0001
0100
0010
1000
0001
,
0010
0100
1000
0001
0100
0010
1000
0001
0010
0100
1000
0001
0100
0010
1000
0001
,
0010
0100
1000
0001
0100
0010
1000
0001
0010
0000
0010
0000
0100
0000
0100
0000
,
2100
0000
0000
3000
1001
0000
0000
0000
0102
0000
0100
0003
0020
0000
0030
0000
,
2010
3000
1001
0000
0002
0013
0011
0020
,
0000
0000
0230
0000
0310
0010
0011
0000
,
1001
0000
0000
0000
0001
0000
0100
0010
2000
0000
0000
0000
3020
0000
0000
0030
,
0102
0000
0000
0003
1001
0000
0000
0000
2100
0000
0100
3000
0020
0000
0030
0000
,
0012
0003
1001
0000
2000
3010
1010
0020
,
0000
0000
0230
0000
0310
0010
1010
0000
,
1001
0000
0000
0000
1000
0000
0100
0010
0002
0000
0000
0000
0023
0000
0000
0000
,
0130
1000
0010
0100
0010
1000
0010
0100
,
0010
1000
0010
0100
0010
1000
0001
0010
,
0100
1000
0100
0010
0100
1000
0100
0010
,
0100
0000
1000
0000
0100
0000
1000
0001
1000
0000
0001
0000
1000
0000
0010
0000
,
0100
0001
0010
0001
0100
0001
0010
0001
,
0100
0001
0010
0001
0100
0001
1000
0100
,
0010
0100
1000
0001
0100
0010
1000
0001
0010
0100
1000
0001
0100
0010
1000
0001
,
0010
0100
1000
0001
0100
0010
1000
0001
0010
0000
0100
0000
1000
0000
0000
0000
,
0012
0000
0000
0003
1001
0000
0000
0000
2010
0000
0010
3000
0200
0000
0300
0000
,
0102
0003
1001
0000
2000
3100
1100
0200
,
0000
0000
0320
0000
0130
0100
1100
0000
,
1001
0000
0000
0000
1000
0000
0010
0100
0002
0000
0000
0000
0203
0000
0000
0300
,
2010
0000
0000
3000
1001
0000
0000
0000
0012
0000
0010
0003
0200
0000
0300
0000
,
2100
3000
1001
0000
0002
0103
0101
0200
,
0000
0000
0320
0000
0130
0100
0101
0000
,
1001
0000
0000
0000
0001
0000
0010
0100
2000
0000
0000
0000
3200
0000
0000
0000
,
0310
0001
0100
0010
0100
0001
0100
0010
,
0100
0001
0100
0010
0100
0001
1000
0100
,
0010
0001
0010
0100
0010
0001
0010
0100
,
0010
0000
0001
0000
0010
0000
0001
1000
0001
0000
1000
0000
0001
0000
0100
0000
,
0010
1000
0100
1000
0010
1000
0100
1000
,
0010
1000
0100
1000
0010
1000
0001
0010
,
0100
0010
0001
1000
0010
0100
0001
1000
0100
0010
0001
1000
0010
0100
0001
1000
,
0100
0010
0001
1000
0010
0100
0001
1000
0100
0000
0010
0000
0001
0000
0000
0000
,
1000
0001
1000
0100
0010
0001
0100
0010
,
0000
0100
0010
1000
0001
0010
0100
0000
,
1000
0001
1000
0010
0100
0001
0010
0100
,
0000
0000
0010
0000
0100
0000
1000
0001
1000
0000
0010
0000
0100
0000
0000
0000
,
0001
1000
0001
0010
0100
1000
0010
0100
,
0000
0010
0100
0001
1000
0100
0010
0000
,
0001
1000
0001
0100
0010
1000
0100
0010
,
0000
0000
0100
0000
0010
0000
0001
1000
0001
0000
0100
0000
0010
0000
0000
0000
,
1000
0001
1000
0100
0010
0001
0100
0010
,
0000
0100
0010
1000
0001
0010
0100
0000
,
1000
0001
1000
0010
0100
0001
0010
0100
,
0000
0000
0010
0000
0100
0000
1000
0001
1000
0000
0010
0000
0100
0000
0000
0000
,
0001
1000
0001
0010
0100
1000
0010
0100
,
0000
0010
0100
0001
1000
0100
0010
0000
,
0100
0010
0001
1000
0010
0100
0001
1000
0100
0010
0001
1000
0010
0100
0001
1000
,
0100
0010
0001
1000
0010
0100
0001
1000
0100
0000
0010
0000
0001
0000
0000
0000
,
1001
0001
1000
0100
0010
0001
0100
0020
,
0000
0000
0130
0000
0110
0000
0100
0000
0001
0000
0010
0000
0200
0000
0000
0300
,
1001
0001
1000
0010
0100
0001
0010
0200
,
0000
0000
0310
0000
0110
0000
0010
0001
1000
0000
0010
0000
0200
0000
0000
0300
,
1001
1000
0001
0010
0100
1000
0010
0200
,
0000
0000
0310
0000
0110
0000
0010
0000
1000
0000
0100
0000
0020
0000
0000
0030
,
1001
1000
0001
0100
0010
1000
0100
0020
,
0000
0000
0130
0000
0110
0000
0100
1000
0001
0000
0100
0000
0020
0000
0000
0030
,
1001
0001
1000
0100
0010
0001
0100
0020
,
0000
0000
0130
0000
0110
0000
0100
0000
0001
0000
0010
0000
0200
0000
0000
0300
,
1001
0001
1000
0010
0100
0001
0010
0200
,
0000
0000
0310
0000
0110
0000
0010
0001
1000
0000
0010
0000
0200
0000
0000
0300
,
1001
1000
0001
0010
0100
1000
0010
0200
,
0000
0000
0310
0000
0110
0000
0010
0000
1000
0000
0100
0000
0020
0000
0000
0030
,
0100
0010
0001
1000
0010
0100
0001
1000
0100
0010
0001
1000
0010
0100
0001
1000
,
0100
0010
0001
1000
0010
0100
0001
1000
0100
0000
0010
0000
0001
0000
0000
0000
,
0020
0000
0230
0000
0310
0002
0000
0103
,
0020
0000
0230
0000
0310
2000
0000
3000
,
0002
0000
0100
0003
0002
0000
0100
0003
0020
0000
0000
0000
1030
0000
0200
0000
,
0000
0320
0000
0000
0230
0000
2300
0000
,
3002
1000
1000
1000
,
0200
0003
0000
0000
0010
0000
0000
0000
0010
0000
0000
0000
0010
0000
0000
0000
,
0002
0300
0000
0000
1000
0000
0000
0000
1000
0000
0000
0000
1000
0000
0000
0000
,
0200
0003
0000
0000
0010
0000
0000
0000
0010
0000
0000
0000
0010
0000
0300
0000
,
0002
0000
0010
0003
0002
0000
0010
0003
0100
0000
2000
0000
0000
0000
3002
0000
,
2003
0000
0010
3000
2000
0000
0010
3000
0100
0000
0002
0000
0000
0000
0003
0000
,
2000
0000
0100
3000
2000
0000
0100
3000
0020
0000
0000
0000
0031
0000
0200
0000
,
0000
0320
0000
0000
0230
0000
0302
0000
,
2003
0001
0001
0001
,
0200
3000
0000
0000
0010
0000
0000
0000
0010
0000
0000
0000
0010
0000
0000
0000
,
1300
0001
0010
0100
1000
0001
0100
0010
1000
0001
0010
0100
1000
0001
0100
0010
,
1000
0001
0010
0100
1000
0001
0100
0010
1000
0000
0001
0000
0010
0000
0000
0000
,
1100
1000
0001
1000
1100
1000
0001
1000
,
1100
0000
1000
0000
0001
0000
1000
0000
1100
0000
1000
0000
0020
0000
0000
0030
,
0101
0001
1000
0001
0101
0001
1000
0001
,
0020
0000
0230
0000
2300
0000
3002
0000
0203
0000
0000
0000
0320
0000
0000
0030
,
1001
0000
0000
0000
0004
0000
0000
0003
0000
0000
0000
0000
0100
0000
0000
0000
0001
0000
0000
0000
0000
0000
0000
0000
1000
0000
0000
0000
0100
0000
0000
0000
,
0110
0000
0000
0000
0400
0000
0000
0300
0000
0000
0000
0000
4000
0000
0000
3000
0000
0000
0000
0000
1001
0000
0000
0000
0001
0000
0000
0000
0000
0000
0000
0000
,
1001
0000
0000
0000
4000
0000
0000
3000
0000
0000
0000
0000
0010
0000
0000
0000
1000
0000
0000
0000
0000
0000
0000
0000
0001
0000
0000
0000
0010
0000
0000
0000
,
0110
0000
0000
0000
0040
0000
0000
0030
0000
0000
0000
0000
0004
0000
0100
0003
0010
0000
0000
0000
1000
0000
0000
0000
0010
0000
0000
0000
0000
0000
0000
0000
,
0101
0001
1000
0001
0101
0001
1000
0001
,
0101
0000
0001
0000
1000
0000
0001
0000
0101
0000
0001
0000
0020
0000
0000
0030
,
1100
1000
0001
1000
1100
1000
0001
1000
,
0020
0000
0230
0000
0302
0000
2003
0000
3200
0000
0000
0000
0320
0000
0000
0030
,
1001
0000
0000
0000
4000
0000
0000
3000
0000
0000
0000
0000
0100
0000
0000
0000
1000
0000
0000
0000
0000
0000
0000
0000
0001
0000
0000
0000
0100
0000
0000
0000
,
0110
0000
0000
0000
0400
0000
0000
0300
0000
0000
0000
0000
0004
0000
0000
0003
0000
0000
0000
0000
1001
0000
0000
0000
0001
0000
0000
0000
0000
0000
0000
0000
,
0010
0100
1000
0001
0100
0010
1000
0001
0010
0100
1000
0001
0100
0010
1000
0001
,
0010
0100
1000
0001
0100
0010
1000
0001
0010
0000
0100
0000
1000
0000
0000
0000
,
MMM1
0000
0100
0000
0001
0000
0100
0020
,
0000
2030
0000
3020
0100
0030
0001
2000
,
0000
3200
0000
2300
0001
3000
0100
0020
,
0000
2030
0000
3020
0100
0030
0001
0020
,
0000
0230
0000
0320
0001
0030
1000
0002
,
0000
0203
0000
0302
1000
0003
0100
0020
,
0000
0032
0000
0203
0010
0300
1000
0020
,
0000
0230
0000
0302
1000
0003
0001
0000
,
2000
0000
0000
0000
0000
0000
0000
0000
0010
0000
0000
0000
0000
0000
0000
0000
0010
0000
0000
0000
0000
0000
0000
0000
0010
0000
0000
0000
0000
0000
0000
3000
,
M010
1000
0001
1000
,
0002
0000
0000
0000
0000
0000
0000
0000
0010
0000
0000
0000
0000
0000
0000
0000
0010
0000
0000
0000
0000
0000
0000
0000
0010
0000
0000
0000
0000
0000
0000
0003
,
001M
0000
0000
0000
0200
0300
0000
0000
0020
0000
0030
0000
0002
0000
0000
0003
,
2000
0000
0000
0000
0000
0000
0000
0000
0010
0000
0000
0000
0000
0000
0000
0000
0010
0000
0000
0000
0000
0000
0000
0000
0010
0000
0000
0000
0000
0000
0000
3000
,
M010
1000
0001
1000
,
0010
1000
0001
0010
0100
1000
0001
0100
0010
1000
0001
0010
0100
1000
0001
0100
,
0010
1000
0001
0010
0100
1000
0001
0100
0010
0000
0010
0000
0100
0000
0100
0000
,
0102
0000
0000
0003
1001
0000
0000
0000
2100
0000
0100
3000
0020
0000
0030
0000
,
0012
0003
1001
0000
2000
3010
1010
0020
,
0000
0000
0230
0000
0310
0010
1010
0000
,
1001
0000
0000
0000
1000
0000
0100
0010
0002
0000
0000
0000
0023
0000
0000
0030
,
2100
0000
0000
3000
1001
0000
0000
0000
0102
0000
0100
0003
0020
0000
0030
0000
,
2010
3000
1001
0000
0002
0013
0011
0020
,
0000
0000
0230
0000
0310
0010
0011
0000
,
1001
0000
0000
0000
0001
0000
0100
0010
2000
0000
0000
0000
3020
0000
0000
0030
,
0100
0001
0010
0100
0010
0001
0010
0100
,
0010
0001
0010
0100
0010
0001
1000
0010
,
0100
0001
0100
0010
0100
0001
0100
0010
,
0100
0000
0001
0000
0100
0000
0001
1000
0001
0000
1000
0000
0001
0000
0010
0000
,
0100
1000
0010
1000
0100
1000
0010
1000
,
0100
1000
0010
1000
0100
1000
0001
0100
,
0010
0100
0001
1000
0100
0010
0001
1000
0010
0100
0001
1000
0100
0010
0001
1000
,
0010
0100
0001
1000
0100
0010
0001
1000
0010
0000
0100
0000
0001
0000
0000
0000
,
2010
0000
0000
3000
1001
0000
0000
0000
0012
0000
0010
0003
0200
0000
0300
0000
,
2100
3000
1001
0000
0002
0103
0101
0200
,
0000
0000
0320
0000
0130
0100
0101
0000
,
1001
0000
0000
0000
0001
0000
0010
0100
2000
0000
0000
0000
3200
0000
0000
0300
,
0012
0000
0000
0003
1001
0000
0000
0000
2010
0000
0010
3000
0200
0000
0300
0000
,
0102
0003
1001
0000
2000
3100
1100
0200
,
0000
0000
0320
0000
0130
0100
1100
0000
,
1001
0000
0000
0000
1000
0000
0010
0100
0002
0000
0000
0000
0203
0000
0000
0300
,
0010
1000
0100
0010
0100
1000
0100
0010
,
0100
1000
0100
0010
0100
1000
0001
0100
,
0010
1000
0010
0100
0010
1000
0010
0100
,
0010
0000
1000
0000
0010
0000
1000
0001
1000
0000
0001
0000
1000
0000
0100
0000
,
0010
0001
0100
0001
0010
0001
0100
0001
,
0010
0001
0100
0001
0010
0001
1000
0010
,
0100
0010
1000
0001
0010
0100
1000
0001
0100
0010
1000
0001
0010
0100
1000
0001
,
0100
0010
1000
0001
0010
0100
1000
0001
0100
0000
0010
0000
1000
0000
0000
0000
,
0002
0000
0100
0003
0002
0000
0100
0003
0010
0000
2000
0000
0000
0000
3002
0000
,
2003
0000
0100
3000
0020
0000
0100
0030
1000
0000
0002
0000
0000
0000
0003
0000
,
2000
0000
0010
3000
2000
0000
0010
3000
0200
0000
0000
0000
0301
0000
0020
0000
,
0000
0230
0000
0000
0320
0000
0032
0000
,
2003
0000
3020
0000
,
0000
0000
0230
0000
,
0320
0000
2030
0000
,
3200
0000
0320
0000
,
0032
0000
0010
0003
0002
0000
0010
0003
0100
0000
2000
0000
0000
0000
3002
0000
,
2003
0000
0010
3000
2000
0000
0010
3000
0100
0000
0002
0000
0000
0000
0003
0000
,
2000
0000
0100
3000
2000
0000
0100
3000
0020
0000
0000
0000
0031
0000
0200
0000
,
0000
0320
0000
0000
0230
0000
0302
0000
,
2003
0001
0001
0001
,
0200
3000
0000
0000
0010
0000
0000
0000
0010
0000
0000
0000
0010
0000
0000
0000
,
1300
0001
0010
0100
1000
0001
0100
0010
1000
0001
0010
0100
1000
0001
0100
0010
,
1000
0001
0010
0100
1000
0001
0100
0010
1000
0000
0001
0000
0010
0000
0000
0000
,
0000
0000
0002
0000
2003
0000
0010
3000
0200
0000
0001
0300
0200
0000
0001
0300
,
1000
0000
0200
0000
0000
0000
0310
0000
0002
0000
1000
0003
0002
0000
1000
0003
,
0010
0200
0000
0000
0302
0000
1003
0200
,
0000
0310
0002
0000
0203
0000
0320
0000
,
2030
0000
3020
0000
,
0000
0000
0230
0000
,
0320
0000
2030
0000
,
3200
0000
0320
0000
,
0032
0000
0010
0003
0002
0000
0010
0003
0100
0000
2000
0000
0000
0000
3002
0000
,
2003
0000
0010
3000
2000
0000
0010
3000
0100
0000
0002
0000
0000
0000
0003
0000
,
2000
0000
0100
3000
2000
0000
0100
3000
0020
0000
0000
0000
0031
0000
0200
0000
,
0000
0320
0000
0000
0230
0000
0302
0000
,
2003
0001
0001
0001
,
0200
3000
0000
0000
0010
0000
0000
0000
0010
0000
0000
0000
0010
0000
0000
0000
,
1300
0001
0010
0100
1000
0001
0100
0010
1000
0001
0010
0100
1000
0001
0100
0010
,
1000
0001
0010
0100
1000
0001
0100
0010
1000
0000
0001
0000
0010
0000
0000
0000
,
0000
0000
0002
0000
2003
0000
0010
3000
0200
0000
0001
0300
0200
0000
0001
0300
,
1000
0000
0200
0000
0000
0000
0310
0000
0002
0000
1000
0003
0002
0000
1000
0003
,
0010
0200
0000
0000
0302
0000
1003
0200
,
0000
0310
0002
0000
0203
0000
0320
0000
,
2030
0000
3020
0000
,
0000
0000
0230
0000
,
0320
0000
2030
0000
,
3200
0000
0320
0000
,
003M
00M0
0M00
M000
000M
0M00
000M
00M0
0M00
M000
000M
0M00
,
000M
00M0
0M00
M000
000M
0M00
000M
00M0
0M00
M000
000M
0M00
,
000M
00M0
0M00
M000
000M
0M00
000M
00M0
0M00
M000
000M
0M00
,
000M
00M0
0M00
M000
000M
0M00
000M
00M0
0M00
M000
000M
0M00
,
0000
0000
0000
0000
0000
0000
0M00
0000
0000
0000
0000
0000
0000
0000
0000
000M
,
0000
000M
0000
0000
0000
0000
00M0
0000
0M00
0000
00M0
0000
00M0
0000
0000
0000
,
M000
0000
0000
0000
000M
0M00
0000
0000
0000
000M
M000
0000
0000
0000
0000
0000
,
MMMM
0000
0000
0000
;

//---------------dance-single - I. Pyles----------------
#NOTES:
     dance-single:
     I. Pyles:
     Hard:
     13:
     1.000,1.000,0.147,0.723,1.000,1942.000,45.000,222.000,88.000,1.000:
0000
0000
0000
0000
,
1002
0000
0103
0010
1000
0001
0020
0001
,
0030
0000
0011
0010
0001
1000
0MM0
0001
,
2001
0000
3100
0010
0001
1000
0020
1000
,
0030
0000
1010
0000
0010
1000
0000
0001
,
1002
0000
0000
0000
0103
0000
0010
0000
1000
0000
0001
0000
0020
0000
0100
0030
,
2000
0000
001M
0000
3002
0000
0000
1003
,
2001
0000
0000
0000
3100
0000
0010
0000
0001
0000
1000
0000
0020
0000
0100
0030
,
0002
0000
M010
0000
2003
0000
0000
3000
,
1001
0000
0002
0103
0020
1030
0200
1300
,
0002
0000
1103
1000
0001
1000
0MM0
0001
,
1001
0000
2000
3010
0200
0301
0020
0130
,
2000
0000
00M1
3000
0020
0000
0000
0130
,
2001
0000
0000
0000
3010
0000
0100
0000
0001
0000
1000
0000
0200
0000
0010
0300
,
0002
0000
M100
0000
2003
0000
0000
3001
,
1002
0000
0000
0000
0013
0000
0100
0000
1000
0000
0001
0000
0200
0000
0010
0300
,
2000
0000
010M
0000
3002
0000
0000
0003
,
2MMM
0000
0000
0000
0000
0000
0000
0000
0010
0000
0000
0000
0000
0000
0000
0000
0010
0000
0000
0000
0000
0000
0000
0000
0010
0000
0000
0000
0000
0000
0000
3000
,
M010
1000
0001
1000
,
0002
0000
0000
0000
0000
0000
0000
0000
0010
0000
0000
0000
0000
0000
0000
0000
0010
0000
0000
0000
0000
0000
0000
0000
0010
0000
0000
0000
0000
0000
0000
0003
,
001M
0001
1000
0001
,
2000
0000
0000
0000
0000
0000
0000
0000
0010
0000
0000
0000
0000
0000
0000
0000
0010
0000
0000
0000
0000
0000
0000
0000
0010
0000
0000
0000
0000
0000
0000
3000
,
M010
1000
0001
1000
,
0002
0000
0000
0000
0000
0000
0000
0000
0010
0000
0000
0000
0000
0000
0000
0000
0010
0000
0000
0000
0000
0000
0000
0000
0010
0000
0000
0000
0000
0000
0000
0003
,
001M
0000
0000
0000
0200
0300
0000
0000
0020
0000
0030
0000
0002
0000
0000
0003
,
2000
0000
0000
0000
0000
0000
0000
0000
0010
0000
0000
0000
0000
0000
0000
0000
0010
0000
0000
0000
0000
0000
0000
0000
0010
0000
0000
0000
0000
0000
0000
3000
,
M010
1000
0001
1000
,
0002
0000
0000
0000
0000
0000
0000
0000
0010
0000
0000
0000
0000
0000
0000
0000
0010
0000
0000
0000
0000
0000
0000
0000
0010
0000
0000
0000
0000
0000
0000
0003
,
001M
0000
0000
0000
0200
0300
0000
0000
0020
0000
0030
0000
0002
0000
0000
0003
,
1000
0100
1000
0001
1000
0100
0010
0001
,
0100
0010
0100
0001
0100
0010
1000
0001
,
0010
0100
1000
0001
0100
0010
1000
0001
0010
0100
1000
0001
0100
0010
1000
0001
,
0010
0100
1000
0001
0100
0010
1000
0001
0010
0000
0010
0000
0100
0000
0100
0000
,
1000
0100
0010
0001
1000
0100
0010
0001
1000
0010
1000
0001
0100
0010
1000
0001
,
1000
0001
0010
0100
1000
0001
0010
0100
1000
0001
0100
0001
0010
0100
0010
0001
,
1000
0010
0100
0001
1000
0001
1000
0001
0100
0001
1000
0001
0010
0100
1000
0001
,
0100
0001
0010
0001
1000
0001
1000
0001
0100
0010
1000
0001
0010
0100
1000
0001
,
1000
0100
0010
0001
1000
0100
0010
0001
1000
0010
1000
0001
0100
0010
1000
0001
,
1000
0001
0010
0100
1000
0001
0010
0100
1000
0001
0010
0001
0100
0010
0100
0001
,
1000
0010
0100
0001
1000
0001
1000
0001
0100
0001
1000
0001
0010
0100
1000
0001
,
0100
0001
0010
0001
1000
0001
1000
0001
0100
0001
0010
0001
1000
0001
1000
0001
,
0010
0100
1000
0001
1000
0100
0010
0001
1000
0100
1000
0001
0010
0100
1000
0001
,
0010
0100
1000
0001
1000
0100
0010
0001
1000
0010
1000
0001
0010
0100
1000
0001
,
0100
0010
1000
0001
1000
0010
0100
0001
1000
0010
1000
0001
0100
0010
1000
0001
,
0100
0010
1000
0001
1000
0010
0100
0001
1000
0100
1000
0001
0100
0010
1000
0001
,
0010
0100
1000
0001
1000
0100
0010
0001
1000
0100
1000
0001
0010
0100
1000
0001
,
0010
0100
1000
0001
1000
0100
0010
0001
1000
0100
1000
0001
0010
0100
1000
0001
,
0100
0010
1000
0001
0010
0100
1000
0001
0100
0010
1000
0001
0010
0100
1000
0001
,
0100
0010
1000
0001
0010
0100
1000
0001
0100
0000
0010
0000
1000
0000
0000
0000
,
0001
0010
0100
1000
0001
0010
0100
1000
0001
0100
0001
1000
0010
0100
0001
1000
,
0001
1000
0100
0010
0001
1000
0100
0010
0001
1000
0010
1000
0100
0010
0100
1000
,
0001
0100
0010
1000
0001
1000
0001
1000
0010
1000
0001
1000
0100
0010
0001
1000
,
0010
1000
0100
1000
0001
1000
0001
1000
0010
0100
0001
1000
0100
0010
0001
1000
,
0001
0010
0100
1000
0001
0010
0100
1000
0001
0100
0001
1000
0010
0100
0001
1000
,
0001
1000
0100
0010
0001
1000
0100
0010
0001
1000
0100
1000
0010
0100
0010
1000
,
0001
0100
0010
1000
0001
1000
0001
1000
0010
1000
0001
1000
0100
0010
0001
1000
,
0010
1000
0100
1000
0001
1000
0001
1000
0010
1000
0100
1000
0001
1000
0001
1000
,
0100
0010
0001
1000
0001
0010
0100
1000
0001
0010
0001
1000
0100
0010
0001
1000
,
0100
0010
0001
1000
0001
0010
0100
1000
0001
0100
0001
1000
0100
0010
0001
1000
,
0010
0100
0001
1000
0001
0100
0010
1000
0001
0100
0001
1000
0010
0100
0001
1000
,
0010
0100
0001
1000
0001
0100
0010
1000
0001
0010
0001
1000
0010
0100
0001
1000
,
0100
0010
0001
1000
0001
0010
0100
1000
0001
0010
0001
1000
0100
0010
0001
1000
,
0100
0010
0001
1000
0001
0010
0100
1000
0001
0010
0001
1000
0100
0010
0001
1000
,
0010
0100
0001
1000
0100
0010
0001
1000
0010
0100
0001
1000
0100
0010
0001
1000
,
0010
0100
0001
1000
0100
0010
0001
1000
0010
0000
0100
0000
0001
0000
0000
0000
,
1000
0001
1000
0100
0010
0001
0100
0010
,
0000
0100
0010
1000
0001
0010
0100
0000
,
1000
0001
1000
0010
0100
0001
0010
0100
,
0000
0000
0010
0000
0100
0000
1000
0001
1000
0000
0010
0000
0100
0000
0000
0000
,
0001
1000
0001
0010
0100
1000
0010
0100
,
0000
0010
0100
0001
1000
0100
0010
0000
,
0001
1000
0001
0100
0010
1000
0100
0010
,
0000
0000
0100
0000
0010
0000
0001
1000
0001
0000
0100
0000
0010
0000
0000
0000
,
1000
0001
1000
0100
0010
0001
0100
0010
,
0000
0100
0010
1000
0001
0010
0100
0000
,
1000
0001
1000
0010
0100
0001
0010
0100
,
0000
0000
0010
0000
0100
0000
1000
0001
1000
0000
0010
0000
0100
0000
0000
0000
,
0001
1000
0001
0010
0100
1000
0010
0100
,
0000
0010
0100
0001
1000
0100
0010
0000
,
0100
0010
0001
1000
0010
0100
0001
1000
0100
0010
0001
1000
0010
0100
0001
1000
,
0100
0010
0001
1000
0010
0100
0001
1000
0100
0000
0010
0000
0001
0000
0000
0000
,
1001
0001
1000
0100
0010
0001
0100
0020
,
0000
0000
0130
0000
0110
0000
0100
0000
0001
0000
0010
0000
0200
0000
0000
0300
,
1001
0001
1000
0010
0100
0001
0010
0200
,
0000
0000
0310
0000
0110
0000
0010
0001
1000
0000
0010
0000
0200
0000
0000
0300
,
1001
1000
0001
0010
0100
1000
0010
0200
,
0000
0000
0310
0000
0110
0000
0010
0000
1000
0000
0100
0000
0020
0000
0000
0030
,
1001
1000
0001
0100
0010
1000
0100
0020
,
0000
0000
0130
0000
0110
0000
0100
1000
0001
0000
0100
0000
0020
0000
0000
0030
,
1001
0001
1000
0100
0010
0001
0100
0020
,
0000
0000
0130
0000
0110
0000
0100
0000
0001
0000
0010
0000
0200
0000
0000
0300
,
1001
0001
1000
0010
0100
0001
0010
0200
,
0000
0000
0310
0000
0110
0000
0010
0001
1000
0000
0010
0000
0200
0000
0000
0300
,
1001
1000
0001
0010
0100
1000
0010
0200
,
0000
0000
0310
0000
0110
0000
0010
0000
1000
0000
0100
0000
0020
0000
0000
0030
,
0100
0010
0001
1000
0010
0100
0001
1000
0100
0010
0001
1000
0010
0100
0001
1000
,
0100
0010
0001
1000
0010
0100
0001
1000
0100
0000
0010
0000
0001
0000
0000
0000
,
0020
0000
0230
0000
0310
0002
0000
0103
,
0020
0000
0230
0000
0310
2000
0000
3000
,
0002
0000
0100
0003
0002
0000
0100
0003
0020
0000
0000
0000
1030
0000
0200
0000
,
0000
0320
0000
0000
0230
0000
2300
0000
,
3002
1000
1000
1000
,
0200
0003
0000
0000
0010
0000
0000
0000
0010
0000
0000
0000
0010
0000
0000
0000
,
0002
0300
0000
0000
1000
0000
0000
0000
1000
0000
0000
0000
1000
0000
0000
0000
,
0200
0003
0000
0000
0010
0000
0000
0000
0010
0000
0000
0000
0010
0000
0300
0000
,
0002
0000
0010
0003
0002
0000
0010
0003
0100
0000
2000
0000
0000
0000
3002
0000
,
2003
0000
0010
3000
2000
0000
0010
3000
0100
0000
0002
0000
0000
0000
0003
0000
,
2000
0000
0100
3000
2000
0000
0100
3000
0020
0000
0000
0000
0031
0000
0200
0000
,
0000
0320
0000
0000
0230
0000
0302
0000
,
2003
0001
0001
0001
,
0200
3000
0000
0000
0010
0000
0000
0000
0010
0000
0000
0000
0010
0000
0000
0000
,
1300
0001
0010
0100
1000
0001
0100
0010
1000
0001
0010
0100
1000
0001
0100
0010
,
1000
0001
0010
0100
1000
0001
0100
0010
1000
0000
0001
0000
0010
0000
0000
0000
,
1100
1000
0001
1000
1100
1000
0001
1000
,
1100
0000
1000
0000
0001
0000
1000
0000
1100
0000
1000
0000
0020
0000
0000
0030
,
0101
0001
1000
0001
0101
0001
1000
0001
,
0020
0000
0230
0000
2300
0000
3002
0000
0203
0000
0000
0000
0320
0000
0000
0030
,
1001
0000
0000
0000
0004
0000
0000
0003
0000
0000
0000
0000
0100
0000
0000
0000
0001
0000
0000
0000
0000
0000
0000
0000
1000
0000
0000
0000
0100
0000
0000
0000
,
0110
0000
0000
0000
0400
0000
0000
0300
0000
0000
0000
0000
4000
0000
0000
3000
0000
0000
0000
0000
1001
0000
0000
0000
0001
0000
0000
0000
0000
0000
0000
0000
,
1001
0000
0000
0000
4000
0000
0000
3000
0000
0000
0000
0000
0010
0000
0000
0000
1000
0000
0000
0000
0000
0000
0000
0000
0001
0000
0000
0000
0010
0000
0000
0000
,
0110
0000
0000
0000
0040
0000
0000
0030
0000
0000
0000
0000
0004
0000
0100
0003
0010
0000
0000
0000
1000
0000
0000
0000
0010
0000
0000
0000
0000
0000
0000
0000
,
0101
0001
1000
0001
0101
0001
1000
0001
,
0101
0000
0001
0000
1000
0000
0001
0000
0101
0000
0001
0000
0020
0000
0000
0030
,
1100
1000
0001
1000
1100
1000
0001
1000
,
0020
0000
0230
0000
0302
0000
2003
0000
3200
0000
0000
0000
0320
0000
0000
0030
,
1001
0000
0000
0000
4000
0000
0000
3000
0000
0000
0000
0000
0100
0000
0000
0000
1000
0000
0000
0000
0000
0000
0000
0000
0001
0000
0000
0000
0100
0000
0000
0000
,
0110
0000
0000
0000
0400
0000
0000
0300
0000
0000
0000
0000
0004
0000
0000
0003
0000
0000
0000
0000
1001
0000
0000
0000
0001
0000
0000
0000
0000
0000
0000
0000
,
0010
0100
1000
0001
0100
0010
1000
0001
0010
0100
1000
0001
0100
0010
1000
0001
,
0010
0100
1000
0001
0100
0010
1000
0001
0010
0000
0100
0000
1000
0000
0000
0000
,
MMM1
0000
0100
0000
0001
0000
0100
0020
,
0000
2030
0000
3020
0100
0030
0001
2000
,
0000
3200
0000
2300
0001
3000
0100
0020
,
0000
2030
0000
3020
0100
0030
0001
0020
,
0000
0230
0000
0320
0001
0030
1000
0002
,
0000
0203
0000
0302
1000
0003
0100
0020
,
0000
0032
0000
0203
0010
0300
1000
0020
,
0000
0230
0000
0302
1000
0003
0001
0000
,
2000
0000
0000
0000
0000
0000
0000
0000
0010
0000
0000
0000
0000
0000
0000
0000
0010
0000
0000
0000
0000
0000
0000
0000
0010
0000
0000
0000
0000
0000
0000
3000
,
M010
1000
0001
1000
,
0002
0000
0000
0000
0000
0000
0000
0000
0010
0000
0000
0000
0000
0000
0000
0000
0010
0000
0000
0000
0000
0000
0000
0000
0010
0000
0000
0000
0000
0000
0000
0003
,
001M
0000
0000
0000
0200
0300
0000
0000
0020
0000
0030
0000
0002
0000
0000
0003
,
2000
0000
0000
0000
0000
0000
0000
0000
0010
0000
0000
0000
0000
0000
0000
0000
0010
0000
0000
0000
0000
0000
0000
0000
0010
0000
0000
0000
0000
0000
0000
3000
,
M010
1000
0001
1000
,
0010
1000
0001
0010
0100
1000
0001
0100
0010
1000
0001
0010
0100
1000
0001
0100
,
0010
1000
0001
0010
0100
1000
0001
0100
0010
0000
0010
0000
0100
0000
0100
0000
,
0001
0010
0100
1000
0001
0010
0100
1000
0001
0100
0001
1000
0010
0100
0001
1000
,
0001
1000
0100
0010
0001
1000
0100
0010
0001
1000
0010
1000
0100
0010
0100
1000
,
0001
0100
0010
1000
0001
1000
0001
1000
0010
1000
0001
1000
0100
0010
0001
1000
,
0001
0010
0001
0010
0100
1000
0010
0100
0010
1000
0001
1000
0100
0010
0001
1000
,
0001
0010
0100
1000
0001
0010
0100
1000
0001
0100
0001
1000
0010
0100
0001
1000
,
0001
1000
0100
0010
0001
1000
0100
0010
0001
1000
0100
1000
0010
0100
0010
1000
,
0001
0100
0010
1000
0001
1000
0001
1000
0010
1000
0001
1000
0100
0010
0001
1000
,
0001
0010
0001
0010
0100
1000
0010
0100
0010
0100
0001
0010
0100
1000
0001
1000
,
0100
0010
0001
1000
0001
0010
0100
1000
0001
0010
0001
1000
0100
0010
0001
1000
,
0100
0010
0001
1000
0001
0010
0100
1000
0001
0100
0001
1000
0100
0010
0001
1000
,
0010
0100
0001
1000
0001
0100
0010
1000
0001
0100
0001
1000
0010
0100
0001
1000
,
0010
0100
0001
1000
0001
0100
0010
1000
0001
0010
0001
1000
0010
0100
0001
1000
,
0100
0010
0001
1000
0001
0010
0100
1000
0001
0010
0001
1000
0100
0010
0001
1000
,
0100
0010
0001
1000
0001
0010
0100
1000
0001
0010
0001
1000
0100
0010
0001
1000
,
0010
0100
0001
1000
0100
0010
0001
1000
0010
0100
0001
1000
0100
0010
0001
1000
,
0010
0100
0001
1000
0100
0010
0001
1000
0010
0000
0100
0000
0001
0000
0000
0000
,
1000
0100
0010
0001
1000
0100
0010
0001
1000
0010
1000
0001
0100
0010
1000
0001
,
1000
0001
0010
0100
1000
0001
0010
0100
1000
0001
0100
0001
0010
0100
0010
0001
,
1000
0010
0100
0001
1000
0001
1000
0001
0100
0001
1000
0001
0010
0100
1000
0001
,
1000
0100
1000
0100
0010
0001
0100
0010
0100
0001
1000
0001
0010
0100
1000
0001
,
1000
0100
0010
0001
1000
0100
0010
0001
1000
0010
1000
0001
0100
0010
1000
0001
,
1000
0001
0010
0100
1000
0001
0010
0100
1000
0001
0010
0001
0100
0010
0100
0001
,
1000
0010
0100
0001
1000
0001
1000
0001
0100
0001
1000
0001
0010
0100
1000
0001
,
1000
0100
1000
0100
0010
0001
0100
0010
0100
0010
1000
0100
0010
0001
1000
0001
,
0010
0100
1000
0001
1000
0100
0010
0001
1000
0100
1000
0001
0010
0100
1000
0001
,
0010
0100
1000
0001
1000
0100
0010
0001
1000
0010
1000
0001
0010
0100
1000
0001
,
0100
0010
1000
0001
1000
0010
0100
0001
1000
0010
1000
0001
0100
0010
1000
0001
,
0100
0010
1000
0001
1000
0010
0100
0001
1000
0100
1000
0001
0100
0010
1000
0001
,
0010
0100
1000
0001
1000
0100
0010
0001
1000
0100
1000
0001
0010
0100
1000
0001
,
0010
0100
1000
0001
1000
0100
0010
0001
1000
0100
1000
0001
0010
0100
1000
0001
,
0100
0010
1000
0001
0010
0100
1000
0001
0100
0010
1000
0001
0010
0100
1000
0001
,
0100
0010
1000
0001
0010
0100
1000
0001
0100
0000
0010
0000
1000
0000
0000
0000
,
0002
0000
0100
0003
0002
0000
0100
0003
0010
0000
2000
0000
0000
0000
3002
0000
,
2003
0000
0100
3000
0020
0000
0100
0030
1000
0000
0002
0000
0000
0000
0003
0000
,
2000
0000
0010
3000
2000
0000
0010
3000
0200
0000
0000
0000
0301
0000
0020
0000
,
0000
0230
0000
0000
0320
0000
0032
0000
,
2003
0000
3020
0000
,
0000
0000
0230
0000
,
0320
0000
2030
0000
,
3200
0000
0320
0000
,
0032
0000
0010
0003
0002
0000
0010
0003
0100
0000
2000
0000
0000
0000
3002
0000
,
2003
0000
0010
3000
2000
0000
0010
3000
0100
0000
0002
0000
0000
0000
0003
0000
,
2000
0000
0100
3000
2000
0000
0100
3000
0020
0000
0000
0000
0031
0000
0200
0000
,
0000
0320
0000
0000
0230
0000
0302
0000
,
2003
0001
0001
0001
,
0200
3000
0000
0000
0010
0000
0000
0000
0010
0000
0000
0000
0010
0000
0000
0000
,
1300
0001
0010
0100
1000
0001
0100
0010
1000
0001
0010
0100
1000
0001
0100
0010
,
1000
0001
0010
0100
1000
0001
0100
0010
1000
0000
0001
0000
0010
0000
0000
0000
,
0000
0000
0002
0000
2003
0000
0010
3000
0200
0000
0001
0300
0200
0000
0001
0300
,
1000
0000
0200
0000
0000
0000
0310
0000
0002
0000
1000
0003
0002
0000
1000
0003
,
0010
0200
0000
0000
0302
0000
1003
0200
,
0000
0310
0002
0000
0203
0000
0320
0000
,
2030
0000
3020
0000
,
0000
0000
0230
0000
,
0320
0000
2030
0000
,
3200
0000
0320
0000
,
0032
0000
0010
0003
0002
0000
0010
0003
0100
0000
2000
0000
0000
0000
3002
0000
,
2003
0000
0010
3000
2000
0000
0010
3000
0100
0000
0002
0000
0000
0000
0003
0000
,
2000
0000
0100
3000
2000
0000
0100
3000
0020
0000
0000
0000
0031
0000
0200
0000
,
0000
0320
0000
0000
0230
0000
0302
0000
,
2003
0001
0001
0001
,
0200
3000
0000
0000
0010
0000
0000
0000
0010
0000
0000
0000
0010
0000
0000
0000
,
1300
0001
0010
0100
1000
0001
0100
0010
1000
0001
0010
0100
1000
0001
0100
0010
,
1000
0001
0010
0100
1000
0001
0100
0010
1000
0000
0001
0000
0010
0000
0000
0000
,
0000
0000
0002
0000
2003
0000
0010
3000
0200
0000
0001
0300
0200
0000
0001
0300
,
1000
0000
0200
0000
0000
0000
0310
0000
0002
0000
1000
0003
0002
0000
1000
0003
,
0010
0200
0000
0000
0302
0000
1003
0200
,
0000
0310
0002
0000
0203
0000
0320
0000
,
2030
0000
3020
0000
,
0000
0000
0230
0000
,
0320
0000
2030
0000
,
3200
0000
0320
0000
,
003M
00M0
0M00
M000
000M
0M00
000M
00M0
0M00
M000
000M
0M00
,
000M
00M0
0M00
M000
000M
0M00
000M
00M0
0M00
M000
000M
0M00
,
000M
00M0
0M00
M000
000M
0M00
000M
00M0
0M00
M000
000M
0M00
,
000M
00M0
0M00
M000
000M
0M00
000M
00M0
0M00
M000
000M
0M00
,
0000
0000
0000
0000
0000
0000
0M00
0000
0000
0000
0000
0000
0000
0000
0000
000M
,
0000
000M
0000
0000
0000
0000
00M0
0000
0M00
0000
00M0
0000
00M0
0000
0000
0000
,
M000
0000
0000
0000
000M
0M00
0000
0000
0000
000M
M000
0000
0000
0000
0000
0000
,
MMMM
0000
0000
0000
;

//---------------dance-single - I. Pyles----------------
#NOTES:
     dance-single:
     I. Pyles:
     Challenge:
     16:
     1.000,1.000,0.036,0.248,1.000,2873.000,11.000,76.000,88.000,1.000:

0000
0000
0000
0000
,
1002
0000
0103
0010
1000
0001
0020
0001
,
0030
0000
0011
0010
0001
1000
0MM0
0001
,
2001
0000
3100
0010
0001
1000
0020
1000
,
0030
0000
1010
0000
0010
1000
0000
0001
,
1002
0000
0000
0000
0103
0000
0010
0000
1000
0000
0001
0000
0020
0000
0100
0030
,
2000
0000
001M
0000
3002
0000
0000
1003
,
2001
0000
0000
0000
3100
0000
0010
0000
0001
0000
1000
0000
0020
0000
0100
0030
,
0002
0000
M010
0000
2003
0000
0000
3000
,
1001
0000
0002
0103
0020
1030
0200
1300
,
0002
0000
1103
1000
0001
1000
0MM0
0001
,
1001
0000
2000
3010
0200
0301
0020
0130
,
2000
0000
00M1
3000
0020
0000
0000
0130
,
2001
0000
0000
0000
3010
0000
0100
0000
0001
0000
1000
0000
0200
0000
0010
0300
,
0002
0000
M100
0000
2003
0000
0000
3001
,
1002
0000
0000
0000
0013
0000
0100
0000
1000
0000
0001
0000
0200
0000
0010
0300
,
2000
0000
010M
0000
3002
0000
0000
0003
,
2MMM
0000
0000
0000
0000
0000
0000
0000
0010
0000
0000
0000
0000
0000
0000
0000
0010
0000
0000
0000
0000
0000
0000
0000
0010
0000
0000
0000
0000
0000
0000
3000
,
M010
1000
0001
1000
,
0002
0000
0000
0000
0000
0000
0000
0000
0010
0000
0000
0000
0000
0000
0000
0000
0010
0000
0000
0000
0000
0000
0000
0000
0010
0000
0000
0000
0000
0000
0000
0003
,
001M
0001
1000
0001
,
2000
0000
0000
0000
0000
0000
0000
0000
0010
0000
0000
0000
0000
0000
0000
0000
0010
0000
0000
0000
0000
0000
0000
0000
0010
0000
0000
0000
0000
0000
0000
3000
,
M010
1000
0001
1000
,
0002
0000
0000
0000
0000
0000
0000
0000
0010
0000
0000
0000
0000
0000
0000
0000
0010
0000
0000
0000
0000
0000
0000
0000
0010
0000
0000
0000
0000
0000
0000
0003
,
001M
0000
0000
0000
0200
0300
0000
0000
0020
0000
0030
0000
0002
0000
0000
0003
,
2000
0000
0000
0000
0000
0000
0000
0000
0010
0000
0000
0000
0000
0000
0000
0000
0010
0000
0000
0000
0000
0000
0000
0000
0010
0000
0000
0000
0000
0000
0000
3000
,
M010
1000
0001
1000
,
0002
0000
0000
0000
0000
0000
0000
0000
0010
0000
0000
0000
0000
0000
0000
0000
0010
0000
0000
0000
0000
0000
0000
0000
0010
0000
0000
0000
0000
0000
0000
0003
,
001M
0000
0000
0000
0200
0300
0000
0000
0020
0000
0030
0000
0002
0000
0000
0003
,
1000
0100
1000
0001
1000
0100
0010
0001
,
0100
0010
0100
0001
0100
0010
1000
0001
,
0010
0100
1000
0001
0100
0010
1000
0001
0010
0100
1000
0001
0100
0010
1000
0001
,
0010
0100
1000
0001
0100
0010
1000
0001
0010
0000
0010
0000
0100
0000
0100
0000
,
1000
0100
0010
0001
1000
0100
0010
0001
1000
0010
1000
0001
0100
0010
1000
0001
,
1000
0001
0010
0100
1000
0001
0010
0100
1000
0001
0100
0001
0010
0100
0010
0001
,
1000
0010
0100
0001
1000
0001
1000
0001
0100
0001
1000
0001
0010
0100
1000
0001
,
0100
0001
0010
0001
1000
0001
1000
0001
0100
0010
1000
0001
0010
0100
1000
0001
,
1000
0100
0010
0001
1000
0100
0010
0001
1000
0010
1000
0001
0100
0010
1000
0001
,
1000
0001
0010
0100
1000
0001
0010
0100
1000
0001
0010
0001
0100
0010
0100
0001
,
1000
0010
0100
0001
1000
0001
1000
0001
0100
0001
1000
0001
0010
0100
1000
0001
,
0100
0001
0010
0001
1000
0001
1000
0001
0100
0001
0010
0001
1000
0001
1000
0001
,
0010
0100
1000
0001
1000
0100
0010
0001
1000
0100
1000
0001
0010
0100
1000
0001
,
0010
0100
1000
0001
1000
0100
0010
0001
1000
0010
1000
0001
0010
0100
1000
0001
,
0100
0010
1000
0001
1000
0010
0100
0001
1000
0010
1000
0001
0100
0010
1000
0001
,
0100
0010
1000
0001
1000
0010
0100
0001
1000
0100
1000
0001
0100
0010
1000
0001
,
0010
0100
1000
0001
1000
0100
0010
0001
1000
0100
1000
0001
0010
0100
1000
0001
,
0010
0100
1000
0001
1000
0100
0010
0001
1000
0100
1000
0001
0010
0100
1000
0001
,
0100
0010
1000
0001
0010
0100
1000
0001
0100
0010
1000
0001
0010
0100
1000
0001
,
0100
0010
1000
0001
0010
0100
1000
0001
0100
0000
0010
0000
1000
0000
0000
0000
,
0001
0010
0100
1000
0001
0010
0100
1000
0001
0100
0001
1000
0010
0100
0001
1000
,
0001
1000
0100
0010
0001
1000
0100
0010
0001
1000
0010
1000
0100
0010
0100
1000
,
0001
0100
0010
1000
0001
1000
0001
1000
0010
1000
0001
1000
0100
0010
0001
1000
,
0010
1000
0100
1000
0001
1000
0001
1000
0010
0100
0001
1000
0100
0010
0001
1000
,
0001
0010
0100
1000
0001
0010
0100
1000
0001
0100
0001
1000
0010
0100
0001
1000
,
0001
1000
0100
0010
0001
1000
0100
0010
0001
1000
0100
1000
0010
0100
0010
1000
,
0001
0100
0010
1000
0001
1000
0001
1000
0010
1000
0001
1000
0100
0010
0001
1000
,
0010
1000
0100
1000
0001
1000
0001
1000
0010
1000
0100
1000
0001
1000
0001
1000
,
0100
0010
0001
1000
0001
0010
0100
1000
0001
0010
0001
1000
0100
0010
0001
1000
,
0100
0010
0001
1000
0001
0010
0100
1000
0001
0100
0001
1000
0100
0010
0001
1000
,
0010
0100
0001
1000
0001
0100
0010
1000
0001
0100
0001
1000
0010
0100
0001
1000
,
0010
0100
0001
1000
0001
0100
0010
1000
0001
0010
0001
1000
0010
0100
0001
1000
,
0100
0010
0001
1000
0001
0010
0100
1000
0001
0010
0001
1000
0100
0010
0001
1000
,
0100
0010
0001
1000
0001
0010
0100
1000
0001
0010
0001
1000
0100
0010
0001
1000
,
0010
0100
0001
1000
0100
0010
0001
1000
0010
0100
0001
1000
0100
0010
0001
1000
,
0010
0100
0001
1000
0100
0010
0001
1000
0010
0000
0100
0000
0001
0000
0000
0000
,
1000
0100
1000
0100
0010
0001
0100
0010
0100
0010
1000
0100
0010
0001
0100
0010
,
1000
0100
1000
0100
0010
0001
0100
0010
0100
0010
1000
0100
0010
0001
0100
0010
,
1000
0001
1000
0001
0100
0010
0100
0010
1000
0001
0100
0001
0010
0100
1000
0100
,
1000
0001
1000
0001
0100
0010
0100
0010
1000
0001
0100
0001
0010
0100
1000
0100
,
1000
0010
1000
0010
0100
0001
0010
0100
0010
0100
1000
0010
0100
0001
0010
0100
,
1000
0010
1000
0010
0100
0001
0010
0100
0010
0100
1000
0010
0100
0001
0010
0100
,
1000
0001
1000
0001
0100
0010
0100
0010
1000
0001
0010
0001
0100
0010
1000
0010
,
1000
0001
1000
0001
0100
0010
0100
0010
1000
0001
0010
0001
0100
0010
1000
0010
,
1000
0100
1000
0100
0010
0001
0100
0010
0100
0010
1000
0100
0010
0001
0100
0010
,
1000
0100
1000
0100
0010
0001
0100
0010
0100
0010
1000
0100
0010
0001
0100
0010
,
1000
0001
1000
0001
0100
0010
0100
0010
1000
0001
0100
0001
0010
0100
1000
0100
,
1000
0001
1000
0001
0100
0010
0100
0010
1000
0001
0100
0001
0010
0100
1000
0100
,
1000
0010
1000
0010
0100
0001
0010
0100
0010
0100
1000
0010
0100
0001
0010
0100
,
1000
0010
1000
0010
0100
0001
0010
0100
0010
0100
1000
0010
0100
0001
0010
0001
,
0100
0010
1000
0001
0010
0100
1000
0001
0100
0010
1000
0001
0010
0100
1000
0001
,
0100
0010
1000
0001
0010
0100
1000
0001
0100
0000
0010
0000
1000
0000
0000
0000
,
0001
0100
0010
0100
0001
0010
0100
1000
0001
0010
0001
1000
0001
0100
0010
1000
,
0010
1000
0010
0100
0001
0010
0100
0010
0001
1000
0010
0100
0001
1000
0001
1000
,
0001
0010
0100
0010
0001
0100
0010
1000
0001
0100
0001
1000
0001
0010
0100
1000
,
0100
1000
0100
0010
0001
0100
0010
0100
0001
1000
0100
0010
0001
1000
0001
1000
,
0001
0100
0010
0100
0001
0010
0100
1000
0001
0010
0001
1000
0001
0100
0010
1000
,
0010
1000
0010
0100
0001
0010
0100
0010
0001
1000
0010
0100
0001
1000
0001
1000
,
0001
0010
0100
0010
0001
0100
0010
1000
0001
0100
0001
1000
0001
0010
0100
1000
,
0100
1000
0100
0010
0001
0100
0010
0100
0001
1000
0100
0010
0001
1000
0001
1000
,
0001
0100
0010
0100
0001
0010
0100
1000
0001
0010
0001
1000
0001
0100
0010
1000
,
0010
1000
0010
0100
0001
0010
0100
0010
0001
1000
0010
0100
0001
1000
0001
1000
,
0001
0010
0100
0010
0001
0100
0010
1000
0001
0100
0001
1000
0001
0010
0100
1000
,
0100
1000
0100
0010
0001
0100
0010
0100
0001
1000
0100
0010
0001
1000
0001
1000
,
0001
0100
0010
0100
0001
0010
0100
1000
0001
0010
0001
1000
0001
0100
0010
1000
,
0010
1000
0010
0100
0001
0010
0100
0010
0001
1000
0010
0100
0001
1000
0001
1000
,
0010
0100
0001
1000
0100
0010
0001
1000
0010
0100
0001
1000
0100
0010
0001
1000
,
0010
0100
0001
1000
0100
0010
0001
1000
0010
0000
0100
0000
0001
0000
0000
0000
,
0020
0000
0230
0000
0310
0002
0000
0103
,
0020
0000
0230
0000
0310
2000
0000
3000
,
0001
0100
0010
0100
0001
0100
0010
0100
0001
1000
0010
1000
0001
0010
0100
1000
,
0100
1000
0001
0100
0010
1000
0001
1000
0100
0010
0100
1000
0010
0100
0010
1000
,
0001
1000
0100
1000
0001
1000
0001
1000
0100
1000
0001
1000
0010
0100
0001
1000
,
0001
0100
0010
1000
0001
1000
0010
1000
0001
1000
0001
0010
0100
1000
0001
1000
,
0001
1000
0100
1000
0001
1000
0001
1000
0100
1000
0001
1000
0010
0100
0001
1000
,
0001
0100
0010
1000
0001
1000
0010
1000
0001
1000
0001
0100
0010
1000
0001
1000
,
0001
0010
0100
0010
0001
1000
0100
1000
0001
1000
0010
0100
0010
0100
0001
1000
,
0001
1000
0100
1000
0001
0010
0100
0010
0001
1000
0100
0010
0100
1000
0001
1000
,
0001
0100
0010
0100
0001
0100
0010
0100
0001
1000
0010
1000
0001
0010
0100
1000
,
0100
1000
0001
0100
0010
1000
0001
1000
0100
0010
0100
1000
0010
0100
0010
1000
,
0001
1000
0100
1000
0001
1000
0001
1000
0100
1000
0001
1000
0010
0100
0001
1000
,
0001
0100
0010
1000
0001
1000
0010
1000
0001
1000
0001
0010
0100
1000
0001
1000
,
0100
0010
0001
1000
0010
0100
0001
1000
0100
0010
0001
1000
0010
0100
0001
1000
,
0100
0010
0001
1000
0010
0100
0001
1000
0100
0000
0010
0000
0001
0000
0000
0000
,
1000
0100
1000
0100
0010
0100
0010
0100
1000
0100
1000
0100
0010
0100
0010
0100
,
1000
0001
1000
0001
0100
0001
0100
0001
1000
0001
1000
0001
0010
0100
0010
0001
,
1000
0010
1000
0010
0100
0010
0100
0010
1000
0010
1000
0010
0100
0010
0100
0010
,
1000
0100
1000
0100
0010
0001
1000
0010
0100
0001
0100
0001
1000
0100
0010
0100
,
1000
0001
0100
0001
1000
0001
1000
0001
0100
0001
1000
0001
0010
0100
1000
0001
,
1000
0100
0010
0001
1000
0001
0010
0001
1000
0001
1000
0010
0100
0001
1000
0001
,
1000
0001
0100
0001
1000
0001
1000
0001
0100
0001
1000
0001
0010
0100
1000
0001
,
1000
0100
0010
0001
1000
0001
0010
0001
1000
0001
1000
0100
0010
0001
1000
0001
,
1000
0100
1000
0100
0010
0100
0010
0100
1000
0100
1000
0100
0010
0100
0010
0100
,
1000
0001
1000
0001
0100
0001
0100
0001
1000
0001
1000
0001
0010
0100
0010
0001
,
1000
0010
1000
0010
0100
0010
0100
0010
1000
0010
1000
0010
0100
0010
0100
0010
,
1000
0100
1000
0100
0010
0001
1000
0010
0100
0001
0100
0001
1000
0100
0010
0100
,
1000
0001
0100
0001
1000
0001
1000
0001
0100
0001
1000
0001
0010
0100
1000
0001
,
1000
0100
0010
0001
1000
0001
0010
0001
1000
0001
1000
0010
0100
0001
1000
0001
,
0010
0100
1000
0001
0100
0010
1000
0001
0010
0100
1000
0001
0100
0010
1000
0001
,
0010
0100
1000
0001
0100
0010
1000
0001
0010
0000
0100
0000
1000
0000
0000
0000
,
MMM1
0000
0100
0000
0001
0000
0100
0020
,
0000
2030
0000
3020
0100
0030
0001
2000
,
0000
3200
0000
2300
0001
3000
0100
0020
,
0000
2030
0000
3020
0100
0030
0001
0020
,
0000
0230
0000
0320
0001
0030
1000
0002
,
0000
0203
0000
0302
1000
0003
0100
0020
,
0000
0032
0000
0203
0010
0300
1000
0020
,
0000
0230
0000
0302
1000
0003
0001
0000
,
2000
0000
0000
0000
0000
0000
0000
0000
0010
0000
0000
0000
0000
0000
0000
0000
0010
0000
0000
0000
0000
0000
0000
0000
0010
0000
0000
0000
0000
0000
0000
3000
,
M010
1000
0001
1000
,
0002
0000
0000
0000
0000
0000
0000
0000
0010
0000
0000
0000
0000
0000
0000
0000
0010
0000
0000
0000
0000
0000
0000
0000
0010
0000
0000
0000
0000
0000
0000
0003
,
001M
0000
0000
0000
0200
0300
0000
0000
0020
0000
0030
0000
0002
0000
0000
0003
,
2000
0000
0000
0000
0000
0000
0000
0000
0010
0000
0000
0000
0000
0000
0000
0000
0010
0000
0000
0000
0000
0000
0000
0000
0010
0000
0000
0000
0000
0000
0000
3000
,
M010
1000
0001
1000
,
0010
1000
0001
0010
0100
1000
0001
0100
0010
1000
0001
0010
0100
1000
0001
0100
,
0010
1000
0001
0010
0100
1000
0001
0100
0010
0000
0010
0000
0100
0000
0100
0000
,
0001
0010
0100
1000
0001
0010
0100
1000
0001
0100
0001
1000
0010
0100
0001
1000
,
0001
1000
0100
0010
0001
1000
0100
0010
0001
1000
0010
1000
0100
0010
0100
1000
,
0001
0100
0010
1000
0001
1000
0001
1000
0010
1000
0001
1000
0100
0010
0001
1000
,
0001
0010
0001
0010
0100
1000
0010
0100
0010
1000
0001
1000
0100
0010
0001
1000
,
0001
0010
0100
1000
0001
0010
0100
1000
0001
0100
0001
1000
0010
0100
0001
1000
,
0001
1000
0100
0010
0001
1000
0100
0010
0001
1000
0100
1000
0010
0100
0010
1000
,
0001
0100
0010
1000
0001
1000
0001
1000
0010
1000
0001
1000
0100
0010
0001
1000
,
0001
0010
0001
0010
0100
1000
0010
0100
0010
0100
0001
0010
0100
1000
0001
1000
,
0100
0010
0001
1000
0001
0010
0100
1000
0001
0010
0001
1000
0100
0010
0001
1000
,
0100
0010
0001
1000
0001
0010
0100
1000
0001
0100
0001
1000
0100
0010
0001
1000
,
0010
0100
0001
1000
0001
0100
0010
1000
0001
0100
0001
1000
0010
0100
0001
1000
,
0010
0100
0001
1000
0001
0100
0010
1000
0001
0010
0001
1000
0010
0100
0001
1000
,
0100
0010
0001
1000
0001
0010
0100
1000
0001
0010
0001
1000
0100
0010
0001
1000
,
0100
0010
0001
1000
0001
0010
0100
1000
0001
0010
0001
1000
0100
0010
0001
1000
,
0010
0100
0001
1000
0100
0010
0001
1000
0010
0100
0001
1000
0100
0010
0001
1000
,
0010
0100
0001
1000
0100
0010
0001
1000
0010
0000
0100
0000
0001
0000
0000
0000
,
1000
0100
0010
0001
1000
0100
0010
0001
1000
0010
1000
0001
0100
0010
1000
0001
,
1000
0001
0010
0100
1000
0001
0010
0100
1000
0001
0100
0001
0010
0100
0010
0001
,
1000
0010
0100
0001
1000
0001
1000
0001
0100
0001
1000
0001
0010
0100
1000
0001
,
1000
0100
1000
0100
0010
0001
0100
0010
0100
0001
1000
0001
0010
0100
1000
0001
,
1000
0100
0010
0001
1000
0100
0010
0001
1000
0010
1000
0001
0100
0010
1000
0001
,
1000
0001
0010
0100
1000
0001
0010
0100
1000
0001
0010
0001
0100
0010
0100
0001
,
1000
0010
0100
0001
1000
0001
1000
0001
0100
0001
1000
0001
0010
0100
1000
0001
,
1000
0100
1000
0100
0010
0001
0100
0010
0100
0010
1000
0100
0010
0001
1000
0001
,
0010
0100
1000
0001
1000
0100
0010
0001
1000
0100
1000
0001
0010
0100
1000
0001
,
0010
0100
1000
0001
1000
0100
0010
0001
1000
0010
1000
0001
0010
0100
1000
0001
,
0100
0010
1000
0001
1000
0010
0100
0001
1000
0010
1000
0001
0100
0010
1000
0001
,
0100
0010
1000
0001
1000
0010
0100
0001
1000
0100
1000
0001
0100
0010
1000
0001
,
0010
0100
1000
0001
1000
0100
0010
0001
1000
0100
1000
0001
0010
0100
1000
0001
,
0010
0100
1000
0001
1000
0100
0010
0001
1000
0100
1000
0001
0010
0100
1000
0001
,
0100
0010
1000
0001
0010
0100
1000
0001
0100
0010
1000
0001
0010
0100
1000
0001
,
0100
0010
1000
0001
0010
0100
1000
0001
0100
0000
0010
0000
1000
0000
0000
0000
,
0001
0010
0100
0010
0001
1000
0100
1000
0001
1000
0010
0100
0010
0100
0001
1000
,
0001
1000
0010
1000
0001
0100
0010
0100
0001
1000
0100
0010
0100
1000
0001
1000
,
0001
0100
0010
0100
0001
0100
0010
0100
0001
1000
0010
1000
0001
0010
0100
1000
,
0100
1000
0001
0100
0010
1000
0001
1000
0100
0010
0100
1000
0010
0100
0010
1000
,
0001
1000
0100
1000
0001
1000
0001
1000
0100
1000
0001
1000
0010
0100
0001
1000
,
0001
0100
0010
1000
0001
1000
0010
1000
0001
1000
0001
0010
0100
1000
0001
1000
,
0001
1000
0100
1000
0001
1000
0001
1000
0100
1000
0001
1000
0010
0100
0001
1000
,
0001
0100
0010
1000
0001
1000
0010
1000
0001
1000
0001
0100
0010
1000
0001
1000
,
0001
0010
0100
0010
0001
1000
0100
1000
0001
1000
0010
0100
0010
0100
0001
1000
,
0001
1000
0100
1000
0001
0010
0100
0010
0001
1000
0100
0010
0100
1000
0001
1000
,
0001
0100
0010
0100
0001
0100
0010
0100
0001
1000
0010
1000
0001
0010
0100
1000
,
0100
1000
0001
0100
0010
1000
0001
1000
0100
0010
0100
1000
0010
0100
0010
1000
,
0001
1000
0100
1000
0001
1000
0001
1000
0100
1000
0001
1000
0010
0100
0001
1000
,
0001
0100
0010
1000
0001
1000
0010
1000
0001
1000
0001
0010
0100
1000
0001
1000
,
0100
0010
0001
1000
0010
0100
0001
1000
0100
0010
0001
1000
0010
0100
0001
1000
,
0100
0010
0001
1000
0010
0100
0001
1000
0100
0000
0010
0000
0001
0000
0000
0000
,
1000
0100
0010
0001
0010
0100
0010
0001
1000
0001
0010
0100
0010
0100
1000
0001
,
1000
0001
0010
0001
1000
0100
0010
0100
1000
0001
0100
0010
0100
0001
1000
0001
,
1000
0010
0100
0001
1000
0010
0100
0001
1000
0001
0010
0001
1000
0100
0010
0001
,
0010
0001
1000
0010
0100
0001
1000
0001
0010
0100
0010
0001
0100
0010
0100
0001
,
1000
0001
0010
0001
1000
0001
1000
0001
0010
0001
1000
0001
0100
0010
1000
0001
,
1000
0010
0100
0001
1000
0001
0100
0001
1000
0001
1000
0100
0010
0001
1000
0001
,
1000
0001
0010
0001
1000
0001
1000
0001
0010
0001
1000
0001
0100
0010
1000
0001
,
1000
0010
0100
0001
1000
0001
0100
0001
1000
0001
1000
0010
0100
0001
1000
0001
,
1000
0100
0010
0100
1000
0001
0010
0001
1000
0001
0100
0010
0100
0010
1000
0001
,
1000
0001
0010
0001
1000
0100
0010
0100
1000
0001
0010
0100
0010
0001
1000
0001
,
1000
0010
0100
0010
1000
0010
0100
0010
1000
0001
0100
0001
1000
0100
0010
0001
,
0010
0001
1000
0010
0100
0001
1000
0001
0010
0100
0010
0001
0100
0010
0100
0001
,
1000
0001
0010
0001
1000
0001
1000
0001
0010
0001
1000
0001
0100
0010
1000
0001
,
1000
0010
0100
0001
1000
0001
0100
0001
1000
0001
1000
0100
0010
0001
1000
0001
,
0010
0100
1000
0001
0100
0010
1000
0001
0010
0100
1000
0001
0100
0010
1000
0001
,
0010
0100
1000
0001
0100
0010
1000
0001
0010
0000
0100
0000
1000
0000
0000
0000
,
0001
0010
0100
1000
0100
0010
0100
1000
0001
1000
0100
0010
0100
0010
0001
1000
,
0001
1000
0100
1000
0001
0010
0100
0010
0001
1000
0010
0100
0010
1000
0001
1000
,
0001
0100
0010
1000
0001
0100
0010
1000
0001
1000
0100
1000
0001
0010
0100
1000
,
0100
1000
0001
0100
0010
1000
0001
1000
0100
0010
0100
1000
0010
0100
0010
1000
,
0001
1000
0100
1000
0001
1000
0001
1000
0100
1000
0001
1000
0010
0100
0001
1000
,
0001
0100
0010
1000
0001
1000
0010
1000
0001
1000
0001
0010
0100
1000
0001
1000
,
0001
1000
0100
1000
0001
1000
0001
1000
0100
1000
0001
1000
0010
0100
0001
1000
,
0020
0000
0230
0000
,
030M
00M0
0M00
M000
000M
0M00
000M
00M0
0M00
M000
000M
0M00
,
000M
00M0
0M00
M000
000M
0M00
000M
00M0
0M00
M000
000M
0M00
,
000M
00M0
0M00
M000
000M
0M00
000M
00M0
0M00
M000
000M
0M00
,
000M
00M0
0M00
M000
000M
0M00
000M
00M0
0M00
M000
000M
0M00
,
0000
0000
0000
0000
0000
0000
0M00
0000
0000
0000
0000
0000
0000
0000
0000
000M
,
0000
000M
0000
0000
0000
0000
00M0
0000
0M00
0000
00M0
0000
00M0
0000
0000
0000
,
M000
0000
0000
0000
000M
0M00
0000
0000
0000
000M
M000
0000
0000
0000
0000
0000
,
MMMM
0000
0000
0000
;
