#TITLE:Reality;
#SUBTITLE:8-Arrowed;
#ARTIST:The Berzerker;
#TITLETRANSLIT:;
#SUBTITLETRANSLIT:;
#ARTISTTRANSLIT:;
#CREDIT:;
#BANNER:Reality-bn.png;
#BACKGROUND:Reality-bg.png;
#LYRICSPATH:;
#CDTITLE:!IzzyTitle.png;
#MUSIC:Reality.mp3;
#OFFSET:0.092;
#SAMPLESTART:11.450;
#SAMPLELENGTH:18.500;
#SELECTABLE:YES;
#BPMS:0.000=64.750,11.000=42.000,12.000=259.000,76.000=258.500,92.000=259.000,156.000=259.000,204.000=258.500,228.000=266.980,230.000=265.000,232.000=259.000,234.000=258.000,236.000=259.000,292.000=260.500;
#STOPS:;
#BGCHANGES:;
// cache tags:
#FIRSTBEAT:10.750;
#LASTBEAT:302.000;
#SONGFILENAME:Songs/Izzy's 8-Arrowed Pack Volume 1/Reality/Reality.sm;
#HASMUSIC:1;
#HASBANNER:1;
#MUSICLENGTH:80.694;
// end cache tags

//---------------dance-double - Copied from Copied f----------------
#NOTES:
     dance-double:
     Copied from Copied f:
     Hard:
     14:
     1.000,1.000,1.000,0.520,1.000,720.000,696.000,42.000,0.000,154.000:
00000000
00000000
00000000
00000000
,
00000000
00000000
00000000
00000000
,
00000000
00000000
00000000
00000000
00000000
00000000
00000000
00000000
00000000
00000000
00000000
22222222
00000000
00000000
00000000
33333333
,
10001001
00010000
01000000
00100000
,
10000000
00000000
00000000
00000000
01000000
00000000
00000000
00000000
10000000
00000000
00000000
00000000
00011001
00001001
00001001
00001001
,
01001001
00100000
01000000
00010000
,
10001000
00000000
00001000
00000000
01001000
00000000
00001000
00000000
00101000
00000000
00001000
00000100
00011000
00000000
00000000
00000000
,
01011010
10000001
01100110
00011000
11000011
00100100
01011010
10000001
,
00111100
10000001
01100110
00011000
10100101
01000010
00111100
00000000
,
10000001
01000010
10100101
00011000
11000011
00100100
01011010
10000001
,
00111100
00000000
10000001
00000000
01100110
00000000
00011000
00000000
11000011
00000000
00100100
00000000
10011001
00000000
01000010
00100100
,
10000001
01000010
00100100
00011000
11000011
00100100
00011000
01000010
,
10011001
01000010
00100100
01000010
10011001
00100100
01000010
00011000
,
01100110
10000001
00100100
10000001
01100110
00011000
01000010
00100100
,
11000011
00100100
10000001
01000010
00111100
10000001
01000010
00011000
,
10100101
01000010
00100100
10000001
01011010
00100100
10000001
00011000
,
01100110
10000001
01000010
00100100
11000011
00011000
00100100
01000010
,
00111100
10000001
01100110
00011000
11000011
00011000
10100101
01000010
,
10011001
01000010
00100100
00011000
11000011
00100100
10000001
00011000
,
10100101
01000010
00011000
10000001
01000010
00100100
00011000
01000010
,
10011001
00100100
00011000
00100100
00011000
01000010
00100100
10000001
,
01011010
10000001
00011000
00100100
10011001
01000010
00011000
00100100
,
10011001
00000000
01000010
00000000
00100100
00000000
01000010
00000000
00100100
00000000
00011000
10000001
01000010
00100100
00011000
10000001
,
11111111
00000000
00000000
00000000
,
00000000
00000000
00000000
00000000
00000000
00000000
00000000
00000000
00000000
00000000
00000000
00000000
11110000
00001111
11110000
00001111
,
11110000
00000000
00000000
00000000
,
10011001
00000000
10011001
00000000
10011001
00000000
10011001
00000000
10011001
00000000
10011001
10011001
10011001
00000000
00000000
00000000
,
01000010
00011000
01000010
00011000
01000010
00011000
01000010
00011000
10000001
00100100
10000001
00100100
10000001
00100100
10000001
00100100
,
10000001
01000010
10000001
01000010
10000001
01000010
10000001
01000010
00100100
00011000
00100100
00011000
00100100
00011000
00100100
00011000
,
10000001
01000010
00100100
00011000
10000001
01000010
00100100
00011000
01000010
00100100
10000001
00011000
01000010
00100100
10000001
00011000
,
01000010
00100100
10000001
01000010
00100100
00011000
10000001
00100100
01000010
00011000
10000001
01000010
00100100
00011000
00100100
00011000
,
21111111
00000000
00000000
00000000
00001000
00000000
00000000
30000000
02001001
00000000
00000000
00000000
00001000
00000000
00000000
03000000
,
00201001
00000000
00000000
00000000
00001000
00000000
00000000
00300000
00021001
00000000
00000000
00000000
00001000
00000000
00000000
00030000
,
20000101
00000000
00000000
00000000
00000100
00000000
00000000
30000000
02000101
00000000
00000000
00000000
00000100
00000000
00000000
03000000
,
00200101
00000000
00000000
00000000
00000100
00000000
00000000
00300000
00020101
00000000
00000000
00000000
00000000
00000000
00000000
00030000
,
00020011
00000000
00000000
00000000
00000010
00000000
00000000
00030000
00200011
00000000
00000000
00000000
00000010
00000000
00000000
00300000
,
02000011
00000000
00000000
00000000
00000010
00000000
00000000
03000000
20000011
00000000
00000000
00000000
00000010
00000000
00000000
30000000
,
00021101
00000000
00000000
00000000
00001011
00000000
00000000
00030000
00201101
00000000
00000000
00000000
00001011
00000000
00000000
00300000
,
02001101
00000000
00000000
00000000
00001011
00000000
00000000
03000000
20001101
00000000
00000000
00000000
00000000
00000000
00000000
30000000
,
10000001
01000010
00100100
00011000
10000001
01000010
00100100
00011000
10000001
00100100
01000010
00011000
10000001
00100100
01000010
00011000
,
10000001
01000010
00100100
00011000
00100100
01000010
10000001
01000010
00100100
00011000
00100100
01000010
10000001
01000010
00100100
00011000
,
01000010
00100100
10000001
00011000
01000010
00100100
10000001
00011000
01000010
00100100
10000001
00011000
01000010
00100100
10000001
00011000
,
10000001
01000010
10000001
00011000
00100100
00011000
10000001
00100100
10000001
00011000
01000010
00011000
10000001
01000010
00100100
00011000
,
10000001
00100100
01000010
00011000
00100100
01000010
10000001
00011000
01000010
00100100
10000001
00011000
01000010
00011000
00100100
00011000
,
10000001
00100100
10000001
01000010
10000001
00011000
01000010
00100100
10000001
00011000
10000001
01000010
00100100
00011000
01000010
00100100
,
10000001
01000010
10000001
00100100
01000010
00011000
00100100
01000010
10000001
00011000
01000010
00100100
10000001
01000010
10000001
00011000
,
00100100
00011000
01000010
00100100
10000001
00011000
00100100
01000010
10000001
01000010
00100100
00011000
10000001
01000010
00100100
00011000
,
11110000
00001111
11110000
00001111
11110000
00001111
11110000
00001111
,
11110000
00001111
11110000
00001111
11110000
00001111
11110000
00001111
,
11110000
00001111
11110000
00001111
11110000
00001111
11110000
00001111
,
11110000
00001111
11110000
00001111
11110000
00001111
11110000
00000000
,
11111111
11111111
11111111
11111111
11111111
11111111
11111111
11111111
,
11111111
11111111
11111111
11111111
11111111
11111111
11111111
11111111
,
11111111
11111111
11111111
11111111
11111111
11111111
11111111
11111111
,
11111111
11111111
11111111
11111111
11111111
11111111
11111111
11111111
,
22222222
00000000
00000000
00000000
00000000
00000000
00000000
00000000
33333333
00000000
00000000
00000000
10000001
00011000
10000001
00011000
,
10000001
00000000
00000000
00000000
00000000
00000000
00000000
00000000
00000000
00000000
10011001
00000000
10011001
00000000
00111100
00111100
,
00111100
00000000
00000000
00000000
00000000
00000000
00000000
00000000
00000000
00000000
00000000
00000000
00000000
00000000
10000001
01000010
,
00100100
00011000
10000001
01000010
00011000
00000000
01000010
00000000
00011000
10000001
01000010
00000000
00011000
00100100
00022000
00033000
,
10000001
01000010
00100100
00011000
10000001
01000010
00100100
00011000
10000001
01000010
00100100
00011000
10000001
01000010
00100100
00011000
,
10000001
00011000
00100100
01000010
10000001
00011000
00100100
01000010
10000001
00011000
00100100
01000010
10000001
00011000
00100100
01000010
,
10000001
00011000
01000010
00100100
10000001
00011000
01000010
00100100
10000001
00011000
01000010
00100100
10000001
00011000
01000010
00100100
,
10000001
00100100
01000010
00011000
10000001
00100100
01000010
00011000
10000001
00100100
01000010
00011000
10000001
00100100
01000010
00011000
,
10000001
01000010
00100100
00011000
10000001
01000010
00100100
00011000
10000001
01000010
00100100
00011000
10000001
01000010
00100100
00011000
,
10000001
01000010
00100100
00011000
10000001
01000010
00100100
00011000
10000001
01000010
00100100
00011000
10000001
01000010
00100100
00011000
,
10000001
00011000
00100100
01000010
10000001
00011000
00100100
01000010
10000001
00011000
00100100
01000010
10000001
00011000
00100100
01000010
,
10000001
00100100
01000010
00011000
10000001
00100100
01000010
00011000
10000001
00100100
01000010
00011000
10000001
00100100
01000010
00011000
,
10000001
00011000
01000010
00100100
10000001
00011000
01000010
00100100
10000001
00011000
01000010
00100100
10000001
00011000
01000010
00100100
,
10000001
01000010
00100100
00011000
00100100
01000010
10000001
01000010
00100100
00011000
00100100
01000010
10000001
01000010
00100100
00011000
,
10000001
01000010
00100100
00011000
10000001
01000010
00100100
00011000
10000001
01000010
00100100
00011000
10000001
01000010
00100100
00011000
,
10000001
00011000
00100100
01000010
10000001
00011000
00100100
01000010
10000001
00011000
00100100
01000010
10000001
00011000
00100100
01000010
,
10000001
00011000
00100100
01000010
10000001
00011000
00100100
01000010
10000001
00011000
00100100
01000010
10000001
00011000
00100100
01000010
,
10000001
00011000
10000001
00011000
10000001
00011000
10000001
00011000
10000001
00011000
10000001
00011000
10000001
00011000
10000001
00011000
,
11000011
00100100
11000011
00100100
01011010
10000001
00111100
01000010
,
10011001
01000010
10011001
00100100
22011022
00011000
00011000
00011000
,
00222200
00000000
33333333
00000000
;

//---------------dance-double - Reality----------------
#NOTES:
     dance-double:
     Reality:
     Medium:
     10:
     1.000,1.000,1.000,0.372,0.068,437.000,414.000,30.000,0.000,107.000:
00000000
00000000
00000000
00000000
,
00000000
00000000
00000000
00000000
,
00000000
00000000
00000000
00000000
00000000
00000000
00000000
00000000
00000000
00000000
00000000
20022002
00000000
00000000
00000000
30033003
,
10001001
00010000
01000000
00100000
,
10000000
00000000
00000000
00000000
01000000
00000000
00000000
00000000
10000000
00000000
00000000
00000000
00001001
10010000
00001001
10010000
,
00001001
00100000
01000000
00010000
,
00011000
00001000
00011000
00001000
00011000
00001000
00011000
00000000
,
01011010
01100110
11000011
01011010
,
00111100
01100110
10100101
00111100
,
10000001
10100101
11000011
01011010
,
00111100
01100110
11000011
10011001
,
10000001
00100100
11000011
00011000
,
10011001
00100100
10011001
01000010
,
01100110
00100100
01100110
01000010
,
11000011
10000001
00111100
01000010
,
10100101
00100100
01011010
10000001
,
01100110
01000010
11000011
00100100
,
00111100
01100110
11000011
10100101
,
10011001
00100100
11000011
10000001
,
10100101
00011000
01000010
00011000
,
10011001
00011000
00011000
00100100
,
01011010
00011000
10011001
00011000
,
10011001
00000000
00000000
00000000
00100100
00000000
00000000
00000000
00100100
00000000
00011000
10000001
01000010
00100100
00011000
10000001
,
11111111
00000000
00000000
00000000
,
00000000
00000000
00000000
00000000
00000000
00000000
00000000
00000000
00000000
00000000
00000000
00000000
10010000
00001001
10010000
00001001
,
10010000
00000000
00000000
00000000
,
00011000
00000000
00011000
00000000
00011000
00000000
00011000
00000000
00011000
00000000
00011000
00011000
00011000
00000000
00000000
00000000
,
01000010
01000010
01000010
01000010
10000001
10000001
10000001
10000001
,
10000001
10000001
10000001
10000001
00100100
00100100
00100100
00100100
,
10000001
00100100
10000001
00100100
01000010
10000001
01000010
10000001
,
01000010
10000001
00100100
10000001
01000010
10000001
00100100
00100100
,
20011001
00000000
00000000
00000000
00001000
00000000
00000000
30000000
02001001
00000000
00000000
00000000
00001000
00000000
00000000
03000000
,
00201001
00000000
00000000
00000000
00001000
00000000
00000000
00300000
00021001
00000000
00000000
00000000
00001000
00000000
00000000
00030000
,
20000101
00000000
00000000
00000000
00000100
00000000
00000000
30000000
02000101
00000000
00000000
00000000
00000100
00000000
00000000
03000000
,
00200101
00000000
00000000
00000000
00000100
00000000
00000000
00300000
00020101
00000000
00000000
00000000
00000000
00000000
00000000
00030000
,
00020011
00000000
00000000
00000000
00000010
00000000
00000000
00030000
00200011
00000000
00000000
00000000
00000010
00000000
00000000
00300000
,
02000011
00000000
00000000
00000000
00000010
00000000
00000000
03000000
20000011
00000000
00000000
00000000
00000010
00000000
00000000
30000000
,
00021001
00000000
00000000
00000000
00001001
00000000
00000000
00030000
00201001
00000000
00000000
00000000
00001001
00000000
00000000
00300000
,
02001001
00000000
00000000
00000000
00001001
00000000
00000000
03000000
20001001
00000000
00000000
00000000
00000000
00000000
00000000
30000000
,
10000001
00100100
10000001
00100100
10000001
01000010
10000001
01000010
,
10000001
00100100
00100100
10000001
00100100
00100100
10000001
00100100
,
01000010
10000001
01000010
10000001
01000010
10000001
01000010
10000001
,
10000001
10000001
00100100
10000001
10000001
01000010
10000001
00100100
,
10000001
01000010
00100100
10000001
01000010
10000001
01000010
00100100
,
10000001
10000001
10000001
01000010
10000001
10000001
00100100
01000010
,
10000001
10000001
01000010
00100100
10000001
01000010
10000001
10000001
,
00100100
01000010
10000001
00100100
10000001
00100100
10000001
00100100
,
10010000
00000110
10010000
00000110
10010000
00000110
10010000
00000110
,
10010000
00000110
10010000
00000110
10010000
00000110
10010000
00000110
,
10010000
00000110
10010000
00000110
10010000
00000110
10010000
00000110
,
10010000
00000110
10010000
00000110
10010000
00000110
10010000
00000000
,
01100110
01100110
01100110
01100110
01100110
01100110
01100110
01100110
,
01100110
01100110
01100110
01100110
01100110
01100110
01100110
01100110
,
01100110
01100110
01100110
01100110
01100110
01100110
01100110
01100110
,
01100110
01100110
01100110
01100110
01100110
01100110
01100110
01100110
,
00222200
00000000
00000000
00000000
00000000
00000000
00000000
00000000
00333300
00000000
00000000
00000000
10000001
00011000
10000001
00011000
,
10000001
00000000
00000000
00000000
00000000
10011001
10011001
00111100
,
00111100
00000000
00000000
00000000
00000000
00000000
00000000
10000001
,
00100100
00000000
10000001
00000000
00011000
00000000
01000010
00000000
00011000
00000000
01000010
00000000
00011000
00000000
00022000
00033000
,
10000001
00100100
10000001
00100100
10000001
00100100
10000001
00100100
,
10000001
00100100
10000001
00100100
10000001
00100100
10000001
00100100
,
10000001
01000010
10000001
01000010
10000001
01000010
10000001
01000010
,
10000001
01000010
10000001
01000010
10000001
01000010
10000001
01000010
,
10000001
00100100
10000001
00100100
10000001
00100100
10000001
00100100
,
10000001
00100100
10000001
00100100
10000001
00100100
10000001
00100100
,
10000001
00100100
10000001
00100100
10000001
00100100
10000001
00100100
,
10000001
01000010
10000001
01000010
10000001
01000010
10000001
01000010
,
10000001
01000010
10000001
01000010
10000001
01000010
10000001
01000010
,
10000001
00100100
00100100
10000001
00100100
00100100
10000001
00100100
,
10000001
00100100
10000001
00100100
10000001
00100100
10000001
00100100
,
10000001
00100100
10000001
00100100
10000001
00100100
10000001
00100100
,
10000001
00100100
10000001
00100100
10000001
00100100
10000001
00100100
,
10000001
10000001
10000001
10000001
10000001
10000001
10000001
10000001
,
11000011
11000011
01011010
00111100
,
10011001
00000000
10011001
00000000
20011002
00011000
00011000
00011000
,
00022000
00000000
30033003
00000000
;

//---------------dance-double - Reality----------------
#NOTES:
     dance-double:
     Reality:
     Easy:
     8:
     1.000,1.000,1.000,0.322,0.006,319.000,245.000,26.000,0.000,5.000:
00000000
00000000
00000000
00000000
,
00000000
00000000
00000000
00000000
,
00000000
00000000
00000000
00000000
00000000
00000000
00000000
00000000
00000000
00000000
00000000
00022000
00000000
00000000
00000000
00033000
,
00011000
00010000
01000000
00100000
,
10000000
00000000
01000000
00000000
10000000
00000000
00001001
10010000
,
00001001
00100000
01000000
00010000
,
00001000
00010000
00001000
00010000
00001000
00010000
00001000
00000000
,
00011000
01000010
01000010
01000010
,
00011000
00100100
10000001
00011000
,
10000001
00100100
10000001
01000010
,
00011000
00100100
10000001
10000001
,
10000001
00100100
10000001
00011000
,
10000001
00100100
00011000
01000010
,
01000010
00100100
00100100
01000010
,
10000001
10000001
00011000
01000010
,
00100100
00100100
01000010
10000001
,
00100100
01000010
10000001
00011000
,
00011000
00100100
01000010
10000001
,
10000001
00100100
10000001
10000001
,
10011001
00011000
01000010
00011000
,
10000001
00011000
00011000
00100100
,
01000010
00011000
10000001
00100100
,
00011000
00100100
00100100
01000010
,
10000001
00000000
00000000
00000000
,
00000000
00000000
00000000
00000000
00000000
00000000
10010000
00001001
,
10010000
00000000
00000000
00000000
,
00010000
00001000
00010000
00001000
00010000
00011000
00011000
00000000
,
01000010
01000010
10000001
10000001
,
10000001
10000001
00100100
00100100
,
10000001
10000001
01000010
01000010
,
01000010
00100100
01000010
00100100
,
20000001
00000000
00000000
00000000
00001000
00000000
00000000
30000000
02000001
00000000
00000000
00000000
00001000
00000000
00000000
03000000
,
00200001
00000000
00000000
00000000
00001000
00000000
00000000
00300000
00020001
00000000
00000000
00000000
00001000
00000000
00000000
00030000
,
20000001
00000000
00000000
00000000
00000100
00000000
00000000
30000000
02000001
00000000
00000000
00000000
00000100
00000000
00000000
03000000
,
00200001
00000000
00000000
00000000
00000100
00000000
00000000
00300000
00020001
00000000
00000000
00000000
00000000
00000000
00000000
00030000
,
00020001
00000000
00000000
00000000
00000010
00000000
00000000
00030000
00200001
00000000
00000000
00000000
00000010
00000000
00000000
00300000
,
02000001
00000000
00000000
00000000
00000010
00000000
00000000
03000000
20000001
00000000
00000000
00000000
00000010
00000000
00000000
30000000
,
00020001
00000000
00000000
00000000
00001000
00000000
00000000
00030000
00200001
00000000
00000000
00000000
00001000
00000000
00000000
00300000
,
02000001
00000000
00000000
00000000
00001000
00000000
00000000
03000000
20001001
00000000
00000000
00000000
00000000
00000000
00000000
30000000
,
10000001
10000001
10000001
10000001
,
10000001
00100100
00100100
10000001
,
01000010
01000010
01000010
01000010
,
10000001
00100100
10000001
10000001
,
10000001
00100100
01000010
01000010
,
10000001
10000001
10000001
00100100
,
10000001
01000010
10000001
10000001
,
00100100
10000001
10000001
10000001
,
00010000
00000100
00010000
00000100
00010000
00000100
00010000
00000100
,
00010000
00000100
00010000
00000100
00010000
00000100
00010000
00000100
,
00010000
00000100
00010000
00000100
00010000
00000100
00010000
00000100
,
00010000
00000100
00010000
00000100
00010000
00000100
00010000
00000000
,
01000010
01000010
01000010
01000010
01000010
01000010
01000010
01000010
,
01000010
01000010
01000010
01000010
01000010
01000010
01000010
01000010
,
01000010
01000010
01000010
01000010
01000010
01000010
01000010
01000010
,
01000010
01000010
01000010
01000010
01000010
01000010
01000010
01000010
,
00022000
00000000
00000000
00000000
00033000
00000000
10000001
00011000
,
10000001
00000000
00000000
00000000
00000000
00011000
10000001
00100100
,
00011000
00000000
00000000
00000000
00000000
00000000
00000000
00000001
,
00000010
00000000
00000100
00000000
00001000
00000000
00010000
00000000
00100000
00000000
01000000
00000000
10000000
00000000
00022000
00033000
,
10000001
01000010
10000001
00100100
,
10000001
00011000
10000001
01000010
,
10000001
00100100
10000001
00011000
,
10000001
01000010
10000001
00100100
,
10000001
00011000
10000001
00011000
,
10000001
00100100
10000001
01000010
,
10000001
00011000
10000001
00100100
,
10000001
01000010
10000001
01000010
,
10000001
01000010
10000001
01000010
,
10000001
00100100
10000001
00100100
,
10000001
00100100
10000001
00011000
,
10000001
00011000
10000001
00011000
,
10000001
00100100
10000001
01000010
,
10000001
00100100
10000001
00011000
,
10000001
01000010
00100100
00011000
,
10000001
01000010
20011002
00011000
,
00022000
00000000
30033003
00000000
;

//---------------dance-double - Reality----------------
#NOTES:
     dance-double:
     Reality:
     Beginner:
     7:
     0.823,0.936,1.000,0.297,0.006,247.000,189.000,24.000,0.000,5.000:
00000000
00000000
00000000
00000000
,
00000000
00000000
00000000
00000000
,
00000000
00000000
00000000
00000000
00000000
00000000
00000000
00000000
00000000
00000000
00000000
00022000
00000000
00000000
00000000
00033000
,
00011000
00000000
01000000
00000000
,
10000000
00000000
00000000
00000000
10000000
00000000
00001000
00010000
,
00001000
00000000
01000000
00000000
,
00011000
00011000
00011000
00011000
,
00011000
00000000
00100010
00000000
,
10001000
00000000
00010001
00000000
,
00010001
00000000
00010001
00000000
,
10001000
00000000
00010001
00000000
,
00010001
00000000
00010001
00000000
,
00010001
00000000
10001000
00000000
,
00100010
00000000
01000100
00000000
,
00010001
00000000
10001000
00000000
,
01000100
00000000
00100010
00000000
,
01000100
00000000
00010001
00000000
,
10001000
00000000
00100010
00000000
,
00010001
00000000
00010001
00000000
,
00011000
00000000
01000100
00000000
,
10001000
00000000
00010001
00000000
,
01000100
00000000
10001000
00000000
,
00010001
00000000
00100010
00000000
,
10001000
00000000
00000000
00000000
,
00000000
00000000
00000000
00000000
00000000
00000000
00010000
00001000
,
00010000
00000000
00000000
00000000
,
00011000
00011000
00011000
00011000
,
01000100
00000000
10001000
00000000
,
10001000
00000000
00100010
00000000
,
10001000
00000000
01000100
00000000
,
01000100
00000000
01000100
00000000
,
00021000
00000000
00000000
00000000
00000001
00000000
00000000
00030000
00021000
00000000
00000000
00000000
00000001
00000000
00000000
00030000
,
00021000
00000000
00000000
00000000
00000001
00000000
00000000
00030000
00021000
00000000
00000000
00000000
00000001
00000000
00000000
00030000
,
00021000
00000000
00000000
00000000
00000100
00000000
00000000
00030000
00020001
00000000
00000000
00000000
00000100
00000000
00000000
00030000
,
00020001
00000000
00000000
00000000
00000100
00000000
00000000
00030000
00020001
00000000
00000000
00000000
00000000
00000000
00000000
00030000
,
00020001
00000000
00000000
00000000
00000010
00000000
00000000
00030000
00020001
00000000
00000000
00000000
00000010
00000000
00000000
00030000
,
00020001
00000000
00000000
00000000
00000010
00000000
00000000
00030000
00020001
00000000
00000000
00000000
00000010
00000000
00000000
00030000
,
00020001
00000000
00000000
00000000
00001000
00000000
00000000
00030000
00020001
00000000
00000000
00000000
00001000
00000000
00000000
00030000
,
00020001
00000000
00000000
00000000
00001000
00000000
00000000
00030000
00021001
00000000
00000000
00000000
00000000
00000000
00000000
00030000
,
00010001
00010001
00010001
00010001
,
00100010
00100010
00100010
00100010
,
01000100
01000100
01000100
01000100
,
10001000
10001000
10001000
10001000
,
10011001
00011000
00011000
00011000
,
10000001
10000001
10000001
10000001
,
00100010
00100010
00100010
00100010
,
01000100
01000100
01000100
01000100
,
00010000
00001000
00010000
00001000
00010000
00001000
00010000
00001000
,
00010000
00001000
00010000
00001000
00010000
00001000
00010000
00001000
,
00010000
00001000
00010000
00001000
00010000
00001000
00010000
00001000
,
00010000
00001000
00010000
00001000
00010000
00001000
00010000
00000000
,
00100010
00100010
00100010
00100010
,
00100010
00100010
00100010
00100010
,
00100010
00100010
00100010
00100010
,
00100010
00100010
00100010
00100010
,
00022000
00000000
00000000
00000000
00033000
00000000
00010000
00001000
,
00010000
00000000
00000000
00000000
00000000
00011000
00100100
00011000
,
00100100
00000000
00000000
00000000
,
00011000
00011000
00011000
00011000
,
00010001
00010001
00100010
00100010
,
01000100
01000100
10001000
10001000
,
10001000
10001000
01000100
01000100
,
00100010
00100010
00010001
00010001
,
10001000
10001000
01000100
01000100
,
00100010
00100010
00010001
00010001
,
10001000
10001000
10001000
10001000
,
01000100
01000100
01000100
01000100
,
00100010
00100010
00100010
00100010
,
00010001
00010001
00010001
00010001
,
10001000
01000100
00100010
00010001
,
10001000
01000100
00100010
00010001
,
00010001
00100010
01000100
10001000
,
00010001
00100010
01000100
10001000
,
10001000
01000100
00100010
00010001
,
10001000
01000100
20011002
00011000
,
00022000
00000000
30033003
00000000
;
