#TITLE:Duality;
#SUBTITLE:;
#ARTIST:KaW vs. ? vs. Inspector K;
#TITLETRANSLIT:;
#SUBTITLETRANSLIT:;
#ARTISTTRANSLIT:KaW vs. Smiley vs. Inspector K;
#CREDIT:;
#BANNER:duality.png;
#BACKGROUND:duality-bg.png;
#LYRICSPATH:;
#CDTITLE:;
#MUSIC:Duality.mp3;
#OFFSET:0.000;
#SAMPLESTART:93.094;
#SAMPLELENGTH:12.000;
#SELECTABLE:YES;
#BPMS:0.000=142.000,120.000=164.000,256.000=194.037;
#STOPS:;
#BGCHANGES:;
// cache tags:
#FIRSTBEAT:0.000;
#LASTBEAT:391.250;
#SONGFILENAME:Songs/stepmix .10/Duality/Duality.sm;
#HASMUSIC:1;
#HASBANNER:1;
#MUSICLENGTH:145.011;
// end cache tags

//---------------dance-single - E. Holniker----------------
#NOTES:
     dance-single:
     E. Holniker:
     Challenge:
     11:
     0.989,1.000,0.152,1.000,0.524,705.000,22.000,276.000,5.000,21.000:




0000
0000
0000
0000
,
0000
0000
0000
0000
,
0000
0000
0000
0000
,
0000
0000
0000
0000
,
2002
0000
0000
3003
0000
0000
0000
0000
,
2000
0000
3100
0010
0100
0000
0020
0000
0230
0000
1300
0001
1000
0000
0020
0000
,
2030
0000
3100
0010
0100
0000
0020
0000
2030
0000
3000
0100
0020
0000
0032
0000
,
2003
0000
3100
0010
0100
0000
0020
0000
0230
0000
1300
0100
1000
0000
0200
0000
,
0302
0000
0003
0020
0000
0030
0200
0000
0000
0000
0320
0000
0032
0000
0013
1000
,
0020
0000
0130
1000
0100
0000
2000
0000
3200
0000
0310
0001
0010
0000
0002
0000
,
0203
0000
0310
1000
0010
0000
0002
0000
0023
0000
0130
1000
0100
0000
2000
0000
,
3020
0000
0031
0010
0001
0000
0200
0000
0302
0000
0013
1000
0010
0000
1000
0100
,
1000
0000
0100
0010
0001
0000
0010
1000
0010
0000
0100
1000
0100
0000
0000
0000
,
2200
0000
0000
0000
0000
0000
0000
0000
0010
0000
0000
3000
0002
0000
0303
0000
,
MM20
0000
0031
0100
0001
0000
0020
0000
2030
0000
3100
1000
0100
0000
2000
0000
,
3020
0000
0031
0010
0001
0000
0200
0000
0320
0000
1030
0010
1000
0000
0002
0000
,
0203
0000
0310
0100
0010
0000
0002
0000
2003
0000
3100
0010
0100
0000
2000
0000
,
3020
0000
0030
0200
0000
0300
0002
0000
0023
0000
0230
0000
2300
0000
3100
1000
,
0200
0000
0310
0001
0010
0000
0020
0000
0230
0000
1300
0100
1000
0000
0020
0000
,
0002
0030
0000
0003
2000
0000
0000
0000
3020
0000
0030
0001
0200
0000
2300
0000
,
3020
0000
0031
0100
0001
0000
2000
0000
3200
0000
0310
0100
0010
0000
2000
0000
,
3002
0000
0003
0200
0000
0300
0020
0000
0032
0000
0013
0100
0010
0000
0100
1000
,
0100
0000
0010
0100
0010
0000
0001
0010
0002
0000
0000
0003
2000
0000
0020
0000
,
3030
0000
0010
0000
0100
0000
1000
0100
0010
0001
0010
0100
1000
0000
0010
0000
,
0100
0000
0000
0000
0010
0000
0001
0010
1000
0100
0010
0100
0010
0001
0100
0000
,
1000
0000
0100
0000
1100
0000
0001
0000
0100
0010
0001
0010
1000
0010
1000
0010
,
0100
0000
0001
0000
1100
0000
0001
0000
0010
0000
0100
0000
1000
0000
0010
0100
,
0010
0001
0010
1000
0010
0000
1000
0000
0100
0000
0010
0000
0110
0000
0001
1000
,
0010
0100
0010
0001
0010
0000
1000
0000
0100
0010
0100
0001
0100
0000
0010
0000
,
0001
1000
0010
0100
0010
0001
0010
0100
0010
1000
0010
1000
0010
0100
0010
0000
,
0220
0330
2000
0000
3200
0000
0320
0000
,
0032
0000
0003
0000
1000
0001
2000
0000
3000
0000
0200
0000
0320
0000
0000
0000
,
0230
0302
2003
0000
3020
0030
2000
0000
,
0200
0000
0000
0020
0000
3330
0000
MMM0
,
2020
3030
0002
0003
0200
0300
0020
0030
,
2000
0000
3200
0000
0320
0000
0032
0000
0023
0000
0230
0000
2300
0000
3010
0100
,
0020
0000
0032
0000
0023
0000
1030
0100
2000
0000
3020
0000
0032
0000
0013
0001
,
0010
0000
0100
1000
0100
0000
0010
0001
0010
0100
1000
0100
0010
0100
0010
0100
,
2000
3020
0230
0000
0302
0000
2003
0000
,
3020
0000
0000
0000
0030
0000
2000
0000
3020
0000
0032
0000
0203
0000
1300
0100
,
2000
0000
3002
0000
0023
0000
0130
0010
0200
0000
0000
0000
0320
0000
0030
0000
,
2020
0000
0000
0000
0000
0000
0002
0000
0000
0000
3033
0000
0200
0000
0310
0100
,
0020
0000
0032
0000
0023
0000
0130
1000
0200
0000
0320
0000
0230
0000
0310
1000
,
0010
0000
0100
0001
0200
0000
0310
1000
0200
0000
0301
0010
0200
0000
1300
0010
,
0100
0010
0001
0010
0001
0010
0001
0010
0001
0010
1000
0010
1000
0010
1000
0010
,
4000
0040
0000
0000
0000
0000
0000
0000
0000
0000
0000
0000
0000
0000
0000
0000
,
0001
0000
0000
0000
0000
0000
0000
3030
,
0200
0000
0302
0000
0203
0000
0320
0000
2030
0000
3200
0000
2300
0000
3200
0010
,
0302
0000
0023
0000
0230
0000
2300
0000
3020
0000
2030
0000
3020
0000
2030
0010
,
3002
0000
0023
0000
0230
0000
0320
1000
0230
0000
0320
0000
0032
0000
0023
0100
,
2030
0000
3020
0000
0230
0000
0320
0000
0031
0010
0100
0010
0200
0300
1000
0100
,
2000
3200
0320
0000
0002
0000
0030
0000
,
0023
0000
0230
0000
2300
0000
3020
0000
0230
0000
0000
0000
0320
0000
0230
0010
,
0302
0000
0203
0000
2300
0000
3001
0010
0000
0010
0001
0000
0100
0000
0010
1000
,
0010
0100
0010
0001
0010
0100
0010
0100
0010
1000
0100
0010
0100
0000
0001
0000
,
0200
0000
0000
1000
0000
0000
0010
0000
,
0001
0000
0000
0300
0000
0000
0020
0000
,
1000
0000
0000
0100
0000
0000
0100
0030
,
2000
0000
0010
0000
0100
0000
3010
0000
0001
0000
0010
1000
0010
0000
0100
0010
,
0200
0000
0000
0001
0000
0000
1000
0000
,
0010
0320
0100
1000
,
0001
0000
0000
0100
0000
0000
0130
0000
,
1000
0000
0000
0100
0000
0000
0010
0000
0000
0001
0000
0010
0000
0000
0100
0000
1000
0000
0000
0010
0000
0100
0000
0000
0010
0000
0000
0001
0000
0000
0020
0000
,
0200
0000
0000
0000
2002
0000
0330
3003
,
1000
0000
0010
0000
0100
0001
1000
0100
,
0010
0000
0001
0000
1000
0010
0100
0010
,
0001
0000
0000
0010
0000
0000
0010
0000
1000
0000
0000
0100
0000
0000
0010
0000
,
0001
0000
0000
1000
0000
0000
0010
0000
0100
0000
0000
0010
0000
0000
1000
0000
,
0100
0000
0000
1000
0000
0000
0000
0000
0010
0000
0100
0000
0001
0000
1000
0000
,
0100
0000
0010
0000
0001
0010
0100
1000
,
0010
0000
0000
0100
0000
0000
0010
0000
0001
0000
0000
0010
0000
0000
1000
0000
,
0100
0010
0001
0010
0100
1000
0100
1000
,
0110
0000
0000
0000
1001
0000
0000
0000
0110
0000
0000
0000
0001
0010
0001
0020
,
0002
0033
0010
0100
1000
0010
0100
0010
,
0202
0303
0010
0100
1000
0100
1000
0100
,
2200
0000
0000
3300
0010
0000
0100
0000
1000
0000
0100
0000
0010
0000
0100
0000
,
2020
3030
0100
0010
0010
0001
1000
0100
,
2200
3300
0100
0010
0100
0001
0010
0100
,
0202
0000
0303
0000
0010
0000
1000
0000
0010
0000
0100
0000
0010
0001
0010
0000
,
0022
0000
0033
0000
0000
0000
2020
0000
0000
3030
0000
0000
0202
0000
0000
0000
,
1000
0010
1000
0303
,
0020
0200
0030
0320
0002
0030
0023
0200
,
2030
0320
3000
2030
0020
3000
0230
0002
,
2300
0023
3000
2030
0200
3000
0320
0002
,
0230
2003
0300
3002
0020
0003
0230
0020
,
0302
2030
0003
3020
0200
0030
0320
0200
,
2030
0302
3000
2003
0020
3000
0230
0020
,
0302
2030
0003
3200
0020
0300
0032
0200
,
0023
2300
0030
3200
0002
0300
0023
1030
,
0000
0000
1000
0010
2000
0000
0020
3030
0000
0000
0100
0001
0100
0001
0200
0000
,
0300
0000
0010
1000
0020
0000
2000
3030
0000
0000
0001
0100
0001
0100
0002
0000
,
0003
0000
0100
0010
0200
0000
0020
0330
0000
0000
1000
0100
1000
0100
2000
0000
,
3000
0000
0001
0100
0002
0000
0200
0303
0000
0000
0010
0100
0010
0100
0010
0200
,
0300
0000
1000
0100
2000
0000
0200
3300
0000
0000
0010
0001
0010
0001
0020
0000
,
0030
0000
0100
1000
0200
0000
2000
3300
0000
0000
0010
0100
0010
0100
0020
0000
,
0030
0000
1000
0001
2000
0000
0002
3003
0000
0000
0100
0010
0100
0010
0200
0000
,
0300
0000
1000
0100
2000
0000
0200
3300
0000
0000
0010
0001
0010
0001
0010
0000
,
0220
0000
0000
0000
0000
0330
0000
0000
0000
0000
0000
0000
;

//---------------dance-single - Pags + Darkchao56----------------
#NOTES:
     dance-single:
     Pags + Darkchao56:
     Hard:
     9:
     0.730,0.843,0.269,0.710,0.228,599.000,39.000,103.000,76.000,6.000:







1000
0000
0000
0100
0000
0000
1000
0000
0001
0000
0100
0000
0010
0001
0020
0000
,
0100
0030
0000
0001
0000
0000
0010
0000
1000
0000
0001
0000
0100
0010
1000
0000
,
0010
0000
0000
0001
0000
0000
1000
0000
0100
0000
0010
0000
0001
0010
0100
0000
,
1000
0000
0000
0000
0000
0010
0000
0000
0001
0000
0000
0000
0000
0100
0000
0000
0010
0000
0000
0000
0000
1000
0000
0000
0010
0000
0100
0000
0010
0000
0000
0000
,
0202
0000
0000
0000
0000
0000
0000
0000
0000
0000
0000
0000
0000
0000
0000
0000
0000
0000
0000
0000
0000
0000
0000
0000
0000
0000
0000
0000
0000
0000
0000
0000
0000
0000
0000
0000
0000
0000
0000
0300
0003
0000
0000
0000
0000
0000
0000
0000
,
0110
0000
1000
0001
0100
0000
0010
0100
,
0001
0000
0000
0000
1000
0000
0000
0000
1000
0000
0000
0001
1000
0000
0001
0000
,
0010
0000
1000
0001
1000
0000
0100
0010
,
1000
0000
0000
0001
0000
0000
1000
0000
0001
0000
0100
0000
1000
0000
0100
0000
,
1000
M000
1000
0100
1000
0001
0100
0001
,
0010
0000
0100
0000
1000
0000
0010
0000
0100
0000
0001
0010
0100
0000
0010
0000
,
0100
1000
0100
0010
0001
0100
0010
1000
,
0011
0000
0000
0110
0000
0000
1100
0000
0011
0000
0001
0000
0220
0000
0000
0000
,
0001
0000
0000
0000
0000
0000
0000
0330
,
1001
0000
1000
0100
1000
0000
0001
1000
,
0001
0000
0000
0000
1M0M
0000
0MM0
M000
0MM1
0000
0MMM
1000
0001
0000
0100
0000
,
1000
0000
1000
0100
0010
0000
0001
0100
,
0010
0000
0000
0000
0000
0000
0000
0000
0000
00M1
0000
0000
MM00
0000
0000
0000
0M00
0000
10MM
0000
0000
0000
0M00
0000
0001
0000
0000
0000
0000
0000
0100
0000
0000
0000
0000
0000
1000
0000
0000
0000
0000
0000
0100
0000
0000
0000
0000
0000
,
0001
0000
1000
0100
0001
0000
1000
0001
,
1000
0000
0000
0000
0010
0000
0000
0000
0001
0000
0000
0100
1000
0000
0100
0000
,
10MM
0M0M
0MMM
1M0M
01MM
00M0
0MM0
0001
,
0010
MMMM
1M0M
MMM0
0100
1MM0
0001
0010
,
0002
0000
1000
0000
1000
0000
1000
0100
,
0003
0100
1000
0100
0010
0100
0001
0100
,
2000
0000
0001
0000
0001
0000
0001
3100
,
0000
0100
0001
0100
0010
0000
0110
0000
,
1000
0000
0001
0000
1000
0000
0100
0000
1000
0000
0010
0000
1000
0000
0100
0010
,
0001
0100
1000
0100
0001
0010
1000
0100
,
2000
3200
0320
0230
,
2300
3200
0320
0230
0320
0032
2003
3020
,
0130
0001
0100
1000
0100
0010
1000
0100
,
1000
0010
0100
0010
0001
1000
1010
0000
,
1000
0001
0100
1000
0010
0001
0010
0100
,
2002
0000
0003
3022
0000
0030
0003
0000
,
2001
3000
0010
0100
1000
0100
0010
1000
,
0100
0010
0001
1000
0100
1000
0001
0000
,
2002
0000
0000
0003
0001
0000
3000
0000
0202
0000
0000
0300
0100
0000
0003
0000
,
1100
0000
0110
0000
1000
0000
1000
0001
,
1000
0000
0100
1000
0001
0000
0001
0000
0100
0000
1000
0000
0001
0000
0001
0100
,
2000
0000
3000
0002
0000
0000
0103
0010
,
0100
0000
1000
0010
0100
0000
1000
0000
0001
0000
1000
0010
0001
0000
0010
0000
,
2000
0000
0000
3010
0000
0000
1000
0001
,
1000
0000
0100
0000
0100
0000
0001
0000
1000
0000
0010
0000
0100
0000
0100
0001
,
1000
0001
0100
0010
1000
0100
0010
0001
,
1000
0100
1000
0000
0010
0100
0010
0000
0001
1000
0001
0000
0010
0000
1000
0000
,
0100
0010
0100
0000
0001
0010
0001
0000
0100
0010
0100
0000
0001
0000
0100
0000
,
0020
0000
0000
0000
0000
0000
0000
0000
1001
0000
0000
0000
0000
0000
0000
0030
,
0001
0100
0001
0100
1000
0100
1000
0100
,
0010
0000
0100
0000
1000
0000
0010
0000
0001
0000
0100
000M
10M0
0M00
M000
0000
,
0100
0001
0100
0010
1000
0100
0010
0100
,
1000
0000
0010
0000
0001
0000
0010
0000
1000
0000
0100
0000
M010
0M00
00M0
000M
,
0010
0001
0010
0100
1000
0100
0010
0100
,
1000
0100
0010
0001
1000
0100
1000
0100
,
0010
0001
0200
0000
0310
0001
0020
0000
,
0130
0000
0001
0000
0100
0000
1000
0000
0010
0000
0000
0100
0000
0000
0001
0100
,
0020
0000
0000
0000
0000
0000
0002
0030
0000
0000
0000
0000
2000
0003
0000
0000
,
0200
0000
0000
0000
0000
0000
0000
0000
0000
3000
0000
0000
0002
0000
0300
0000
,
0020
0000
0003
0230
0000
0000
0320
0000
,
0200
0030
2300
0000
3200
0000
0302
0000
,
0203
0000
0000
2300
0000
0000
3200
0000
,
0310
0001
0010
0100
0010
0000
0101
0000
,
1000
0001
1000
0000
0010
0100
0010
0000
0010
0100
0010
0000
0100
1000
0100
0000
,
0001
0000
0000
0100
0000
0000
0000
0000
1000
0000
0000
0010
0000
0000
0000
0000
0100
0000
0000
1000
0000
0000
0000
0000
0010
0000
0000
0100
0000
0000
0000
0000
,
2002
0000
0000
0000
0000
0000
0000
3003
0000
0000
0000
0000
,
2200
0000
0000
0000
0000
0000
3322
0000
0000
0000
0033
0000
0000
0000
0000
0100
0000
0000
0010
0000
0000
0001
0000
0000
,
0020
0000
0000
0000
0000
0000
0000
0000
0000
0000
0000
0000
0030
0000
0000
0000
0000
0000
0000
0000
0000
0000
0000
0000
1000
0000
0000
0000
0000
0000
0000
0000
0100
0000
0000
0000
0000
0000
0000
0000
0000
0010
0000
0000
0000
0000
0000
0000
,
1010
0000
0000
0000
0000
0000
1000
0000
0000
0010
0000
0000
0100
0000
0000
0000
0000
0100
0000
0000
0000
1000
0000
0000
,
1001
0000
1000
0010
0200
0000
0320
0000
,
0032
0000
0000
0000
0203
0000
0000
0000
2300
0000
0000
0000
3000
0000
0001
1000
,
0002
0000
0003
0100
0000
0000
0010
0000
0000
0100
0000
0000
1000
0000
0100
0000
,
0010
0000
0000
0000
0000
0000
0000
0000
0000
0000
0000
0000
0000
0000
0000
0000
0000
0000
0000
0000
0000
0000
0000
0000
0000
0000
0000
0000
0000
0000
0000
0000
0000
0000
0000
0000
0000
0000
0000
0000
0001
0000
0000
0000
0000
0000
0000
0000
0000
0000
0000
0000
0000
0000
0000
0000
0000
0000
0000
0000
0000
0000
0000
0000
0000
0000
0000
0000
0000
0000
0000
0000
1000
0000
0000
0000
0000
0000
0000
0000
0000
0000
0000
0000
0000
0000
0000
0000
0000
0000
0000
0000
0000
0000
0000
0000
0000
0000
0000
0000
0000
0000
0000
0000
0000
0000
0000
0000
0000
0000
0000
0000
0000
0000
0010
0000
0000
0000
0000
0000
0000
0000
0000
0000
0000
0000
0000
0000
0000
0000
0000
0000
0000
0000
0000
0000
0000
0000
0000
0000
0000
0000
0000
0000
1000
0000
0000
0000
0000
0000
0000
0000
0000
0000
0000
0000
0000
0000
0000
0000
0000
0000
0000
0000
0000
0000
0000
0000
0100
0000
0000
0000
0000
0000
0000
0000
0000
0000
0000
0000
0000
0000
0000
0000
0000
0000
0000
0000
0000
0000
0000
0000
,
1000
0000
0000
0000
0000
0000
0000
0000
2200
0000
0000
3300
0000
0000
0000
0000
2002
0000
0000
3003
0000
0000
0000
0000
2002
0000
0000
3003
0000
0000
0000
0000
,
0022
0000
0000
0033
0000
0000
0000
0000
2200
0000
0000
3300
0000
0000
0000
0000
0022
0000
0000
0033
0000
0000
0000
0000
1000
0000
0000
0000
0100
0000
0000
0000
,
0010
0000
0001
0100
0002
0000
0000
0000
0000
0003
1000
0010
2000
0000
0000
0000
,
0000
3000
1000
0001
2000
0000
0000
0000
0000
3000
0100
0010
0200
0000
0000
0000
,
0000
0300
0001
0100
0002
0000
0000
0000
0003
0000
1000
0001
2000
0000
0000
0000
,
3000
0000
0000
0000
0000
0000
1000
0000
0000
0010
0000
0000
2000
0000
0000
0000
0000
0000
0000
0000
0000
0000
0000
0000
0000
0000
0000
3000
0000
0000
0000
0000
0000
0000
0000
0000
0012
0000
0000
0000
0000
0000
0000
0000
0003
0000
0000
0000
,
2001
0000
0000
0000
0000
0000
0000
0000
3000
0000
0000
0000
0002
0000
0000
0000
0000
0000
0000
0000
0000
0000
0000
0000
0000
0000
0000
0000
0000
0000
0000
0000
0000
0000
0000
0000
0003
0000
0000
0000
0000
0000
0100
0000
0000
0010
0000
0000
,
0200
0000
0000
0300
0000
0000
0102
0000
0000
0000
0100
0000
1003
0000
0100
0000
,
1100
0000
0001
0100
0000
1000
0001
0100
,
0120
0000
0100
0000
0100
0000
0100
0030
,
1000
0001
1000
0010
0100
0001
0100
0010
,
0001
0100
0010
0100
0001
0100
1000
0100
,
0010
0001
0010
1000
0010
0100
0010
0001
,
0022
0000
0033
0101
,
1010
0001
0010
0100
1000
0100
0010
0001
,
0200
0000
0000
0320
0000
0032
0020
0203
,
2030
0000
0000
0300
0000
0000
0200
0000
3000
0000
0302
0000
0100
0000
0203
0000
,
0010
0300
0000
MMMM
0000
MMMM
0000
MMMM
,
1000
0100
0010
0100
0001
1000
0100
M0MM
,
0010
0100
0001
0010
0100
1000
0100
M0MM
,
0001
0100
0001
0100
1000
0100
0001
MMMM
,
1000
0000
0001
1000
0020
0000
0000
0000
0130
0000
0001
0100
0002
0000
0000
0000
,
0103
1000
0001
1000
0100
1000
0010
0000
,
0001
0010
0001
0010
0001
0100
0001
M0MM
,
1000
0100
0001
0010
0001
0100
0010
0000
,
1001
0000
0010
0100
0020
0000
0000
0000
0130
0000
0001
1000
0002
0000
0000
0000
,
2000
0000
0000
0000
0000
0000
0000
0000
0000
0000
0000
0000
0000
3003
0000
0000
;

//---------------dance-single - E. Holniker----------------
#NOTES:
     dance-single:
     E. Holniker:
     Medium:
     7:
     0.461,0.506,0.248,0.166,0.000,408.000,36.000,24.000,0.000,1.000:

0000
0000
0000
0000
,
0000
0000
0000
0000
,
0000
0000
0000
0000
,
0000
0000
0000
0000
,
0220
0000
0000
0330
,
1000
0000
0000
0010
0100
0000
0000
0100
,
0001
0001
1000
1010
,
0110
0000
0000
0100
0001
0000
0000
1000
,
0010
1000
1000
0100
,
0010
0000
0000
0001
0010
0000
0000
0010
,
0100
0100
1000
1000
,
0010
0000
0000
0001
0100
0000
0000
0100
,
0010
0000
1000
0000
0100
1000
0100
0000
,
0020
0000
0000
0000
1000
0000
0000
0030
,
0001
0000
0000
1000
0010
0000
0000
0010
,
0100
0100
0001
1000
,
0100
0000
0000
0010
0001
0000
0000
0001
,
1000
1000
0010
0100
,
0001
0000
0000
1000
0100
0000
0000
0100
,
0010
0001
1000
0010
,
0100
0000
0000
1000
0100
0000
0000
0100
,
0010
0000
0001
0000
1000
0010
1000
0000
,
0001
0000
0100
0000
0010
0000
1000
0100
,
0000
0100
0010
0000
0001
0000
0010
0001
,
0010
0000
0100
0000
1000
0000
0010
0100
,
0000
0100
0000
0010
1000
0000
1000
0000
,
0100
0000
0010
0000
0001
0000
1000
0010
,
0000
0010
0000
0100
0001
0000
1000
0100
,
0010
0000
0001
0000
0010
0000
0100
1000
,
0000
1000
0000
0010
0100
0000
0001
0000
,
2002
0000
3003
0010
0100
0000
0100
0000
,
1000
0000
0000
0100
0000
0000
0010
0000
,
0001
1000
0001
1000
,
0020
0000
0000
0200
0000
0000
0330
0000
,
1000
0100
1000
0000
,
0001
0010
0100
0010
0100
0000
1000
0000
,
0010
0100
0001
1000
,
1100
0110
0101
1010
,
0100
0010
0100
0000
0001
0000
1000
0000
,
0200
0000
0000
0002
0000
0000
0000
0303
,
1000
0010
1000
0000
0001
0000
0100
0000
,
0020
0000
0000
2000
0000
0000
3030
0000
,
0010
0100
1000
0001
,
0100
0010
1000
0100
0010
0000
0100
0000
,
1000
0001
0100
0010
,
1010
1010
0101
0101
,
2020
0000
0001
3030
,
0100
0010
1000
0100
,
0020
0000
0000
0002
0000
0000
0000
0033
,
1000
0010
1000
0000
0001
0000
0100
0000
,
0020
0000
0000
2000
0000
0000
0000
3030
,
0100
0010
1000
0000
,
0100
0010
0001
0010
0100
0000
1000
0000
,
0010
0100
0010
1000
0100
0010
0100
0001
,
0100
0101
0101
0101
,
1000
0010
0100
0001
0100
0000
0020
0000
,
1000
1000
1030
0001
,
0100
0010
1000
0100
0010
0000
0001
0000
,
0200
0010
0010
0310
,
1000
0100
0010
0100
0001
0000
0001
0000
,
2000
0001
0001
3001
,
0100
0001
0100
0010
1000
0000
0100
0000
,
1100
0110
0101
1010
,
0220
0000
0000
0000
0000
0000
0000
0330
,
1000
0100
1000
0100
,
0010
0100
0010
0100
0010
0000
0100
0000
,
1000
0001
0100
0010
,
1000
0010
1000
0010
1000
0000
0001
0000
,
0100
0010
1000
0100
,
0010
0001
0010
0001
0010
0100
1000
0000
,
0010
0100
0001
1000
,
0100
1000
0100
1000
0000
1000
0001
0000
,
0100
0000
0110
0000
1010
0000
0001
1000
,
0100
0000
0010
0000
0001
0010
0100
1000
,
0010
0000
0000
0000
0100
0001
0010
0100
,
0010
1000
0100
0010
0000
0000
0010
0100
,
1000
0000
0010
0100
0000
0010
0100
0000
,
0001
1000
0000
0100
0010
0000
0010
0001
,
0010
0100
1000
0000
0010
0000
0100
0000
,
0010
1000
0100
0000
0010
0100
0010
0000
,
0100
1000
0100
0000
0010
0001
0010
0100
,
1000
0010
0100
0010
,
1000
0100
0010
0000
0001
0000
0010
0000
,
0100
0010
0100
0000
1000
0000
0010
0000
,
0100
0010
1000
0000
0001
0000
0100
0000
,
0010
1000
0010
0000
0100
0000
0001
0000
,
1000
0100
1000
0000
0100
0000
0010
0000
,
0001
0010
0100
1000
,
1010
1010
0101
0101
,
1000
0100
1000
0100
,
0010
0001
0010
0001
,
0100
0010
0100
0010
,
1100
1100
1010
1010
,
0001
0100
0010
1000
,
0100
0001
0100
0010
,
0001
1000
0010
0100
,
1100
1010
0101
0110
,
2200
0000
0000
3300
;

//---------------dance-single - E. Holniker----------------
#NOTES:
     dance-single:
     E. Holniker:
     Easy:
     4:
     0.336,0.370,0.034,0.069,0.000,326.000,5.000,10.000,0.000,0.000:

0000
0000
0000
0000
,
0000
0000
0000
0000
,
0000
0000
0000
0000
,
0000
0000
0000
0000
,
2020
0000
0000
0000
0000
3030
0000
0000
,
0100
0000
0001
0000
,
1000
0010
1000
0010
,
0100
0000
0001
0000
,
1000
0100
0010
0001
,
0010
0000
0100
0000
,
1000
0010
0100
0010
,
1000
0000
0100
0000
,
1000
0100
0010
0100
,
0202
0000
0000
0303
,
1000
0000
0010
0000
,
0100
0001
0100
0010
,
1000
0000
0100
0000
,
1000
0000
0100
0000
1000
0000
0100
1000
,
0100
0000
0010
0000
,
0001
0010
0100
0010
,
0100
0000
1000
0000
,
0010
0000
0100
0000
0010
0000
0100
0010
,
0100
1000
0100
0100
,
0010
0010
0001
0001
,
1000
1000
0010
0010
,
0100
0001
0100
0010
,
1000
1000
0100
0100
,
0010
0010
0001
0001
,
1000
1000
0010
0010
,
0100
0001
1000
0100
,
2200
0000
3300
0000
,
0100
0000
0000
0000
,
0010
0000
0000
0000
,
1000
0000
0001
0000
,
1000
0000
0010
0000
,
1000
0000
0010
0000
,
1000
0010
1000
0010
,
0100
0000
0001
0000
0100
0010
0100
0010
,
0100
0100
1000
0100
,
0010
0001
0010
0100
,
0010
0100
1000
0010
,
0100
0000
0010
0000
0001
0000
0010
0001
,
0010
1000
0100
0010
,
0100
0000
1000
0000
0100
0000
1000
0100
,
1000
0001
0010
0100
,
0010
0100
1000
0010
,
1010
0000
0000
0000
,
0100
0100
0010
0010
,
1000
0000
0000
0100
0000
0000
0000
0000
,
0010
0010
0001
0001
,
0100
0000
0000
0010
0000
0000
0000
0000
,
1000
1000
0100
0100
,
0010
0100
0010
0100
0010
0000
0100
0000
,
1000
1000
0001
0001
,
0100
0000
0010
0000
,
1000
0100
1000
0100
,
0010
0001
0010
0001
,
0010
0100
1000
0100
,
1000
1000
0010
0010
,
0100
0001
0100
0010
,
1000
0100
0001
0100
,
0010
0100
1000
0001
,
1000
1000
0010
0010
,
0200
0000
0002
0303
,
1000
1000
0010
0010
,
0100
0100
0001
0001
,
1000
1000
0010
0010
,
0100
0000
0001
0000
,
1000
0100
0010
0001
,
0010
0100
1000
0010
,
0100
0010
0001
0010
,
1000
0100
1000
0100
,
1000
1000
0001
0001
,
0100
0100
0010
1000
,
0100
0010
0100
0001
,
0100
1000
0010
0100
,
0010
0100
0010
0100
,
0010
0100
1000
1000
,
0100
0010
0001
0010
,
0100
1000
0010
1000
,
0010
0100
0010
0001
,
0010
0001
0010
0001
,
0010
1000
0010
1000
,
0100
1000
0100
1000
,
0100
0010
0100
0010
,
0001
0010
0001
0010
,
0100
0010
0100
0010
,
0100
1000
0100
1000
,
0010
1000
0010
1000
,
0001
1000
0001
0000
,
1000
0001
1000
0000
,
0001
1000
0001
0000
,
1000
1000
0010
0010
,
0100
0001
0100
0000
,
0010
0100
0010
0000
,
1000
0100
1000
0100
,
0010
0010
0100
0100
,
2002
0000
0000
0000
0000
3003
0000
0000
;

//---------------dance-single - E. Holniker----------------
#NOTES:
     dance-single:
     E. Holniker:
     Beginner:
     1:
     0.140,0.268,0.069,0.000,0.000,132.000,10.000,0.000,0.000,0.000:

0000
0000
0000
0000
,
0000
0000
0000
0000
,
0000
0000
0000
0000
,
0000
0000
0000
0000
,
1000
0000
0000
0000
,
0100
0000
0100
0000
,
0010
0000
0010
0000
,
1000
0000
1000
0000
,
0001
1000
0001
0000
,
0100
0000
0100
0000
,
0010
0000
0010
0000
,
1000
0000
1000
0000
,
0100
1000
0100
0000
,
0010
0000
0000
0000
,
0001
0000
0001
0000
,
1000
0000
1000
0000
,
0010
0000
0010
0000
,
0100
0000
0100
0000
,
1000
0000
0000
0000
,
0100
0000
0000
0000
,
0010
0000
0000
0000
,
0001
0000
1000
0000
,
0001
0000
0000
0000
,
0100
0000
0000
0000
,
0010
0000
0000
0000
,
1000
0000
0100
0000
,
1000
0000
0000
0000
,
0010
0000
0000
0000
,
0100
0000
1000
0000
,
0100
0000
0000
0000
,
1001
0000
0000
0000
,
0100
0000
0000
0000
,
0010
0000
0000
0000
,
1000
0000
0000
0000
,
1100
0000
0000
0000
,
0010
0000
0000
0000
,
0101
0000
0000
0000
,
0010
0000
0000
0000
,
1100
0000
0000
0000
,
0010
0000
0000
0000
,
0110
0000
0000
0000
,
0001
0000
0000
0000
,
1100
0000
0000
0000
,
1000
0000
0000
0000
,
1100
0000
0010
0000
,
0101
0000
0010
0000
,
1100
0000
0000
0000
,
0100
0000
0100
0000
,
0010
0000
0010
0000
,
1000
0000
1000
0000
,
0001
0000
1000
0000
,
0010
0000
0010
0000
,
0100
0000
1000
0000
,
0001
0000
0100
0000
,
0100
0000
0010
0000
,
1000
0000
0100
0000
,
1000
0000
0000
0000
,
0001
0000
0010
0000
,
0001
0000
0100
0000
,
0100
0000
0010
0000
,
0100
0000
0000
0000
,
1000
0000
0100
0000
,
1000
0000
0010
0000
,
0010
0000
0000
0000
,
1000
0000
0100
0000
,
1000
0000
0000
0000
,
0001
0000
0010
0000
,
0001
0000
0000
0000
,
0100
0000
0000
0100
,
0000
0000
0000
0000
,
1000
0000
0000
1000
,
0000
0000
0000
0000
,
0010
0000
0000
0010
,
0000
0000
0000
0000
,
1000
0000
0000
0000
,
0100
0000
0000
0000
,
0010
0000
0000
0000
,
0001
0000
0000
0000
,
1000
0000
0000
0000
,
0010
0000
0100
0000
,
0010
0000
0000
0000
,
1000
0000
0000
0000
,
0100
0000
0000
0000
,
0010
0000
0000
0000
,
0001
0000
0000
0000
,
1000
0000
0000
0000
,
0010
0000
0000
0000
,
0100
0000
1000
0000
,
0100
0000
0000
0000
,
1000
0000
0000
0000
,
0100
0000
0000
0000
,
1000
0000
0000
0000
,
0100
0000
0000
0000
,
1000
0000
0000
0000
,
0010
0000
0000
0000
,
0001
0000
0000
0000
,
0100
0000
0010
0000
,
1001
0000
0000
0000
;
