#TITLE:Revontulet;
#SUBTITLE:Silence (2001);
#ARTIST:Sonata Arctica;
#TITLETRANSLIT:;
#SUBTITLETRANSLIT:;
#ARTISTTRANSLIT:;
#CREDIT:SulferDragon;
#BANNER:Revontulet-banner.png;
#BACKGROUND:Revontulet-bg.png;
#LYRICSPATH:;
#CDTITLE:!SulferDragon.png;
#MUSIC:Revontulet.mp3;
#OFFSET:-0.144;
#SAMPLESTART:23.596;
#SAMPLELENGTH:10.400;
#SELECTABLE:YES;
#BPMS:0.000=183.000,3.000=176.000,16.000=178.000,22.500=162.000,23.000=185.000,24.000=176.000,31.000=184.000,32.000=177.700,43.000=164.000,44.000=178.000,57.000=175.000,64.000=179.000,68.000=139.000,69.000=134.000,82.500=153.000,84.250=206.000,85.000=134.000,98.500=153.000,100.250=206.000,101.000=136.000,106.500=181.000,108.000=143.000,109.000=133.000,113.000=128.000,116.000=160.000,117.000=134.000,122.750=122.000,123.000=164.000,124.000=188.000,125.000=135.000,133.000=134.000,146.500=153.000,148.250=202.000,149.000=134.600,162.500=153.000,166.000=143.000,166.500=153.000,168.000=139.800,175.500=133.000,176.000=169.000,179.000=176.000,188.000=180.000,191.000=184.000,192.000=179.000,200.000=174.000,208.000=120.000,212.000=173.000,212.500=160.000,213.000=170.000,213.500=213.000,214.000=177.000;
#STOPS:;
#BGCHANGES:;
// cache tags:
#FIRSTBEAT:0.000;
#LASTBEAT:224.000;
#SONGFILENAME:Songs/KBU/Revontulet (SulferDragon)/Revontulet.sm;
#HASMUSIC:1;
#HASBANNER:1;
#MUSICLENGTH:89.835;
// end cache tags

//---------------dance-single - ----------------
#NOTES:
     dance-single:
     :
     Hard:
     12:
     1.000,1.000,1.000,0.056,1.000,717.000,171.000,5.000,0.000,0.000:
0100
0010
0100
1000
0000
0000
0010
0001
0010
0100
0000
0000
0001
0100
0001
0010
0000
0000
0000
0000
0000
0000
0000
0000
,
0010
0100
0010
0001
0000
0000
0100
0001
0100
0010
0000
0000
1000
0010
1000
0100
0000
0000
1010
0000
0000
0000
0000
0000
,
1001
0010
0001
0100
0000
0000
0100
1000
0100
0010
0000
0000
0010
0100
0010
0001
0000
0000
0000
0000
0000
0000
0000
0000
,
0010
0100
0010
0001
0000
0000
0100
0001
0100
0010
0000
0000
1000
0010
1000
0100
0000
0000
1010
0000
0000
0000
0000
0000
,
0101
0010
0100
1000
0000
0000
0010
0001
0010
0100
0000
0000
0001
0100
0001
0010
0000
0000
0000
0000
0000
0000
0000
0000
,
0010
0100
0010
0001
0000
0000
0100
0001
0100
0010
0000
0000
1000
0010
1000
0100
0000
0000
1010
0000
0000
0000
0000
0000
,
1001
0010
0001
0100
0000
0000
0100
1000
0100
0010
0000
0000
0010
0100
0010
0001
0000
0000
0000
0000
0000
0000
0000
0000
,
0011
0100
0010
0001
0000
0000
0110
0001
0100
0010
0000
0000
1100
0010
1000
0100
0000
0000
1010
0000
0000
0000
0000
0000
,
0101
0010
0100
1000
0001
0100
1010
0001
0010
0100
0000
0000
0001
0100
0001
0010
0000
0000
1100
0000
0000
0000
0000
0000
,
0010
0100
0010
0001
0000
0000
1100
0001
0100
0010
0000
0000
1000
0010
1000
0100
0000
0000
1010
0000
0000
0000
0000
0000
,
1001
0010
0001
0100
1000
0010
0101
1000
0100
0010
0000
0000
0010
0100
0010
0001
0000
0000
1100
0000
0000
0000
0000
0000
,
0010
0100
0010
0001
0000
0000
1100
0001
0100
0010
0000
0000
1000
0010
1000
0100
0000
0000
1010
0000
0000
0000
0000
0000
,
0101
0010
0100
1000
0001
0100
1010
0001
0010
0100
0000
0000
0001
0100
0001
0010
0000
0000
1100
0000
0000
0000
0000
0000
,
0010
0100
0010
0001
0000
0000
1100
0001
0100
0010
0000
0000
1000
0010
1000
0100
0000
0000
1010
0000
0000
0000
0000
0000
,
1001
0010
0001
0100
1000
0010
0101
1000
0100
0010
0000
0000
0010
0100
0010
0001
0000
0000
1100
0000
0000
0000
0000
0000
,
0010
0100
0010
0001
0000
0000
1100
0001
0100
0010
0000
0000
1000
0010
1000
0100
0000
0000
1010
0000
0000
0000
0000
0000
,
1100
0010
0100
0001
1000
0100
0010
0001
1000
0010
0100
0001
,
2200
0000
0000
0000
0000
3300
0000
0000
0101
0000
0010
0000
0100
0000
1000
0000
0011
0000
0100
0000
0010
0000
0001
0000
1000
0000
0010
0000
0100
0000
0001
0000
,
1010
0000
0100
0000
0010
0000
0100
0000
1001
0000
0000
0000
0011
0000
0000
0000
1100
0000
0000
0000
1100
0000
0000
0000
1000
0100
0010
0001
0100
0010
1000
0001
,
0110
0000
1010
0000
0101
0010
0100
1000
0011
0100
0010
0001
1000
0010
0100
0001
,
1010
0000
0000
0100
0000
0000
0010
0000
0000
0100
0000
0000
1001
0000
0000
0000
0000
0000
0011
0000
0000
0000
0000
0000
1100
0000
0000
0000
0000
0000
1100
0000
0000
0000
0000
0000
1001
0000
0000
1001
0000
0010
0000
1000
0000
0100
0000
0010
,
0000
0001
0000
1010
0000
0000
0000
0000
0000
0000
0000
0000
0101
0000
0000
0010
0000
0000
0100
0000
0000
1000
0000
0000
0011
0000
0000
0100
0000
0000
0010
0000
0000
0001
0000
0000
1000
0000
0000
0010
0000
0000
0100
0000
0000
0001
0000
0000
,
1010
0000
0100
0000
0010
0000
0100
0000
1001
0000
0000
0000
0011
0000
0000
0000
1100
0000
0000
0000
1100
0000
0000
0000
1000
0100
0010
0001
0100
0010
1000
0001
,
0110
0000
1010
0000
0101
0010
0100
1000
0011
0100
0010
0001
1000
0010
0100
0001
,
1010
0000
0000
0100
0000
0000
0010
0000
0000
0100
0000
0000
1001
0000
0000
0000
0000
0000
0011
0000
0000
0000
0000
0000
1100
0000
0000
0000
0000
0000
1100
0000
0000
0000
0000
0000
1001
0000
0000
1001
0000
0010
0000
1000
0000
0100
0000
0010
,
0000
0001
0000
1010
0000
0000
0000
0000
0000
0000
0000
0000
0011
0000
0000
0000
0000
0000
0000
0000
0000
0110
0000
0000
0000
0000
0000
0000
0000
0000
1010
0000
0000
0000
0000
0000
0000
0000
0000
0101
0000
0000
0000
0000
0000
0000
0000
0000
,
1001
0000
0000
0000
0011
0000
0000
0110
0000
0000
1010
0000
0000
0110
0000
0000
,
0101
0000
0000
0000
0011
0000
0000
0110
0000
0000
1010
0000
0000
0101
0000
0000
,
1001
0000
0000
0000
0011
0000
0000
0110
0000
0000
1010
0000
0000
0101
0000
0000
,
1001
0000
0000
0000
0001
0010
1100
0010
0100
0010
0101
1000
0100
1000
0011
0100
,
0010
0000
0001
0000
1010
0000
0100
0000
0001
0000
0010
0000
1100
0000
0010
0000
0100
0000
0010
0000
0101
0000
1000
0000
0011
0000
0000
0000
0000
0101
0000
0000
,
1100
0000
0000
0000
1001
0010
1100
0010
0100
0010
0101
1000
0100
1000
0011
0100
,
0010
0001
1010
0100
0001
0010
1100
0010
0100
0010
0101
1000
0100
0010
1100
0010
,
1001
0100
0011
1000
0101
0010
0100
1000
0011
0100
0010
0001
1000
0010
0100
0001
,
1010
0000
0100
0000
0010
0000
0100
0000
1001
0000
0000
0000
0011
0000
0000
0000
1100
0000
0000
0000
1100
0000
0000
0000
1000
0100
0010
0001
0100
0010
1000
0001
,
0110
0000
1010
0000
0101
0010
0100
1000
0011
0100
0010
0001
1000
0010
0100
0001
,
1010
0000
0000
0100
0000
0000
0010
0000
0000
0100
0000
0000
1001
0000
0000
0000
0000
0000
0011
0000
0000
0000
0000
0000
1100
0000
0000
0000
0000
0000
1100
0000
0000
0000
0000
0000
1001
0000
0000
1001
0000
0010
0000
1000
0000
0100
0000
0010
,
0000
0001
0000
1010
0000
0000
0000
0000
0000
0000
0000
0000
0101
0000
0000
0010
0000
0000
0100
0000
0000
1000
0000
0000
0011
0000
0000
0100
0000
0000
0010
0000
0000
0001
0000
0000
1000
0000
0000
0010
0000
0000
0100
0000
0000
0001
0000
0000
,
1010
0000
0100
0000
0010
0000
0100
0000
1001
0000
0000
0000
0011
0000
0000
0000
1100
0000
0000
0000
1100
0000
0000
0000
1000
0100
0010
0001
0100
0010
1000
0001
,
0110
0000
1010
0000
0101
0010
0100
1000
0011
0100
0010
0001
1000
0010
0100
0001
,
1010
0000
0000
0100
0000
0000
0010
0000
0000
0100
0000
0000
1001
0000
0000
0000
0000
0000
0011
0000
0000
0000
0000
0000
1100
0000
0000
0000
0000
0000
1100
0000
0000
0000
0000
0000
1001
0000
0000
1001
0000
0010
0000
1000
0000
0100
0000
0010
,
0000
0000
0000
0000
0001
0000
0000
0000
0000
0000
0000
0000
1010
0000
0000
0000
0000
0000
0000
0000
0000
0000
0000
0000
0000
0000
0000
0000
0000
0000
0000
0000
0000
0000
0000
0000
1001
0000
0000
0000
0000
0000
0000
0000
0000
0000
0000
0000
1001
0000
0000
0000
0000
0000
0000
0000
0010
0000
0000
0000
0000
0000
0000
0000
1000
0000
0000
0000
0000
0000
0000
0000
0100
0000
0000
0000
0000
0000
0000
0000
0010
0000
0000
0000
0000
0000
0000
0000
0001
0000
0000
0000
0000
0000
0000
0000
1010
0000
0000
0000
0000
0000
0000
0000
0000
0000
0000
0000
0000
0000
0000
0000
0000
0000
0000
0000
0000
0000
0000
0000
1001
0000
0000
0000
0000
0000
0000
0000
0000
0000
0000
0000
1001
0000
0000
0000
0000
0000
0000
0000
0010
0000
0000
0000
0000
0000
0000
0000
1000
0000
0000
0000
0000
0000
0000
0000
0100
0000
0000
0000
0000
0000
0000
0000
0010
0000
0000
0000
0000
0000
0000
0000
0001
0000
0000
0000
0000
0000
0000
0000
0000
0000
0000
0210
0000
0000
0000
0000
0000
0000
0000
0000
,
0000
0000
0000
0000
,
0000
0000
0000
0000
0000
0010
0010
0310
,
1100
0010
0100
1000
0000
0000
0010
0001
0010
0100
0000
0000
0001
0100
0001
0010
0000
0000
0000
0000
0000
0000
0000
0000
,
0010
0100
0010
0001
0000
0000
0100
0001
0100
0010
0000
0000
1000
0010
1000
0100
0000
0000
1010
0000
0000
0000
0000
0000
,
1001
0010
0001
0100
0000
0000
0100
1000
0100
0010
0000
0000
0010
0100
0010
0001
0000
0000
0000
0000
0000
0000
0000
0000
,
0010
0100
0010
0001
0000
0000
0100
0001
0100
0010
0000
0000
1000
0010
1000
0100
0000
0000
1010
0000
0000
0000
0000
0000
,
0101
0010
0100
1000
0001
0100
1010
0001
0010
0100
0000
0000
0001
0100
0001
0010
0000
0000
1100
0000
0000
0000
0000
0000
,
0010
0100
0010
0001
0000
0000
1100
0001
0100
0010
0000
0000
1000
0010
1000
0100
0000
0000
1010
0000
0000
0000
0000
0000
,
1001
0010
0001
0100
1000
0010
0101
1000
0100
0010
0000
0000
0010
0100
0010
0001
0000
0000
1100
0000
0000
0000
0000
0000
,
0010
0100
0010
0001
0000
0000
1100
0001
0100
0010
0000
0000
1000
0010
1000
0100
0000
0000
1010
0000
0000
0000
0000
0000
,
1100
0010
0100
0001
1000
0100
0010
0001
1000
0010
0100
0001
,
1100
0000
0010
0000
0100
0000
1000
0000
0000
0000
0000
0000
0010
0000
0100
0000
0010
0000
0001
0000
0000
0000
0000
0000
1001
0000
0000
0100
0000
0000
0010
0000
0000
1000
0000
0000
0100
0000
0000
1000
0000
0000
0100
0000
0000
0010
0000
0000
,
0100
0000
0010
0000
0001
0000
0100
0000
0010
0000
0100
0000
1000
0000
0010
0000
0100
0000
0010
0000
0001
0100
0010
0000
1000
0000
0010
0100
1000
0010
0100
0000
,
0001
1000
0010
0100
0001
0100
1000
0010
2002
0000
0000
0000
0000
0003
0000
0000
,
3000
0000
0000
0000
;

//---------------dance-single - ----------------
#NOTES:
     dance-single:
     :
     Medium:
     11:
     1.000,1.000,1.000,0.256,1.000,629.000,138.000,23.000,0.000,0.000:
1000
0010
1000
0010
0000
0000
0100
0010
0100
0010
0000
0000
0100
0001
0100
0001
0000
0000
0000
0000
0000
0000
0000
0000
,
0001
0010
0001
0010
0000
0000
0100
0010
0100
0010
0000
0000
1000
0100
1000
0100
0000
0000
1001
0000
0000
0000
0000
0000
,
1001
0010
1000
0010
0000
0000
1000
0001
1000
0001
0000
0000
0100
0001
0100
0001
0000
0000
0000
0000
0000
0000
0000
0000
,
0010
0001
0010
0001
0000
0000
0100
0001
0100
0001
0000
0000
1000
0100
0010
0001
0000
0000
1100
0000
0000
0000
0000
0000
,
0101
0010
0100
0010
0000
0000
1000
0010
1000
0010
0000
0000
0001
0010
0001
0010
0000
0000
0000
0000
0000
0000
0000
0000
,
0001
0100
0001
0100
0000
0000
0001
1000
0001
1000
0000
0000
0100
1000
0100
1000
0000
0000
0110
0000
0000
0000
0000
0000
,
1001
0010
0100
1000
0000
0000
0010
0100
0001
1000
0000
0000
0001
0010
0100
1000
0000
0000
0000
0000
0000
0000
0000
0000
,
0110
1000
0010
1000
0000
0000
1010
0001
1000
0001
0000
0000
0011
0100
0001
0100
0000
0000
1001
0000
0000
0000
0000
0000
,
0001
0010
0100
1000
0000
0000
1010
0100
0010
0001
0000
0000
0001
0010
0100
1000
0000
0000
0101
0000
0000
0000
0000
0000
,
0001
0010
0001
0010
0000
0000
1100
0010
0100
0010
0000
0000
1000
0100
1000
0100
0000
0000
1001
0000
0000
0000
0000
0000
,
1001
0100
0010
0001
0000
0000
0101
0010
0100
1000
0000
0000
1000
0100
0010
0001
0000
0000
1010
0000
0000
0000
0000
0000
,
0010
0100
0010
0100
0000
0000
1100
0001
1000
0001
0000
0000
0010
0100
0001
1000
0000
0000
0011
0000
0000
0000
0000
0000
,
0011
0100
0010
1000
0000
0000
1100
0010
0100
0001
0000
0000
0001
0100
0010
1000
0000
0000
0011
0000
0000
0000
0000
0000
,
0001
0100
0001
0100
0000
0000
1001
0010
0100
1000
0000
0000
0010
1000
0010
1000
0000
0000
0110
0000
0000
0000
0000
0000
,
0011
0100
0010
1000
0000
0000
1100
0010
0100
0001
0000
0000
0001
0100
0010
1000
0000
0000
0011
0000
0000
0000
0000
0000
,
0010
0100
0001
1000
0000
0000
1010
0100
0010
0100
0000
0000
0001
0010
0100
1000
0000
0000
0101
0000
0000
0000
0000
0000
,
1100
0010
0100
0001
1000
0100
0010
0001
1000
0010
0100
0001
,
2200
0000
0000
0000
0000
3300
0000
0000
0101
0000
0010
0000
0100
0000
1000
0000
0010
0000
0100
0000
0010
0000
0001
0000
1000
0000
0010
0000
0100
0000
0001
0000
,
0010
0100
0010
0100
1001
0000
0011
0000
1100
0000
1100
0000
0020
0000
0000
0030
,
1001
0000
0110
0000
0101
0010
0100
1000
0010
0100
0010
0001
1000
0010
0100
0001
,
0010
0100
0010
0100
1001
0000
0011
0000
1100
0000
1100
0000
1001
0220
0000
0000
,
0330
1010
0000
0000
0101
0010
0100
1000
0010
0100
0010
0001
1000
0010
0100
0001
,
0010
0100
0010
0100
1001
0000
0011
0000
1100
0000
1100
0000
0020
0000
0000
0030
,
1001
0000
0110
0000
0101
0010
0100
1000
0010
0100
0010
0001
1000
0010
0100
0001
,
0010
0100
0010
0100
1001
0000
0011
0000
1100
0000
1100
0000
1001
0220
0000
0000
,
0330
1010
0000
0000
0011
0000
0000
0110
0000
0000
1010
0000
0000
0101
0000
0000
,
1001
0000
0000
0000
0011
0000
0000
0110
0000
0000
1010
0000
0000
0110
0000
0000
,
0101
0000
0000
0000
0011
0000
0000
0110
0000
0000
1010
0000
0000
0101
0000
0000
,
1001
0000
0000
0000
0011
0000
0000
0110
0000
0000
1010
0000
0000
0101
0000
0000
,
1001
0000
0000
0000
0001
0010
0000
0010
0100
0000
0100
1000
0000
1000
0001
0000
,
0100
0000
0010
0000
1000
0000
0000
0000
0001
0000
0010
0000
0000
0000
0010
0000
0100
0000
0000
0000
0100
0000
1000
0000
0011
0000
0000
0000
0000
0101
0000
0000
,
1100
0000
0000
0000
0001
0010
0000
0010
0100
0000
0100
1000
0000
1000
0001
0000
,
0100
0010
1000
0000
0001
0010
0100
0010
0100
1000
0100
0010
0001
1000
0010
0100
,
2020
0000
0000
3030
0101
0010
0100
1000
0010
0100
0010
0001
1000
0010
0100
0001
,
0010
0100
0010
0100
1001
0000
0011
0000
1100
0000
1100
0000
0020
0000
0000
0030
,
1001
0000
0110
0000
0101
0010
0100
1000
0010
0100
0010
0001
1000
0010
0100
0001
,
0010
0100
0010
0100
1001
0000
0011
0000
1100
0000
1100
0000
1001
0220
0000
0000
,
0330
1010
0000
0000
0101
0010
0100
1000
0010
0100
0010
0001
1000
0010
0100
0001
,
0010
0100
0010
0100
1001
0000
0011
0000
1100
0000
1100
0000
0020
0000
0000
0030
,
1001
0000
0110
0000
0101
0010
0100
1000
0010
0100
0010
0001
1000
0010
0100
0001
,
0010
0100
0010
0100
1001
0000
0011
0000
1100
0000
1100
0000
1001
0220
0000
0000
,
0330
0000
0000
0000
1010
0000
0000
0000
0000
0000
0000
0000
1001
0000
0000
0000
0220
0000
0000
0000
0000
0000
0000
0000
0000
0000
0000
0000
0330
0000
0000
0000
1010
0000
0000
0000
0000
0000
0000
0000
1001
0000
0000
0000
0220
0000
0000
0000
0000
0000
0000
0000
0000
0000
0000
0000
0330
0000
0000
0000
0000
0210
0000
0000
,
0000
0000
0000
0000
,
0000
0000
0000
0000
0000
0010
0010
0310
,
1010
0100
0010
0100
0000
0000
0001
0100
0001
0100
0000
0000
1000
0100
1000
0100
0000
0000
0000
0000
0000
0000
0000
0000
,
1000
0100
1000
0100
0000
0000
1000
0001
1000
0001
0000
0000
0010
0001
0010
0001
0000
0000
0110
0000
0000
0000
0000
0000
,
1001
0010
1000
0010
0000
0000
0100
0010
1000
0001
0000
0000
1000
0100
0010
0001
0000
0000
0000
0000
0000
0000
0000
0000
,
0010
0001
0010
0001
0000
0000
0100
0010
1000
0001
0000
0000
1000
0100
1000
0100
0000
0000
1001
0000
0000
0000
0000
0000
,
1000
0100
0010
0001
0000
0000
0101
0010
0100
1000
0000
0000
1000
0100
0010
0001
0000
0000
1010
0000
0000
0000
0000
0000
,
1000
0100
1000
0100
0000
0000
0011
0100
0010
0100
0000
0000
0001
0010
0001
0010
0000
0000
1001
0000
0000
0000
0000
0000
,
1001
0010
0100
1000
0000
0000
1010
0100
0010
0001
0000
0000
0001
0010
0100
1000
0000
0000
0101
0000
0000
0000
0000
0000
,
0100
0010
0100
0010
0000
0000
0011
1000
0001
1000
0000
0000
0100
0010
1000
0001
0000
0000
1100
0000
0000
0000
0000
0000
,
1100
0010
0100
0001
1000
0100
0010
0001
1000
0010
0100
0001
,
1100
0000
0010
0000
0100
0000
0001
0000
0000
0000
0000
0000
1000
0000
0100
0000
0010
0000
0001
0000
0000
0000
0000
0000
1001
0000
0000
0100
0000
0000
0010
0000
0000
1000
0000
0000
0100
0000
0000
1000
0000
0000
0100
0000
0000
0010
0000
0000
,
0100
0010
0001
0100
0001
0100
0010
1000
0100
1000
0001
0100
0010
1000
0100
0010
,
0001
1000
0010
0100
0010
1000
0100
0010
2002
0000
0000
0000
0000
0003
0000
0000
,
3000
0000
0000
0000
;
