#TITLE:This Cocaine Makes Me Feel Like I'm On This Song;
#SUBTITLE:;
#ARTIST:System Of A Down;
#TITLETRANSLIT:;
#SUBTITLETRANSLIT:;
#ARTISTTRANSLIT:;
#CREDIT:;
#BANNER:TCMMFLIOTS.png;
#BACKGROUND:TCMMFLIOTS-bg.png;
#LYRICSPATH:;
#CDTITLE:!therairaicdtitle.png;
#MUSIC:System of a Down - This Cocaine Makes Me Feel Like I'm On This Song.mp3;
#OFFSET:-0.080;
#SAMPLESTART:107.905;
#SAMPLELENGTH:12.000;
#SELECTABLE:YES;
#BPMS:0.000=110.720,16.000=216.800,124.000=215.940,131.000=215.300,152.000=215.400,156.000=215.620,160.000=216.800,192.000=205.160,208.000=210.180,216.000=211.040,232.000=209.900,256.000=208.860,311.000=209.280,312.000=209.720,336.000=210.000,352.000=210.900,368.000=210.280,380.000=208.820,384.000=207.320,388.000=206.680;
#STOPS:;
#BGCHANGES:;
// cache tags:
#FIRSTBEAT:0.000;
#LASTBEAT:432.000;
#SONGFILENAME:Songs/Fresh Flock of Fantastic Files F4/(The Rai Rai) TCMMFLIOTS/TCMMFLIOTS.sm;
#HASMUSIC:1;
#HASBANNER:1;
#MUSICLENGTH:128.318;
// end cache tags

//---------------dance-single - ----------------
#NOTES:
     dance-single:
     :
     Hard:
     13:
     1.000,1.000,1.000,0.148,0.292,801.000,320.000,19.000,0.000,0.000:
1010
1010
0010
0010
0010
0010
0011
0101
,
1100
1100
0100
0100
0100
0100
0101
0011
,
1001
1001
1000
1000
1000
1000
1001
0011
,
0101
0101
0001
0001
0001
0001
0101
1010
,
1001
0000
1001
0001
1000
0010
0100
0001
,
0200
0300
0010
1000
1100
0000
1010
0000
,
1001
0000
1001
1000
0001
0100
0010
1000
,
0020
0030
0100
0001
0011
0000
0101
0000
,
1001
0000
1001
0001
0100
1000
0001
0010
,
0002
0003
1000
0100
0101
0000
1100
0000
,
1001
0000
1001
1000
0010
0001
1000
0100
,
1000
1010
0001
0010
1001
0000
0011
0000
,
1001
0000
1001
1000
0010
0001
1000
0100
,
2000
3000
0001
0010
1010
0000
0011
0000
,
1001
0000
1001
0001
0100
1000
0001
0010
,
0002
0003
1000
0100
0101
0000
1100
0000
,
1001
0000
1001
0001
1000
0010
0100
0001
,
0200
0300
0010
1000
1100
0000
1010
0000
,
1001
0000
1001
1000
0001
0100
0010
1000
,
1001
0010
0100
1001
0110
0100
1001
0000
,
1000
0100
1001
1001
0100
0010
1001
0100
,
0100
0001
0110
0110
0001
1000
0110
0001
,
0001
0010
1001
1001
0010
0100
1001
0010
,
0010
1000
0110
0110
1000
0001
0110
1000
,
1001
0100
1001
0010
1001
0100
1001
0000
,
0110
0001
0110
1000
0110
0001
0110
0000
,
0201
0310
1001
0100
1001
0010
1001
0100
,
0012
1003
0110
0001
0110
1000
0110
0001
,
1001
1000
0001
0100
0001
1000
0100
1000
,
0001
0100
0001
1000
0100
1000
0001
0100
,
0001
1000
0100
1000
0100
0010
0100
1000
,
0100
0010
0001
0010
0001
0100
0001
1000
,
1001
0000
1001
0000
,
1001
1001
1001
1001
,
0001
0100
0010
1000
0100
0010
0100
1000
0010
0100
0001
0010
0100
1000
0010
0100
,
1000
0010
0100
0001
0010
0100
0010
0001
0100
0010
1000
0100
0010
0001
0100
0010
,
1000
0100
0010
0100
1000
0010
0100
0001
0010
0100
1000
0100
0010
0001
1000
0010
,
1000
0100
0010
1000
0100
0010
0100
1000
0010
0100
0001
0010
0100
1000
0010
0100
,
1001
0000
1001
0000
,
1001
1001
1001
1001
,
0001
0010
1001
1001
0010
0100
1001
0010
,
0010
1000
0110
0110
1000
0001
0110
1000
,
1000
0100
1001
1001
0100
0010
1001
0100
,
0100
0001
0110
0110
0001
1000
0110
0001
,
1001
0010
1001
0100
1001
0010
1001
0000
,
0110
1000
0110
0001
0110
1000
0110
0000
,
1020
0130
1001
0010
1001
0100
1001
0010
,
2100
3001
0110
1000
0110
0001
2010
3000
,
1001
0000
1001
0000
0110
0010
0001
1100
,
0000
1100
0101
0000
0011
0000
1100
0000
,
1001
0000
1001
0000
0110
1000
0010
0101
,
0000
0101
0011
0000
1010
0000
0101
0000
,
1001
0000
1001
0000
1001
0001
0100
1010
,
0000
1010
1100
0000
0101
0000
1010
0000
,
1001
0000
1001
0000
1001
0010
0001
1100
,
0000
1100
0101
0000
0011
0000
1100
0000
,
1001
0000
1001
0000
0110
0100
1000
0011
,
0000
0011
1010
0000
1100
0000
0011
0000
,
1001
0000
1001
0000
0110
0001
0100
1010
,
0000
1010
1100
0000
0101
0000
1010
0000
,
1001
0000
1001
0000
1100
1000
0010
0101
,
0000
0101
0011
0000
1010
0000
0101
0000
,
1001
0000
1001
0000
1010
0100
1000
0011
,
0000
0011
1010
0000
1100
0000
0011
0000
,
0001
0010
1001
1001
0010
0100
1001
0010
,
0010
1000
0110
0110
1000
0001
0110
1000
,
1000
0100
1001
1001
0100
0010
1001
0100
,
0100
0001
0110
0110
0001
1000
0110
0001
,
1001
0010
1001
0100
1001
0010
1001
0000
,
0110
1000
0110
0001
0110
1000
0110
0000
,
1020
0130
1001
0010
1001
0100
1001
0010
,
2100
3001
0110
1000
0110
0001
2010
3000
,
1100
1000
1000
1000
,
0010
0010
0010
0010
,
2001
0000
0001
3000
0201
0000
0001
0300
,
1000
0100
0010
0001
0100
0001
0010
0100
1000
0010
0100
0001
1000
0100
0010
0100
,
1001
0000
1001
0000
,
1001
1001
1001
1001
,
1000
0010
0100
0001
0010
0100
0010
0001
0100
0010
1000
0100
0010
0001
0100
0010
,
1000
0100
0010
0100
1000
0010
0100
0001
0010
0100
1000
0100
0010
0001
1000
0100
,
0010
0100
0001
1000
0100
0010
0100
1000
0010
0100
0001
0010
0100
1000
0010
0100
,
0001
0010
0100
0010
0001
0100
0010
1000
0100
0010
0001
0010
0100
1000
0001
0100
,
1001
0000
1001
0000
,
1001
1001
1001
1001
,
0001
0010
1001
1001
0010
0100
1001
0010
,
0010
1000
0110
0110
1000
0001
0110
1000
,
1000
0100
1001
1001
0100
0010
1001
0100
,
0100
0001
0110
0110
0001
1000
0110
0001
,
1001
0010
1001
0100
1001
0010
1001
0000
,
0110
1000
0110
0001
0110
1000
0110
0000
,
1020
0130
1001
0010
1001
0100
1001
0010
,
2100
3001
0110
1000
0110
0001
2010
3100
,
1001
0100
0101
0001
1100
0001
0100
0101
,
0100
1001
0101
0001
1100
0001
0101
0100
,
1100
1000
0101
0100
1100
0001
0100
1100
,
0001
0000
0101
0000
1100
0000
0001
0000
1100
0000
0100
0000
0101
0000
1000
0100
,
1001
0001
1100
0100
1001
0100
0001
1100
,
0001
0101
1100
0100
1001
0001
1100
1000
,
0101
0001
1100
1000
1001
0100
0001
0101
,
1000
0000
1100
0000
0101
0000
0100
0000
1001
0000
1000
0000
1100
0000
0001
0100
,
1001
1000
0101
0100
1001
0100
1000
0101
,
1000
1100
0101
0100
1001
1000
0101
0001
,
1100
1000
0101
0001
1001
0100
1000
1100
,
0001
0101
1100
0100
1001
0001
0101
1000
,
1001
0100
1100
1000
0101
1000
0100
1100
,
0100
0000
1001
0000
1100
0000
1000
0000
0101
0000
1000
0000
1100
0000
0001
0100
,
1001
0001
1100
0100
0101
1000
0100
0101
,
1000
1100
0101
1000
0101
0100
1100
0010
,
0101
0000
0000
0000
;
