#TITLE:Mr. Simple;
#SUBTITLE:Sexuality Violation;
#ARTIST:Super Junior;
#TITLETRANSLIT:;
#SUBTITLETRANSLIT:;
#ARTISTTRANSLIT:;
#CREDIT:Freyja;
#BANNER:mrsimple bn.png;
#BACKGROUND:mrsimple bg.png;
#LYRICSPATH:;
#CDTITLE:;
#MUSIC:Mr. Simple.ogg;
#OFFSET:-0.004;
#SAMPLESTART:52.475;
#SAMPLELENGTH:12.000;
#SELECTABLE:YES;
#DISPLAYBPM:128.000;
#BPMS:0.000=128.000;
#STOPS:;
#BGCHANGES:;
// cache tags:
#FIRSTBEAT:4.500;
#LASTBEAT:283.500;
#SONGFILENAME:Songs/Sexuality Violation 2/Mr. Simple - [Freyja]/Mr. Simple.sm;
#HASMUSIC:1;
#HASBANNER:1;
#MUSICLENGTH:133.160;
// end cache tags

//---------------dance-single - Freyja----------------
#NOTES:
     dance-single:
     Freyja:
     Challenge:
     14:
     1.000,1.000,0.248,0.368,1.000,864.000,33.000,49.000,86.000,6.000:

0000
0000
0000
0000
,
0000
0000
0000
0000
,
0000
1001
0000
1000
0010
1000
0100
1000
,
0000
1000
0001
1000
0010
0100
0001
1000
,
1011
0001
0010
0001
0100
0010
0100
0001
,
0100
0000
0010
0000
1000
0000
0100
0010
0100
0000
1000
0000
0001
0000
0100
0000
,
1011
0000
0010
0000
1000
0000
0001
0000
0010
0000
0100
0000
1000
0000
0001
0100
,
0001
0000
1000
0001
1000
0000
0001
0010
0001
0000
1000
0100
1000
0000
0010
0000
,
1101
0001
1000
0010
0100
0001
0010
0100
,
1000
0000
0001
0000
0100
0000
0010
1000
0010
0000
0100
0000
0010
0000
1000
0000
,
1011
0000
0001
0000
0100
0000
0010
0000
1000
0000
0001
0000
0010
0000
0100
1000
,
0100
0000
0000
0000
0010
0000
0001
0000
0010
0000
0000
0000
0001
0000
1000
0000
0001
0000
0000
0000
0100
M00M
0100
0000
1000
0000
0000
0000
0010
0000
0000
0000
,
1011
1000
0010
0100
0001
0010
0100
1000
,
0001
1000
0000
0010
0000
1000
0001
0000
0200
0000
0310
0000
1000
0000
0001
0000
,
1011
0001
0100
0010
1000
0100
0010
0100
,
1000
0001
0000
0100
0000
0001
0100
0000
0020
0000
0000
0000
1030
0000
1000
0000
,
0010
0000
0000
0000
0000
0000
1000
0000
0000
1000
0000
0000
0100
0000
0000
0000
0000
0000
1000
0001
1000
0001
1000
0001
,
0040
0000
0000
0000
0000
0030
0100
0000
0000
0000
0000
0000
1000
0000
0000
0000
0000
0000
0100
0000
0000
0000
0000
0000
0010
0000
0000
0000
0000
0000
0000
0000
0000
0000
0000
0000
0001
0000
0000
0000
0000
0000
0100
0000
0000
0000
0000
0000
,
0010
1000
0010
1000
0010
1000
0001
0010
,
0100
1000
0010
0100
0001
1000
1001
1001
,
1000
0000
0000
0000
0010
0000
0000
0000
1000
0100
0010
0001
1000
0001
1000
0001
1000
0000
0000
0000
1000
0000
0000
0000
0001
0010
0100
1000
0001
1000
0001
1000
,
0001
0000
0000
0000
0001
0000
0000
0000
1000
0100
0010
0001
1000
0001
1000
0001
1000
0000
0000
0000
1000
0000
0000
0000
0001
0010
0100
1000
0001
1000
0001
1000
,
0001
0100
0010
0100
0001
1000
0010
1000
0001
0100
0001
0100
0001
0000
0000
0000
0100
0000
0001
0000
0100
0000
0000
0000
0010
0000
1000
0000
0010
0000
0000
0000
,
0100
0000
0010
0000
0100
0000
0000
0000
0001
0010
0001
1000
0001
0010
0100
0010
0001
0000
1000
0000
0010
0000
1000
0000
0001
0000
0000
0000
0100
0000
0000
0000
,
0001
0000
0000
0000
0001
0000
0000
0000
1000
0100
0010
0001
1000
0001
1000
0001
1000
0000
0000
0000
1000
0000
0000
0000
0001
0010
0100
1000
0001
1000
0001
1000
,
0001
0000
0000
0000
0001
0000
0000
0000
1000
0100
0010
0001
1000
0001
1000
0001
1000
0000
0000
0000
1000
0000
0000
0000
0001
0010
0100
1000
0001
1000
0001
1000
,
0001
0000
0000
0000
1000
0000
0000
0000
0001
0100
0010
0100
0010
1000
0001
1000
0001
0000
1000
0000
0001
0000
0000
0000
0100
0000
0001
0000
0100
0000
0000
0000
,
0010
0000
1000
0000
0100
0000
0000
0000
0010
0001
1000
0100
0010
0100
1000
0100
0010
0000
0001
0000
0010
0000
0000
0000
0001
0000
0000
0000
1000
0000
0001
0000
,
1000
0001
1000
0001
1000
0001
1000
0000
0000
0000
0000
0000
0001
0000
0000
0000
0000
0000
1000
0000
0000
0000
0000
0000
0010
0000
0000
M00M
0000
0000
0010
0000
0000
0000
0000
0000
0100
0000
0000
M00M
0000
0000
0100
0000
0000
0000
0000
0000
,
0001
0000
0000
0000
0100
0001
0100
0001
0100
0000
0000
0000
0001
0100
0001
0100
0001
0000
0000
0000
1000
0100
1000
0100
1000
0000
0000
0000
0010
0000
0000
0000
,
0100
0001
0100
0001
0100
0001
0100
0000
0000
0000
0000
0000
0001
0000
0000
0000
0000
0000
1000
0000
0000
0000
0000
0000
0100
0000
0000
M00M
0000
0000
0100
0000
0000
0000
0000
0000
0010
0000
0000
M00M
0000
0000
0010
0000
0000
0001
0000
0000
,
0010
0000
0000
0000
0001
0100
0001
0100
0001
0000
0000
0000
1000
0100
1000
0100
1000
0000
0000
0000
0010
0000
0000
0000
1001
0000
0000
0000
1000
0000
0000
0000
,
0001
0100
0001
0100
0001
0100
0001
0000
0000
0000
0000
0000
1000
0000
0000
0000
0000
0000
0001
0000
0000
0000
0000
0000
0100
0000
0000
M00M
0000
0000
0100
0000
0000
0000
0000
0000
0010
0000
0000
M00M
0000
0000
0010
0000
0000
0000
0000
0000
,
1000
0000
0000
0000
0010
1000
0010
1000
0010
0000
0000
0000
0100
0001
0100
0001
0100
0000
0000
0000
0001
1000
0001
1000
0001
0000
0000
0000
1000
0000
0000
0000
,
0100
1000
0100
1000
0100
1000
0100
0000
0000
0000
0000
0000
0010
0000
0000
0000
0000
0000
0001
0000
0000
0000
0000
0000
0100
0000
0000
M00M
0000
0000
0100
0000
0000
0000
0000
0000
0010
0000
0000
M00M
0000
0000
0010
0000
0000
1000
0000
0000
,
0010
0000
0000
0000
0100
0001
0100
0001
0100
0000
0000
0000
0001
1000
0001
1000
0001
0000
0000
0000
0010
0000
0000
0000
0002
0000
0000
0000
2003
0000
0000
0000
,
3002
2003
3002
2003
3002
2003
3002
2003
,
3001
0010
0100
0010
0001
0010
0100
1000
0001
1000
0100
1000
0001
0100
0010
0100
0001
0100
0010
0000
0000
MMMM
0000
0000
,
1001
1000
0010
1000
0001
0010
0100
1000
0010
0100
0001
0100
0010
1000
0100
0010
,
0001
0000
0010
0000
0100
0000
1000
0000
0100
0000
1000
0000
0001
0000
0100
0000
0010
1000
0001
1000
0010
0000
1000
0000
0100
1000
0001
1000
0100
0000
1000
0000
,
0010
0100
0001
0010
0100
1000
0010
1000
0100
1000
0010
0100
0010
1000
0100
1000
,
0002
0103
0001
2000
3100
1000
0002
0103
0020
1030
0010
0200
0310
0100
0002
0013
,
0100
1000
0100
1000
0100
0000
1000
0000
0010
0000
0100
0000
0001
0000
1000
0000
0100
0000
1000
0000
0010
0000
0100
0000
0010
0000
1000
0000
0100
0000
1000
0000
,
0001
0000
1000
0000
0010
0000
1000
0000
0001
0000
1000
0000
0010
0000
0100
0000
0001
1000
0010
1000
0001
0000
0010
0000
0100
1000
0001
1000
0100
0000
0010
0000
,
0001
0100
0010
1000
0100
0010
0001
0010
0100
1000
0010
0100
0001
0100
0010
1000
,
0002
0103
0001
2000
3100
1000
0002
0103
0020
0130
0001
0020
0130
1000
0020
0030
,
000M
00MM
0MM0
MM00
M000
MM00
0MM0
00MM
000M
00MM
0MM0
MM00
M000
MM00
0MM0
00MM
,
1000
0100
1000
0100
1000
0100
1000
0000
0000
0000
0000
0000
0001
0000
0000
0000
0000
0000
1000
0000
0000
0000
0000
0000
0100
0000
0000
M00M
0000
0000
0100
0000
0000
0000
0000
0000
0010
0000
0000
M00M
0000
0000
0010
0000
0000
0000
0000
0000
,
0001
0000
0000
0000
1000
0100
1000
0100
1000
0000
0000
0000
0001
0100
0001
0100
0001
0000
0000
0000
0010
0001
0010
0001
0010
0000
0000
0000
0100
0000
0000
0000
,
1000
0001
1000
0001
1000
0001
1000
0000
0000
0000
0000
0000
0010
0000
0000
0000
0000
0000
1000
0000
0000
0000
0000
0000
0100
0000
0000
M00M
0000
0000
0100
0000
0000
0000
0000
0000
0010
0000
0000
M00M
0000
0000
0010
0000
0000
0001
0000
0000
,
0100
0000
0000
0000
0010
1000
0010
1000
0010
0000
0000
0000
0100
0001
0100
0001
0100
0000
0000
0000
0001
0000
0000
0000
1001
0000
0000
0000
1000
0000
0000
0000
,
0100
1000
0100
1000
0100
1000
0100
0000
0000
0000
0000
0000
1000
0000
0000
0000
0000
0000
0001
0000
0000
0000
0000
0000
0010
0000
0000
M00M
0000
0000
0010
0000
0000
0000
0000
0000
0100
0000
0000
M00M
0000
0000
0100
0000
0000
0000
0000
0000
,
1000
0000
0000
0000
0010
1000
0010
1000
0010
0000
0000
0000
1000
0100
1000
0100
1000
0000
0000
0000
0001
0010
0001
0010
0001
0000
0000
0000
0100
0000
0000
0000
,
0001
0100
0001
0100
0001
0100
0001
0000
0000
0000
0000
0000
1000
0000
0000
0000
0000
0000
0001
0000
0000
0000
0000
0000
0010
0000
0000
M00M
0000
0000
0010
0000
0000
0000
0000
0000
0100
0000
0000
M00M
0000
0000
0100
0000
0000
0000
0000
0000
,
1000
0000
0000
0000
0001
1000
0001
1000
0001
0000
0000
0000
0010
0001
0010
0001
0010
0000
0000
0000
0100
0000
0000
0000
1000
0000
0000
0000
0010
0000
0000
0000
,
0110
0000
0000
0010
0100
0000
0001
0000
0100
0000
0010
0000
1000
0000
0100
0000
,
0110
0000
0000
0000
0000
0000
0100
0000
1000
0000
0000
0000
0100
0000
0000
0000
0010
0000
0000
0000
0001
0100
0010
1000
0001
0000
0000
0000
1000
0000
0000
0000
,
1100
0000
0000
1000
0001
0000
1000
0000
0010
0000
0100
0000
0001
0000
1000
0000
,
0100
1000
0001
1000
0100
1000
0100
1000
0001
0010
0001
1000
0100
1000
0001
1000
0001
0000
0000
0000
1000
0000
0000
0000
0010
0000
0000
0000
0100
0001
0100
0001
,
0100
0000
0000
0010
0100
0000
0001
0000
0100
0000
0010
0000
1000
0000
0100
0000
,
1001
1000
0000
0001
0010
0000
0100
0000
1000
0000
0010
0000
0100
0000
0001
0100
,
0101
0000
0000
0001
1000
0000
0100
0000
0010
0000
0001
0000
0010
0000
0100
0000
,
1000
0001
0000
1000
0010
0000
0100
0000
0001
0000
0010
0100
1000
0000
0010
0000
,
2020
0000
0000
0000
3030
0000
0022
0000
0000
0000
0033
0000
2200
0000
0000
0000
330M
000M
000M
000M
000M
000M
000M
0000
0100
0000
0000
0000
1100
0000
0000
0000
,
1100
0000
0000
0000
0000
0000
0000
0000
10M0
00M1
10M0
0001
1000
0000
0001
0000
1000
0000
0000
0000
0010
0000
0000
0000
0100
0000
0000
0000
0001
0000
0000
0000
,
0202
0000
0303
0220
0000
0330
2020
0000
3030
0000
0001
1000
0001
0000
0001
0000
,
0002
0000
0000
0000
0000
0000
1003
0000
0000
0001
0000
0000
1000
0000
0000
0000
0000
0000
0010
0000
0000
0100
0000
0000
0001
1000
0001
1000
0001
1000
0001
0000
0000
0010
0000
0000
0100
0000
0000
0000
0000
0000
1000
0000
0000
0000
0000
0000
,
2002
0000
0000
0000
3003
0000
0220
0000
0000
0000
0330
0000
2002
0000
0000
0000
30M3
00M0
00M0
00M0
00M0
00M0
00M0
0000
0100
0000
0000
0000
0101
0000
0000
0000
,
0101
0000
0000
0000
0000
0000
0000
0000
10M0
01M0
10M0
0100
1000
0000
0100
0000
1000
0000
0000
0000
0001
0000
0000
0000
0010
0000
0000
0000
0100
0000
0000
0000
,
2200
0000
3300
0220
0000
0330
0022
0000
0033
0000
1000
0100
1000
0000
0010
0000
,
0100
0001
1000
0001
0100
0010
1000
0010
0100
0001
1000
0100
0010
0001
0010
0100
1000
0000
0000
0000
0100
0000
0000
0000
1000
0000
0000
0000
0100
0000
0000
0000
;

//---------------dance-single - Freyja + Gazebo----------------
#NOTES:
     dance-single:
     Freyja + Gazebo:
     Hard:
     13:
     0.989,1.000,0.248,0.368,1.000,833.000,33.000,49.000,86.000,6.000:
0000
0000
0000
0000
,
0000
0000
0000
0000
,
0000
1001
0000
1000
0010
1000
0100
1000
,
0000
1000
0001
1000
0010
0100
0001
1000
,
1011
0001
0010
0001
0100
0010
0100
0001
,
0100
0000
0010
0000
1000
0000
0100
0010
0100
0000
1000
0000
0001
0000
0100
0000
,
1011
0000
0010
0000
1000
0000
0001
0000
0010
0000
0100
0000
1000
0000
0001
0100
,
0001
0000
1000
0001
1000
0000
0001
0010
0001
0000
1000
0100
1000
0000
0010
0000
,
1101
0001
1000
0010
0100
0001
0010
0100
,
1000
0000
0001
0000
0100
0000
0010
1000
0010
0000
0100
0000
0010
0000
1000
0000
,
1011
0000
0001
0000
0100
0000
0010
0000
1000
0000
0001
0000
0010
0000
0100
1000
,
0100
0000
0000
0000
0010
0000
0001
0000
0010
0000
0000
0000
0001
0000
1000
0000
0001
0000
0000
0000
0100
M00M
0100
0000
1000
0000
0000
0000
0010
0000
0000
0000
,
1011
1000
0010
0100
0001
0010
0100
1000
,
0001
1000
0000
0010
0000
1000
0001
0000
0200
0000
0310
0000
1000
0000
0001
0000
,
1011
0001
0100
0010
1000
0100
0010
0100
,
1000
0001
0000
0100
0000
0001
0100
0000
0020
0000
0000
0000
1030
0000
1000
0000
,
0010
0000
0000
0000
0000
0000
1000
0000
0000
1000
0000
0000
0100
0000
0000
0000
0000
0000
1000
0001
1000
0001
1000
0001
,
0040
0000
0000
0000
0000
0030
0100
0000
0000
0000
0000
0000
1000
0000
0000
0000
0000
0000
0100
0000
0000
0000
0000
0000
0010
0000
0000
0000
0000
0000
0000
0000
0000
0000
0000
0000
0001
0000
0000
0000
0000
0000
0100
0000
0000
0000
0000
0000
,
0010
1000
0010
1000
0010
1000
0001
0010
,
0100
1000
0010
0100
0001
1000
1001
1001
,
1000
0000
0000
0000
0010
0000
0000
0000
1000
0100
0010
0001
1000
0001
1000
0001
1000
0000
0000
0000
1000
0000
0000
0000
0001
0010
0100
1000
0001
1000
0001
1000
,
0001
0000
0000
0000
0001
0000
0000
0000
1000
0100
0010
0001
1000
0001
1000
0001
1000
0000
0000
0000
1000
0000
0000
0000
0001
0010
0100
1000
0001
1000
0001
1000
,
0001
0100
0001
0000
1000
0100
0010
0001
0100
0001
0100
0000
0010
1000
0010
0000
,
0100
0000
0010
0000
0100
0000
0000
0000
0001
0010
0001
1000
0001
0010
0100
0010
0001
0000
1000
0000
0010
0000
1000
0000
0001
0000
0000
0000
0100
0000
0000
0000
,
0001
0000
0000
0000
0001
0000
0000
0000
1000
0100
0010
0001
1000
0001
1000
0001
1000
0000
0000
0000
1000
0000
0000
0000
0001
0010
0100
1000
0001
1000
0001
1000
,
0001
0000
0000
0000
0001
0000
0000
0000
1000
0100
0010
0001
1000
0001
1000
0001
1000
0000
0000
0000
1000
0000
0000
0000
0001
0010
0100
1000
0001
1000
0001
1000
,
0001
0000
0000
0000
1000
0000
0000
0000
0001
0100
0010
0100
0010
1000
0001
1000
0001
0000
1000
0000
0001
0000
0000
0000
0100
0000
0001
0000
0100
0000
0000
0000
,
0010
0000
1000
0000
0100
0000
0000
0000
0010
0001
1000
0100
0010
0100
1000
0100
0010
0000
0001
0000
0010
0000
0000
0000
0001
0000
0000
0000
1000
0000
0001
0000
,
1000
0001
1000
0001
1000
0000
0000
0000
0001
0000
0000
0000
1000
0000
0000
0000
0010
0000
M00M
0000
0010
0000
0000
0000
0100
0000
M00M
0000
0100
0000
0000
0000
,
0001
0000
0000
0000
0100
0001
0100
0001
0100
0000
0000
0000
0001
0100
0001
0100
0001
0000
0000
0000
1000
0100
1000
0100
1000
0000
0000
0000
0010
0000
0000
0000
,
0100
0001
0100
0001
0100
0000
0000
0000
0001
0000
0000
0000
1000
0000
0000
0000
0100
0000
M00M
0000
0100
0000
0000
0000
0010
0000
M00M
0000
0010
0000
0001
0000
,
0010
0000
0000
0000
0001
0100
0001
0100
0001
0000
0000
0000
1000
0100
1000
0100
1000
0000
0000
0000
0010
0000
0000
0000
1001
0000
0000
0000
1000
0000
0000
0000
,
0001
0100
0001
0100
0001
0000
0000
0000
1000
0000
0000
0000
0001
0000
0000
0000
0100
0000
M00M
0000
0100
0000
0000
0000
0010
0000
M00M
0000
0010
0000
0000
0000
,
1000
0000
0000
0000
0010
1000
0010
1000
0010
0000
0000
0000
0100
0001
0100
0001
0100
0000
0000
0000
0001
1000
0001
1000
0001
0000
0000
0000
1000
0000
0000
0000
,
0100
1000
0100
1000
0100
0000
0000
0000
0010
0000
0000
0000
0001
0000
0000
0000
0100
0000
M00M
0000
0100
0000
0000
0000
0010
0000
M00M
0000
0010
0000
1000
0000
,
0010
0000
0000
0000
0100
0001
0100
0001
0100
0000
0000
0000
0001
1000
0001
1000
0001
0000
0000
0000
0010
0000
0000
0000
0002
0000
0000
0000
2003
0000
0000
0000
,
3002
2003
3002
2003
3002
2003
3002
2003
,
3001
0010
0100
0010
0001
0010
0100
1000
0001
1000
0100
1000
0001
0100
0010
0100
0001
0100
0010
0000
0000
MMMM
0000
0000
,
1001
1000
0010
1000
0001
0010
0100
1000
0010
0100
0001
0100
0010
1000
0100
0010
,
0001
0000
0010
0000
0100
0000
1000
0000
0100
0000
1000
0000
0001
0000
0100
0000
0010
1000
0001
1000
0010
0000
1000
0000
0100
1000
0001
1000
0100
0000
1000
0000
,
0010
0100
0001
0010
0100
1000
0010
1000
0100
1000
0010
0100
0010
1000
0100
1000
,
0002
0103
0001
2000
3100
1000
0002
0103
0020
1030
0010
0200
0310
0100
0002
0013
,
0100
1000
0100
1000
0100
0000
1000
0000
0010
0000
0100
0000
0001
0000
1000
0000
0100
0000
1000
0000
0010
0000
0100
0000
0010
0000
1000
0000
0100
0000
1000
0000
,
0001
0000
1000
0000
0010
0000
1000
0000
0001
0000
1000
0000
0010
0000
0100
0000
0001
1000
0010
1000
0001
0000
0010
0000
0100
1000
0001
1000
0100
0000
0010
0000
,
0001
0100
0010
1000
0100
0010
0001
0010
0100
1000
0010
0100
0001
0100
0010
1000
,
0002
0103
0001
2000
3100
1000
0002
0103
0020
0130
0001
0020
0130
1000
0020
0030
,
000M
00MM
0MM0
MM00
M000
MM00
0MM0
00MM
000M
00MM
0MM0
MM00
M000
MM00
0MM0
00MM
,
1000
0100
1000
0100
1000
0000
0000
0000
0001
0000
0000
0000
1000
0000
0000
0000
0100
0000
M00M
0000
0100
0000
0000
0000
0010
0000
M00M
0000
0010
0000
0000
0000
,
0001
0000
0000
0000
1000
0100
1000
0100
1000
0000
0000
0000
0001
0100
0001
0100
0001
0000
0000
0000
0010
0001
0010
0001
0010
0000
0000
0000
0100
0000
0000
0000
,
1000
0001
1000
0001
1000
0000
0000
0000
0010
0000
0000
0000
1000
0000
0000
0000
0100
0000
M00M
0000
0100
0000
0000
0000
0010
0000
M00M
0000
0010
0000
0001
0000
,
0100
0000
0000
0000
0010
1000
0010
1000
0010
0000
0000
0000
0100
0001
0100
0001
0100
0000
0000
0000
0001
0000
0000
0000
1001
0000
0000
0000
1000
0000
0000
0000
,
0100
1000
0100
1000
0100
0000
0000
0000
1000
0000
0000
0000
0001
0000
0000
0000
0010
0000
M00M
0000
0010
0000
0000
0000
0100
0000
M00M
0000
0100
0000
0000
0000
,
1000
0000
0000
0000
0010
1000
0010
1000
0010
0000
0000
0000
1000
0100
1000
0100
1000
0000
0000
0000
0001
0010
0001
0010
0001
0000
0000
0000
0100
0000
0000
0000
,
0001
0100
0001
0100
0001
0000
0000
0000
1000
0000
0000
0000
0001
0000
0000
0000
0010
0000
M00M
0000
0010
0000
0000
0000
0100
0000
M00M
0000
0100
0000
0000
0000
,
1000
0000
0000
0000
0001
1000
0001
1000
0001
0000
0000
0000
0010
0001
0010
0001
0010
0000
0000
0000
0100
0000
0000
0000
1000
0000
0000
0000
0010
0000
0000
0000
,
0110
0000
0000
0010
0100
0000
0001
0000
0100
0000
0010
0000
1000
0000
0100
0000
,
0110
0000
0000
0000
0000
0000
0100
0000
1000
0000
0000
0000
0100
0000
0000
0000
0010
0000
0000
0000
0001
0100
0010
1000
0001
0000
0000
0000
1000
0000
0000
0000
,
1100
0000
0000
1000
0001
0000
1000
0000
0010
0000
0100
0000
0001
0000
1000
0000
,
0100
1000
0001
1000
0100
1000
0100
1000
0001
0000
0000
0000
0001
0000
0000
0000
0000
0000
0000
0000
1000
0000
0000
0000
0010
0000
0000
0000
0100
0001
0100
0001
,
0100
0000
0000
0010
0100
0000
0001
0000
0100
0000
0010
0000
1000
0000
0100
0000
,
1001
1000
0000
0001
0010
0000
0100
0000
1000
0000
0010
0000
0100
0000
0001
0100
,
0101
0000
0000
0001
1000
0000
0100
0000
0010
0000
0001
0000
0010
0000
0100
0000
,
1000
0001
0000
1000
0010
0000
0100
0000
0001
0000
0010
0100
1000
0000
0010
0000
,
2020
0000
0000
0000
3030
0000
0022
0000
0000
0000
0033
0000
2200
0000
0000
0000
330M
000M
000M
000M
000M
000M
000M
0000
0100
0000
0000
0000
1100
0000
0000
0000
,
1100
0000
0000
0000
0000
0000
0000
0000
10M0
00M1
10M0
0001
1000
0000
0001
0000
1000
0000
0000
0000
0010
0000
0000
0000
0100
0000
0000
0000
0001
0000
0000
0000
,
0202
0000
0303
0220
0000
0330
2020
0000
3030
0000
0001
1000
0001
0000
0001
0000
,
0002
0000
0000
0000
1003
0000
0001
0000
1000
0000
0000
0000
0010
0000
0100
0000
0001
1000
0001
1000
0001
0000
0010
0000
0100
0000
0000
0000
1000
0000
0000
0000
,
2002
0000
0000
0000
3003
0000
0220
0000
0000
0000
0330
0000
2002
0000
0000
0000
30M3
00M0
00M0
00M0
00M0
00M0
00M0
0000
0100
0000
0000
0000
0101
0000
0000
0000
,
0101
0000
0000
0000
0000
0000
0000
0000
10M0
01M0
10M0
0100
1000
0000
0100
0000
1000
0000
0000
0000
0001
0000
0000
0000
0010
0000
0000
0000
0100
0000
0000
0000
,
2200
0000
3300
0220
0000
0330
0022
0000
0033
0000
1000
0100
1000
0000
0010
0000
,
0100
0001
1000
0001
0100
0010
1000
0010
0100
0001
1000
0100
0010
0001
0010
0100
1000
0000
0000
0000
0100
0000
0000
0000
1000
0000
0000
0000
0100
0000
0000
0000
;

//---------------dance-single - Gazebo----------------
#NOTES:
     dance-single:
     Gazebo:
     Medium:
     10:
     0.799,0.798,0.496,0.158,0.586,658.000,66.000,21.000,1.000,0.000:
0000
0000
0000
0000
,
0000
0001
0100
0010
1010
0001
1001
1000
,
0100
0010
00M0
1000
0001
0100
0001
1000
,
0000
0001
0010
0100
1100
0001
1001
1000
,
0010
1000
0010
1000
0010
0000
0000
0000
1000
0000
0000
0000
1000
0000
0000
0000
0001
0000
0000
0000
0001
0000
0000
0000
0010
0000
0000
0000
0010
0000
0000
0000
,
0100
0000
0100
0000
0010
0000
0010
0001
1000
0000
1000
0000
0001
0000
0001
0000
,
0100
0001
0100
0001
0100
0000
0000
0000
0001
0000
0000
0000
0001
0000
0000
0000
1000
0000
0000
0000
1000
0000
0000
0000
0100
0000
0000
0000
0100
0000
1000
0000
,
0001
0000
0001
0100
0010
0000
0010
0100
0001
0000
1000
0100
0010
0000
0001
0000
,
1000
0010
1000
0010
1000
0000
0000
0000
0001
0000
0000
0000
0001
0000
0000
0000
0010
0000
0000
0000
0010
0000
0000
0000
0100
0000
0000
0000
0100
0000
0000
0000
,
0010
0000
0010
0000
0001
0000
0001
1000
0010
0000
0010
0000
0100
0000
0100
0000
,
0001
0100
0001
0100
0001
0000
0000
0000
1000
0000
0000
0000
1000
0000
0000
0000
0100
0000
0000
0000
0100
0000
0000
0000
0010
0000
0000
0000
0010
0000
0001
0000
,
1000
0000
1000
0001
0100
0000
0100
0010
1000
0000
0001
0010
0100
0000
1000
0000
,
1001
0001
0100
0010
0100
0100
0001
1000
,
0001
0010
0000
0001
0000
1000
0001
0000
0200
0000
0010
0000
0310
0000
1000
0000
,
0001
0010
0100
0010
0001
1000
0010
0100
,
0010
1000
0000
0001
0000
0100
0001
0000
0020
0000
0100
0000
0130
0000
0010
0000
,
0002
0000
0000
0000
0000
0000
1003
0000
0000
1000
0000
0000
0010
0000
0000
0000
0000
0000
1000
0000
0001
0000
0010
0000
,
0100
0100
0010
0010
0001
0000
1000
0010
,
0100
0010
1000
1000
0001
0001
0010
0100
,
1000
0001
1000
0010
2000
0001
0001
3001
,
1000
0000
1000
0000
0100
0010
0001
0000
1000
0000
1000
0000
0010
0100
0001
0000
,
1000
0000
1000
0000
0100
0010
0001
0000
1000
0000
1000
0000
0010
0100
0001
0000
,
1000
0000
0000
0100
0000
0000
1000
0000
0000
0000
0000
0000
0001
0000
0010
0000
0001
0000
1000
0000
0010
0000
0100
0000
0001
0000
0000
0000
0000
0000
0100
0000
0000
0001
0000
0000
1000
0000
0000
0010
0000
0000
1000
0000
0000
0000
0000
0000
,
0001
0000
0000
0010
0000
0000
0001
0000
0000
0000
0000
0000
1000
0000
0100
0000
0010
0000
0001
0000
0100
0000
0001
0000
1000
0000
0000
0000
0000
0000
0001
0000
0000
0000
0000
0000
0100
0000
0000
0000
0000
0000
0100
0000
0000
0000
0000
0000
,
0001
0000
0001
0000
0010
0100
1000
0000
0001
0000
0001
0000
0100
0010
1000
0000
,
0001
0000
0001
0000
0010
0100
1000
0000
0001
0000
0001
0000
0100
0010
1000
0000
,
0001
0000
0000
0010
0000
0000
0001
0000
0000
0000
0000
0000
1000
0000
0100
0000
1000
0000
0001
0000
0100
0000
0010
0000
1000
0000
0000
0000
0000
0000
0010
0000
0000
1000
0000
0000
0001
0000
0000
0100
0000
0000
0001
0000
0000
0000
0000
0000
,
1000
0000
0000
0100
0000
0000
1000
0000
0000
0000
0000
0000
0001
0000
0010
0000
0100
0000
1000
0000
0010
0000
1000
0000
0001
0000
0000
0000
0000
0000
1000
0000
0000
0000
0000
0000
0010
0000
0000
0000
0000
0000
0100
0000
0000
0000
0000
0000
,
0001
1000
0001
1000
0001
0000
0000
0000
0010
0000
0000
0000
0100
0000
0000
0000
1100
0000
0000
0000
0001
0000
0000
0000
1001
0000
0000
0000
1000
0000
0000
0000
,
0010
0000
0010
0100
0001
0000
0001
1000
0100
0000
0100
0010
0001
0000
0001
0000
,
1000
0001
1000
0001
1000
0000
0000
0000
0010
0000
0000
0000
0100
0000
0000
0000
0101
0000
0000
0000
1000
0000
0000
0000
1001
0000
0000
0000
0001
0000
0010
0000
,
0100
0000
0100
0010
0001
0000
0001
1000
0010
0000
0110
0000
0101
0000
1001
0000
,
1000
0001
1000
0001
1000
0000
0000
0000
0100
0000
0000
0000
0010
0000
0000
0000
0011
0000
0000
0000
1000
0000
0000
0000
1001
0000
0000
0000
0001
0000
0000
0000
,
0100
0000
0100
0010
1000
0000
1000
0001
0010
0000
0010
0100
1000
0000
1000
0000
,
0001
1000
0001
1000
0001
0000
0000
0000
0100
0000
0000
0000
0010
0000
0000
0000
1010
0000
0000
0000
0001
0000
0000
0000
1001
0000
0000
0000
1000
0000
0100
0000
,
0010
0000
0010
0100
1000
0000
1000
0001
0100
0000
0110
0000
1010
0000
1001
0000
,
0002
2003
3002
2003
3002
2003
3002
2003
,
3001
0010
0100
1000
0010
0100
0001
0010
0100
2000
3010
0100
,
0001
0000
1000
0010
1000
0001
1000
0100
0010
0001
1000
0000
0010
0000
0100
0000
,
0010
0000
1000
0001
1000
0000
0001
0000
0011
0000
1000
0000
0011
0000
1000
0000
,
0001
0000
0100
0000
0100
0000
0010
0000
1000
0000
1000
0100
0010
0000
0001
0000
,
1100
0000
0000
1100
0000
0000
1100
0000
1001
0000
0000
1001
0000
0000
1001
0000
,
1000
0000
0001
0100
0001
1000
0001
0010
0100
0000
0010
0001
1000
0000
0010
0000
,
0100
0000
0001
1000
0001
0000
1000
0000
1100
0000
0001
0000
1100
0000
0001
0000
,
1000
0000
0010
0000
0010
0000
0100
0000
0001
0000
0001
0010
0100
0000
1000
0000
,
0011
0000
0000
0011
0000
0000
0011
0000
1001
0000
0000
1001
0000
0000
1001
0000
,
0000
4000
0000
0000
3020
0230
0320
0230
,
0301
1000
0001
1000
0001
0000
0000
0000
0010
0000
0000
0000
0100
0000
0000
0000
1100
0000
0000
0000
0001
0000
0000
0000
1001
0000
0000
0000
1000
0000
0000
0000
,
0010
0000
0010
0100
0001
0000
0001
1000
0100
0000
0100
0010
0001
0000
0001
0000
,
1000
0001
1000
0001
1000
0000
0000
0000
0010
0000
0000
0000
0100
0000
0000
0000
0101
0000
0000
0000
1000
0000
0000
0000
1001
0000
0000
0000
0001
0000
0010
0000
,
0100
0000
0100
0010
0001
0000
0001
1000
0010
0000
0110
0000
0101
0000
1001
0000
,
1000
0001
1000
0001
1000
0000
0000
0000
0100
0000
0000
0000
0010
0000
0000
0000
0011
0000
0000
0000
1000
0000
0000
0000
1001
0000
0000
0000
0001
0000
0000
0000
,
0100
0000
0100
0010
1000
0000
1000
0001
0010
0000
0010
0100
1000
0000
1000
0000
,
0001
1000
0001
1000
0001
0000
0000
0000
0100
0000
0000
0000
0010
0000
0000
0000
1010
0000
0000
0000
0001
0000
0000
0000
1001
0000
0000
0000
1000
0000
0100
0000
,
0010
0000
0010
0100
1000
0000
1000
0001
0100
0000
0110
0000
1010
0000
1001
0000
,
0001
0000
0000
0001
0010
0000
0010
0000
0001
0000
1000
0000
0010
0000
0100
0000
,
0001
0000
0000
0001
0010
0000
0010
0000
0001
0000
0100
0000
0010
0000
1000
0000
,
0001
0000
0000
0001
0010
0000
0010
0000
0001
0000
1000
0000
0010
0000
0100
0000
,
0001
0000
0000
0001
1000
0000
1000
0000
0001
0000
0010
0000
0100
0000
1000
0000
,
0001
0000
0000
0001
0100
0000
0100
0000
0001
0000
1000
0000
0100
0000
0010
0000
,
0001
1000
0000
0001
0100
0000
0100
0000
0001
0000
0010
0000
0100
0000
1000
0000
,
0001
0000
0000
0001
0100
0000
0100
0000
0001
0000
1000
0000
0100
0000
0010
0000
,
0001
0000
0000
0001
1000
0000
1000
0000
0001
0000
0100
0000
0010
0000
1000
0000
,
1100
0000
0000
0011
0000
0000
0012
0000
0000
0000
0003
0000
1000
0000
1000
0000
,
4000
0000
0000
0000
3001
0000
0100
0010
1000
0000
0001
0000
1000
0000
0001
0000
,
0011
0000
0000
1100
0000
0000
2100
0000
0000
0000
3001
0100
0010
0000
0010
0000
,
0040
0000
0000
0000
0000
0000
0000
0000
0000
1030
0000
0000
0001
0000
0000
0000
0000
0000
0001
0000
0000
0010
0000
0000
0100
0000
1000
0000
0100
0000
1000
0000
0000
0000
0000
0000
0001
0000
0000
0000
0000
0000
0100
0000
0000
0000
0000
0000
,
0101
0000
0000
1010
0000
0000
2010
0000
0000
0000
3000
0000
0001
0000
0001
0000
,
0004
0000
0000
0000
1003
0000
0100
0010
0001
0000
1000
0000
0001
0000
1000
0000
,
1010
0000
0000
0101
0000
0000
0102
0000
0000
0000
1003
0100
0010
0000
0010
0000
,
0040
0000
0000
0000
0000
0000
0031
1000
0001
0000
1000
0000
0001
0000
1000
0000
;
