#TITLE:Love is a Danger Zone 2;
#SUBTITLE:;
#ARTIST:BanYa;
#TITLETRANSLIT:;
#SUBTITLETRANSLIT:;
#ARTISTTRANSLIT:;
#CREDIT:;
#BANNER:love2-bn.JPG;
#BACKGROUND:love2-bg.jpg;
#LYRICSPATH:;
#CDTITLE:;
#MUSIC:Love is a Danger Zone 2.mp3;
#OFFSET:-0.180;
#SAMPLESTART:75.000;
#SAMPLELENGTH:11.380;
#SELECTABLE:YES;
#BPMS:0.000=162.000;
#STOPS:;
#BGCHANGES:;
// cache tags:
#FIRSTBEAT:34.000;
#LASTBEAT:274.000;
#SONGFILENAME:Songs/dragon force/Love is a Danger Zone 2/Love is a Danger Zone 2.sm;
#HASMUSIC:1;
#HASBANNER:1;
#MUSICLENGTH:104.490;
// end cache tags

//---------------dance-single - ----------------
#NOTES:
     dance-single:
     :
     Challenge:
     9:
     0.592,0.852,0.258,0.402,0.167,364.000,27.000,42.000,0.000,0.000:
0000
0000
0000
0000
,
0000
0000
0000
0000
,
0000
0000
0000
0000
,
0000
0000
0000
0000
,
0000
0000
0000
0000
,
0000
0000
0000
0000
,
0000
0000
0000
0000
,
0000
0000
0000
0000
,
0000
0000
0000
0000
0100
0001
0100
0010
,
0100
0000
1000
0000
0100
0000
0000
0000
0010
0001
0000
0000
0010
0001
0000
0000
,
0100
1000
0000
0000
0100
1000
0000
0000
1000
0000
0100
0000
0011
0000
0000
0000
,
1000
0000
0010
0000
0100
1000
0100
0001
,
0202
0300
2003
0000
3001
0010
1000
0010
,
0001
0000
0010
0000
0100
0000
0000
0000
1000
0001
0000
0000
1000
0001
0000
0000
,
0100
0010
0000
0000
0100
0010
0000
0000
0001
0000
0100
0000
1010
0000
0000
0000
,
0100
0000
0001
0000
0001
0001
1000
1000
,
0010
0010
0100
0100
2002
0000
0000
0000
,
0000
0000
0000
0000
0000
0000
0000
0000
0000
0000
0000
0000
0000
0000
0000
0000
0000
0000
0000
0000
0000
0000
0000
0000
0000
0000
0000
0000
0000
0000
0000
0000
0000
0000
0000
0000
0000
0000
0000
0000
0000
0000
0000
0000
0000
0000
0000
0000
0000
0000
0000
0000
0000
0000
0000
3003
2002
0000
0000
0000
0000
0000
0000
0000
,
0000
0000
0000
3003
0000
1000
0100
0010
,
0001
0010
0100
1000
0010
0001
0010
1000
,
0100
0001
0100
1000
0100
0010
0001
0100
,
0010
1000
0001
0100
0010
1000
0100
0001
,
0101
0000
2000
0000
3001
0000
0100
0001
,
0100
0010
0001
0010
0100
1000
0010
0001
,
0010
1000
0010
1000
0001
0010
0001
0100
,
1000
0100
0001
0100
0010
1000
0100
0010
,
1001
0000
1200
0000
0301
0002
0000
0203
,
0000
0301
2000
0000
0000
3200
0000
0302
,
0000
0023
0000
0000
0000
0032
0000
2003
,
0000
3020
0000
0000
0000
0200
0300
0230
,
0301
1000
0001
0000
0101
0000
0000
0000
1100
0000
0220
0000
0030
0000
0020
0000
,
0030
0020
0030
0000
0000
0002
0003
0002
,
0003
0002
0003
0000
0000
2000
3000
0002
,
0003
0000
2000
0000
3000
0000
0000
0000
0000
0000
0310
0001
0010
0000
0100
0000
,
0010
0001
0010
0000
0100
0000
0000
0000
2000
0000
3001
0000
0000
0000
0010
1000
,
0010
0000
0100
0010
0100
0000
0001
1000
0001
1000
0001
0000
0101
0000
1000
0010
,
1000
0000
0001
0000
0101
0000
0101
0000
0100
0000
1000
0010
1000
0000
0001
0100
,
0001
0100
0001
0000
0100
1000
0100
0000
0001
0100
0001
0101
0000
0000
1000
0010
,
1000
0000
0100
0010
0200
0000
0301
0000
0000
0000
2002
0000
0000
0000
0000
0000
,
0000
3000
0000
0000
0000
0000
0000
0000
,
0000
0000
0000
0000
0200
0003
0000
0000
,
0002
0300
0000
0000
0020
0003
0100
0030
,
0100
0001
0100
0000
0010
0000
0100
0001
0100
0000
0010
0000
0001
0000
0010
0000
,
0100
0010
1000
0010
0100
0010
0001
0010
,
0100
0010
0001
0010
0100
0100
0001
0001
,
1000
0100
0010
0001
1000
0100
0010
0001
,
0100
0000
0010
0000
2000
0000
0000
0000
0000
0200
3000
0000
0000
0000
0000
0000
,
0000
0301
1000
0010
0200
0000
0000
0000
,
0000
0000
0000
0000
0000
0301
0100
0001
,
1000
0001
0100
0001
1000
0001
1000
1000
,
0010
0010
0001
0001
0010
0100
0010
0001
,
0010
0000
0100
0000
0010
0000
0000
0000
1000
0100
0000
0010
0001
0000
0000
0000
,
0001
0010
0000
0100
1000
0000
0000
0000
1000
0000
0100
0000
0101
0000
0000
0000
,
1100
0000
0011
0000
0100
0010
0001
0100
,
2000
0000
3001
0000
1000
0010
0001
0010
,
1000
0000
0100
0000
0001
0000
0000
0000
1000
0010
0000
0001
0010
0000
0000
0000
,
1000
0100
0000
0001
0100
0000
0000
0000
0010
0000
0100
0000
1001
0000
0000
0000
,
0010
0000
1100
0000
0100
0100
0001
0001
,
0100
0100
1000
1000
0100
0001
0100
0010
,
0100
0001
0100
0010
0100
0001
0100
0010
,
0100
0001
1000
0000
0101
0100
0110
0000
,
0011
0000
1010
0000
1000
1000
0010
0010
,
0001
0001
0010
0010
0100
1000
0100
0010
,
0100
1000
0100
0010
0100
1000
0100
0010
,
0100
1000
0001
0000
1100
0000
0101
0000
,
1000
0000
0010
0000
0100
0100
0001
0001
,
0010
0010
1000
1000
0200
0000
0000
0000
,
0000
0000
0000
0000
,
0000
0000
0300
0000
;
