#TITLE:Bryan Fury;
#SUBTITLE:Tekken 3 (1997);
#ARTIST:Hiroyuki Kawada;
#TITLETRANSLIT:;
#SUBTITLETRANSLIT:;
#ARTISTTRANSLIT:;
#CREDIT:;
#BANNER:Bryan Fury.png;
#BACKGROUND:Bryan Fury-bg.png;
#LYRICSPATH:;
#CDTITLE:!danceguyTitle.png;
#MUSIC:Bryan Fury.mp3;
#OFFSET:0.003;
#SAMPLESTART:47.303;
#SAMPLELENGTH:14.200;
#SELECTABLE:YES;
#BPMS:0.000=185.050;
#STOPS:;
#BGCHANGES:;
// cache tags:
#FIRSTBEAT:2.000;
#LASTBEAT:485.500;
#SONGFILENAME:Songs/VGMP 3/Bryan Fury (dAnceguy117)/Bryan Fury.sm;
#HASMUSIC:1;
#HASBANNER:1;
#MUSICLENGTH:160.470;
// end cache tags

//---------------dance-single - Challenge----------------
#NOTES:
     dance-single:
     Challenge:
     Challenge:
     12:
     1.000,1.000,1.000,0.361,1.000,1232.000,246.000,58.000,0.000,35.000:


0000
0000
0000
0000
0000
0000
0000
0000
1100
0001
1000
0001
1100
0000
1100
0001
,
1000
0001
0010
0000
1000
0001
1000
0001
1100
0001
1000
0001
1100
0000
1100
0001
,
1000
0001
1100
0000
1000
0001
1000
0001
1100
0001
1000
0001
1100
0000
1100
0001
,
1000
0001
1100
0000
1000
0001
1000
0001
1100
0000
1000
0001
1000
0001
1100
0000
,
1000
0001
1000
0001
0010
0000
1001
0001
1100
0001
1000
0001
1100
0000
1100
0001
,
1000
0001
1100
0000
1000
0001
1000
0001
1100
0001
1000
0001
1100
0000
1100
0001
,
1000
0001
1100
0000
1000
0001
1000
0001
1100
0001
1000
0001
1100
0000
1000
0001
,
1000
0001
1000
0001
0010
0000
1001
0001
1100
0000
1000
0001
1000
0001
1100
0000
,
1000
0001
1000
0001
0010
0000
1001
0001
1100
0001
1000
0001
1100
0000
1100
0001
,
1000
0001
1100
0000
1000
0001
1000
0001
1100
0001
1000
0001
1100
0000
1100
0001
,
1000
0001
1100
0000
1000
0001
1000
0001
1100
0001
1000
0001
1100
0000
1100
0001
,
1000
0001
0010
0000
1000
0001
1000
0001
1100
0000
1000
0001
1000
0001
1100
0000
,
1000
0001
1000
0001
0010
0000
1001
0001
1100
0001
1000
0001
1100
0000
1100
0001
,
1000
0001
1100
0000
1000
0001
1000
0001
1100
0001
1000
0001
1100
0000
1000
0001
,
1000
0001
1000
0001
0010
0000
1001
0001
0100
1001
0010
1100
0000
1000
0001
1000
,
0001
0000
0010
0000
0000
0000
0100
0000
0001
0000
1000
0000
0010
0001
0010
0000
0001
0000
1000
0000
0100
0000
0010
0000
0000
0000
0100
0000
0001
0000
0000
0000
,
1100
0001
0010
0000
0001
0010
0000
0001
1100
0000
0000
0000
0000
0000
0000
0000
,
0000
0000
0000
0000
0000
0001
1000
0010
1001
0010
0000
0010
0000
0000
0000
0000
,
0100
0001
1000
0000
0011
0000
0000
0000
,
0000
0000
0000
0000
0000
0100
0010
0001
1010
0001
0000
0001
0020
0000
2000
0000
,
3130
0001
1000
0000
1100
0000
0000
0000
,
0000
0000
0000
0000
0000
0001
1000
0010
1001
0010
0000
0010
0000
0000
0000
0000
,
0100
0001
1000
0000
0011
0000
0000
0000
,
0000
0000
0000
0000
0000
0100
0010
0001
1010
0001
0000
0001
0020
0000
2000
0000
,
3130
0000
0001
1000
0010
0000
0010
0001
1100
0001
1000
0001
1100
0000
1100
0001
,
1000
0001
1100
0000
1000
0001
1000
0001
1100
0001
1000
0001
1100
0000
1000
0001
,
1000
0001
1000
0001
0010
0001
0001
0100
0000
0000
0000
0000
0000
0000
0000
0000
,
0000
0000
0000
0000
,
0000
0000
0000
0000
1110
0001
1000
0010
,
0100
0000
0001
0000
0010
0000
0100
0100
1101
0000
0001
0100
1000
0000
0110
0000
,
1000
0000
0001
0000
0100
0000
0100
0100
0111
0000
1000
0100
0010
0000
0101
0000
,
1000
0000
0001
0000
0020
0030
0100
0100
1110
0000
0001
0100
0020
0000
2100
0000
,
3130
0001
1000
0001
1100
0000
0000
0000
,
0000
0000
0000
0000
0000
0001
1000
0010
1001
0000
0000
0000
0000
0000
0000
0000
,
0100
0001
1000
0000
0011
0000
0000
0000
,
0000
0000
0000
0000
0000
0100
0010
0001
1100
0000
1000
0001
1000
0001
1100
0000
,
1000
0001
1000
0001
1010
0000
1001
0100
1011
0000
0000
0001
0000
0000
0001
0000
,
0000
0010
1000
1000
0010
0000
1000
0100
0001
0100
0000
0101
0000
0010
0001
1000
,
0000
1000
0000
0000
1000
0000
1001
0001
1001
0000
0000
1001
0000
1000
1001
0000
,
0000
1000
0200
1300
1010
0000
0200
0300
0101
1000
0000
1001
0100
0000
1001
0100
,
0000
0100
1000
0000
0000
1000
0000
1110
0001
0100
0000
0101
1000
0000
1001
0100
,
0000
0100
1000
0000
0000
0100
0000
0100
1001
0100
0000
0101
1000
0000
1001
0100
,
0000
0100
1000
0000
0000
0100
0001
0101
1001
0000
0000
0101
0000
0100
1001
0000
,
0000
0100
0000
0100
0010
0000
1001
0100
0001
0100
0000
0101
1000
0000
0001
0100
,
0000
0100
1000
0000
0000
0100
1000
0100
1001
0010
0100
0011
1000
0001
0110
1000
,
0001
0010
0100
1000
0010
0100
0001
1000
0001
0100
0000
0101
1000
0000
0001
0100
,
0000
0100
0000
0100
0010
0000
0101
0101
1001
0000
0000
0101
0000
0100
1001
0000
,
0000
0100
0000
0100
0010
0000
0100
0100
0011
1000
0000
0101
0010
0000
1001
0010
,
0000
0100
1000
0000
0000
0010
0000
1110
0001
0100
0000
0101
1000
0000
1001
0100
,
0000
0100
0010
0000
0000
0100
0000
0100
1001
0100
0000
0100
1000
0000
1001
0100
,
0000
0100
0010
0000
0000
0100
1011
1011
0000
0000
0000
0100
0000
0100
1000
0000
,
0000
0100
0000
0100
0010
0000
1000
0100
0001
1000
0000
0100
0010
0000
0001
0010
,
0000
0100
1000
0011
0000
0010
0100
1000
0111
0000
0001
0000
0001
0000
0001
0000
,
1100
0000
0010
0000
1000
0100
0000
0100
1011
0000
0010
1000
0010
1000
0010
1000
,
0110
0000
0001
0010
1000
0100
0000
0010
1101
0000
0001
0000
1000
0100
1000
0100
,
1001
0000
0000
0000
0002
0000
0000
0003
0100
0000
1000
0000
0000
0000
1000
0000
0111
0000
1000
0000
0000
0000
0010
0000
0000
0000
0010
0000
0000
0000
0001
0000
,
0011
0000
1010
0000
0100
0000
0010
0000
1010
0100
0000
0100
1000
0000
1000
0100
,
0000
0100
1000
0000
0000
0100
0000
0100
1001
0100
0000
0101
1000
0000
1001
0100
,
0000
0100
1000
0000
0000
0100
0000
0100
1001
0100
0000
0100
1000
0000
0000
0100
,
0000
0100
0010
0000
0001
0100
0000
0100
1001
0000
0000
0101
0000
0100
1001
0000
,
0000
0100
0000
0100
0010
0000
1000
0100
1021
0030
1000
0000
0010
0000
0001
0000
,
0110
0000
0011
0000
1000
0000
0100
0000
0121
0030
0100
0000
0010
0000
0001
0000
,
1010
0000
0001
0000
1010
0000
0010
0000
2101
3000
0100
0000
0001
0000
0010
0000
,
1001
0000
0101
0000
1020
0030
1020
0030
0110
0000
0010
0000
0100
0000
1000
0000
,
0011
0000
0100
0000
1010
0000
0010
0000
1001
0000
0000
0001
0100
0001
0100
0010
,
0000
0100
0001
0100
0001
0100
0001
0100
1001
0000
0001
0100
0001
0100
0010
0000
,
0011
0100
0001
1010
0001
1000
0010
1100
0001
0000
0001
0100
1001
0000
1001
0000
,
0001
0000
0100
0000
2001
3000
0100
0000
2011
3000
0000
0000
2001
3000
0100
0000
0001
0000
0100
0000
0001
0000
0100
0000
1001
0000
0000
0000
0001
0000
0000
0000
,
0011
0100
0001
1010
0001
1000
0010
1100
0001
0010
0100
0001
1000
0100
0010
0000
,
0001
0100
1001
0000
1000
1000
0000
0001
0001
0010
0100
1000
0001
0100
0010
1000
,
0011
0000
0000
1010
0000
0000
0000
0110
0000
0000
0000
0000
0000
0000
0000
0000
,
0000
0000
0000
0000
,
0010
0100
1000
0010
0100
1000
0010
0100
0012
1000
0100
0010
0000
0000
0100
1000
,
0010
1000
0100
0010
0000
0000
0100
1000
0010
1000
0100
0010
0000
0000
0100
1000
,
0010
1000
0100
0010
2003
0000
0000
0000
3201
0010
1000
0001
0000
0000
1000
0010
,
0001
0010
1000
0001
0000
0000
0000
0000
0001
0010
1000
0001
0000
0000
1000
0010
,
0001
0010
1000
0001
0000
0000
0000
0000
1320
0001
0100
1000
0000
0000
0100
0001
,
1000
0001
0100
1000
0000
0000
0100
0001
1000
0001
0100
1000
0000
0000
0100
0001
,
1000
0001
0100
1000
0032
0000
0000
0000
2013
0001
0100
0010
0000
0000
0100
0001
,
0010
0001
0100
0010
0000
0000
0000
0000
0010
0001
0100
0010
0000
0000
0100
0001
,
0010
0001
0100
0010
0000
0000
0000
0000
3012
1000
0100
0010
0000
0000
0100
1000
,
0010
1000
0100
0010
0000
0000
0100
1000
0010
1000
0100
0010
0000
0000
0100
1000
,
0010
1000
0100
0010
2003
0000
0000
0000
3201
0010
1000
0001
0000
0000
1000
0010
,
0001
0010
1000
0001
0000
0000
0000
0000
0001
0010
1000
0001
0000
0000
1000
0010
,
0001
0010
1000
0001
0000
0000
0000
0000
1320
0001
0100
1000
0000
0000
0100
0001
,
1000
0001
0100
1000
0000
0000
0100
0001
1000
0001
0100
1000
0000
0000
0100
0001
,
1000
0001
0100
1000
0032
0000
0000
0000
2013
0001
0100
0010
0000
0000
0100
0001
,
0010
0001
0100
0010
0000
0000
0000
0000
0010
0001
0100
0010
0000
0000
0100
0001
,
0010
0001
0100
0001
0100
0010
0100
0010
3101
0000
0001
1100
0010
0000
0100
0001
,
1000
0100
0001
0100
0010
0000
0001
0100
1001
0000
0001
1010
0100
0000
0010
0001
,
1000
0000
0010
0100
0001
0000
1000
0100
1001
0000
0010
0101
1000
0000
0001
0010
,
0100
0000
1000
0001
0100
0010
0000
0100
0011
0000
1000
0110
0001
0000
0010
1000
,
0100
0000
0001
0010
1000
0000
0010
0001
0110
0000
1000
0101
0010
0000
0001
1000
,
0001
0100
1000
0100
0010
0000
1000
0110
1001
0000
0100
0011
1000
0000
0001
1000
,
0100
0000
0001
1000
0010
0000
0100
0001
1010
0000
0010
1100
0001
0000
0010
1000
,
0100
0010
0000
0100
0010
0000
0001
0100
1001
0010
1000
0011
0000
0010
0000
0001
,
0100
1000
0000
0000
1000
0000
1000
0010
1201
0300
0001
1000
0010
0000
1000
0011
,
1100
0010
0001
0100
0010
0000
1000
0101
2010
3001
0000
0100
0000
0010
0000
1100
,
0011
0100
0000
0001
0100
0001
0100
1010
0102
0003
0010
0100
0010
0100
0001
0110
,
1001
0100
0001
0100
0010
0000
1000
0101
1020
0130
1000
0100
0001
0000
0010
1100
,
0021
0130
0001
0000
0010
0100
0001
1100
0000
0000
0000
0100
0001
0000
0001
0100
,
0000
0100
0010
0000
0001
0100
0000
0100
0001
0100
0000
0100
0001
0000
0001
0100
,
0000
0100
0010
0000
0000
0100
0000
0100
0001
0000
0000
0100
0000
0100
0001
0000
,
0000
0100
0000
0100
0010
0000
1001
1100
0001
1100
0000
1100
0001
1000
0001
1100
,
0000
1100
0010
1001
0000
1010
0000
1100
0001
0100
0000
0100
0001
0000
0001
0100
,
0000
0100
0001
0000
0000
0100
0000
0100
0001
0100
0000
0100
0001
0000
0001
0100
,
0000
0100
0000
0100
0010
0000
1001
1100
0001
0000
0000
0100
0000
0100
0001
0000
,
0000
0100
0000
0100
0010
0000
0001
1100
0001
0100
0000
0100
0001
0000
0001
0100
,
0000
0100
0001
0000
1000
0100
0000
0100
1001
0100
0000
0100
0001
0000
0001
0100
,
0000
0100
0001
0000
0000
0100
0000
0100
1001
0100
0000
0100
0001
0000
1001
0100
,
0000
0100
0001
0000
0000
0100
0000
0100
1001
0000
0000
0100
0000
0100
0001
0000
,
0000
0100
0000
0100
0010
0000
1001
1100
0000
0100
0000
0100
0001
0000
0001
0100
,
0000
0100
0010
0000
0010
0100
0000
0010
1200
0300
0001
1000
0010
0000
0010
0100
,
0101
1000
0010
0000
0001
0100
1000
0001
1002
0003
0010
1000
0001
0000
1000
0100
,
0110
1000
0001
1000
0010
0000
0001
0100
2100
3010
0100
0001
0010
0100
1000
0011
,
0110
0000
2000
0000
3100
0000
0010
0000
0001
0000
0100
0000
0010
0000
1100
0000
1020
0000
0031
0000
1000
0000
0010
0000
0100
0000
0001
0000
0010
0000
2001
3000
,
0012
0103
0010
1000
0001
1000
0010
0100
2022
0000
0003
0000
0000
3030
2202
0000
,
0003
0000
0000
0000
0000
0000
3300
2022
3000
0000
0000
0000
0033
2202
3000
0000
,
0000
0000
0000
0000
0000
0303
2222
0000
0003
0000
0000
0000
0000
0000
0000
0000
,
0000
0000
0000
0000
,
0000
0000
0000
0000
,
0000
0000
0000
3330
0000
0000
0000
0000
;

//---------------dance-single - Heavy----------------
#NOTES:
     dance-single:
     Heavy:
     Hard:
     10:
     0.813,1.000,0.424,0.168,0.885,818.000,68.000,27.000,0.000,0.000:

0000
0000
0000
0000
0000
0000
0000
0000
1000
0100
0000
0010
0001
0000
1000
0100
,
0000
0000
0001
0000
0020
0030
0000
0000
0000
0000
1000
0000
0000
0000
1000
0000
0001
0000
0100
0000
0000
0000
0010
0000
1000
0000
0000
0000
0001
0000
0100
0000
,
0000
0010
1000
0000
0000
0100
0000
0100
0001
0100
0000
0010
1000
0000
0001
0100
,
0000
0010
1000
0000
0000
0100
0000
0010
1000
0000
0000
0100
0000
0010
1000
0000
,
0000
0100
0000
0001
0020
0030
0010
0001
1000
0100
0000
0010
0001
0000
1000
0100
,
0000
0010
0001
0000
0000
1000
0000
1000
0001
0100
0000
0010
1000
0000
0001
0100
,
0000
0010
1000
0000
0000
0100
0000
0100
0001
0100
0000
0010
1000
0000
0000
0100
,
0000
0100
0000
0100
0002
0003
0100
0010
1000
0000
0000
0100
0000
0010
1000
0000
,
0000
0100
0000
0100
0002
0003
0010
0001
1000
0100
0000
0010
0001
0000
1000
0100
,
0000
0010
0001
0000
0000
1000
0000
1000
0001
0100
0000
0010
1000
0000
0001
0100
,
0000
0010
1000
0000
0000
0100
0000
0100
0001
0100
0000
0010
1000
0000
0001
0100
,
0000
0000
0010
0000
0002
0003
0000
0000
0000
0000
0100
0000
0000
0000
0010
0000
1000
0000
0000
0000
0000
0000
0100
0000
0000
0000
0010
0000
1000
0000
0000
0000
,
0000
0100
0000
0001
0020
0030
0010
0001
1000
0100
0000
0010
0001
0000
1000
0100
,
0000
0010
0001
0000
0000
1000
0000
1000
0001
0100
0000
0010
1000
0000
0000
0100
,
0000
0100
0000
0100
0002
0003
0010
0001
0100
0010
1000
0001
0000
0000
0100
0000
,
0100
0000
0002
0000
0003
0000
0100
0000
0010
0000
1000
0001
1000
0000
0100
0000
0010
0000
0000
0000
0001
0000
0020
0000
0030
0000
0001
0000
0100
0000
0000
0000
,
0001
0100
0020
0030
0001
0020
0030
0001
1100
0000
0000
0000
0000
0000
0000
0000
,
0000
0000
1001
0000
,
0100
0001
1000
0000
0011
0000
0000
0000
,
0000
0000
1010
0020
,
0130
0001
1000
0000
1100
0000
0000
0000
,
0000
0000
1001
0000
,
0100
0001
1000
0000
0011
0000
0000
0000
,
0000
0000
1010
0020
,
0130
0000
0001
1000
0010
0000
1000
0001
1000
0100
0000
0010
0001
0000
1000
0100
,
0000
0010
0001
0000
0000
0100
0000
0100
0001
0100
0000
0010
1000
0000
0000
0100
,
0000
0100
0000
0100
0010
1000
0001
0100
0000
0000
0000
0000
0000
0000
0000
0000
,
0000
0000
0000
0000
,
0000
0000
0000
0000
1001
0100
1000
0001
,
0100
0000
0010
0000
1000
0000
0001
1000
0100
0000
0000
0100
0000
0000
0100
0000
,
0010
0000
0001
0000
1000
0000
0010
0100
0001
0000
0000
0001
0000
0000
0001
0000
,
0010
0000
0100
0000
1000
0000
0001
1000
0100
0000
0000
0100
0000
0000
0100
0000
,
1000
0010
0100
0001
1100
0000
0000
0000
,
0000
0000
1001
0000
,
0100
0001
1000
0000
0011
0000
0000
0000
,
0000
0000
0000
0000
0000
0000
0000
0000
0100
0000
1000
0001
1000
0001
0100
0000
,
0010
1000
0010
1000
0100
0000
0010
0100
1001
0000
0000
1000
0000
0000
1000
0000
,
0100
0010
0000
0100
0010
0000
0010
0001
1000
0000
0000
1000
0000
0010
1000
0000
,
0100
0000
0010
0000
0001
0000
1000
0001
1000
0000
0000
1000
0000
0000
1000
0000
,
0100
0000
1001
0000
0011
0000
1001
0000
0100
0000
0000
0100
0000
0000
1000
0000
,
0010
0000
0100
0000
0001
0000
0000
1010
0100
0000
0000
0100
0000
0000
1000
0000
,
0010
0000
0100
0000
0001
0000
0010
0000
0100
0000
0000
0100
0000
0000
0100
0000
,
1000
0000
0010
0000
0100
0000
0010
1000
0001
0000
0000
0001
0000
0000
0010
0000
,
0100
0000
1000
0000
0001
0000
1000
0000
0100
0000
0000
0100
0000
0000
0010
0000
,
0001
0000
1000
0000
0010
0000
0100
0000
0011
0100
1000
0001
0100
0010
1000
0100
,
0010
0001
1000
0010
0100
0001
0010
0100
1000
0000
0000
1000
0000
0000
0001
0000
,
0100
0000
0010
0000
1000
0000
0100
0010
0001
0000
0000
0001
0000
0000
0100
0000
,
0010
0000
1000
0000
0001
0000
0010
0000
0100
0000
0000
0100
0000
0000
1000
0000
,
0001
0000
0100
0000
0010
0000
0000
0101
1000
0000
0000
1000
0000
0000
0001
0000
,
0010
0100
1000
0010
0100
0000
0000
0100
,
0001
0000
0010
0000
0100
0000
1010
1010
0000
0000
0100
0000
0010
0000
1000
0000
,
0001
0010
0100
1000
0001
0100
0100
0001
,
0100
0000
0100
0001
1000
0000
0010
0000
1100
0000
0001
0000
1000
0000
1000
0000
,
0110
0000
0010
0000
1000
0100
0000
0000
1001
0000
0010
1000
0010
0100
0010
0000
,
0011
0000
0010
0001
1000
0100
0000
0000
0101
0000
1000
0000
0010
1000
0001
0000
,
0110
0000
0101
0000
0001
1000
0000
0000
1010
0000
0100
0001
0000
0001
0000
0000
,
0011
0110
0001
1000
0110
0001
1000
0010
,
0100
0000
0001
0000
0010
0000
0100
0000
1000
0000
0000
1000
0000
0000
1000
0000
,
0010
0100
0001
0010
0100
1000
0001
0100
,
0010
0000
1000
0000
0001
0000
1000
0000
0010
0000
0000
0010
0000
0000
0100
0000
,
0001
0010
0100
1000
0110
0010
1000
0001
,
0110
0001
0010
0100
1001
1000
0010
0100
,
0011
1000
0001
0010
1100
0100
0001
1000
,
0110
0001
1010
1010
0101
0100
0010
0001
,
1010
0000
0100
0000
0001
0000
1000
0000
0110
0000
0000
1000
0000
1000
0000
0010
,
0000
0000
0010
0100
0001
1000
0001
0100
0001
0000
0000
0100
0000
0100
0010
0000
,
0011
0000
0000
1010
0000
0000
0000
0110
0000
0000
0100
0010
1000
0000
1000
0000
,
0001
0000
1001
0000
0011
0000
1001
0000
0001
0100
0000
0100
0010
0000
1000
0000
,
0011
0000
0000
1010
0000
0000
0000
0110
0001
0010
0100
1000
0001
0100
0010
0000
,
1000
0000
0100
0000
0010
0001
0000
0001
0001
0010
0100
1000
0001
0100
0010
1000
,
0011
0000
0000
1010
0000
0000
0000
0101
0000
0000
0000
0000
0000
0000
0000
0000
,
0000
0000
0000
0000
,
0001
1000
0010
0100
0001
0010
0100
1000
0002
0000
0000
0000
0000
0000
0000
0000
,
0000
0000
0000
0000
,
0000
2003
3200
0000
,
0000
0000
0000
0000
,
0000
0000
0320
0000
,
0000
0000
0000
0000
,
0000
0032
2003
0000
,
0000
0000
0000
0000
,
0000
0000
3002
0000
,
0000
0000
0000
0000
,
0000
2003
3200
0000
,
0000
0000
0000
0000
,
0000
0000
0320
0000
,
0000
0000
0000
0000
,
0000
0032
2003
0000
,
0000
0000
0000
0000
,
0000
0000
0000
0000
3001
0010
0001
0010
0100
0000
1000
0001
0100
0000
0010
1000
,
0001
0100
0000
0100
0010
0000
0010
0100
0001
0000
1000
0001
0100
0000
0010
1000
,
0001
0000
0010
0100
1000
0000
0001
0100
0010
0000
1000
0001
0100
0000
0010
0100
,
0001
0000
0010
0100
1000
0001
0000
0001
0100
0000
0010
1000
0001
0000
0010
0100
,
1000
0000
0001
0010
0100
0000
0010
0001
1000
0000
0010
0100
0001
0000
0010
0100
,
1000
0100
1000
0100
0010
0000
0001
1000
0010
0000
0100
0001
0100
0000
0010
0100
,
0010
0000
1000
0010
1000
0000
0001
1000
0010
0000
0010
1000
0001
0000
0100
0001
,
1000
0001
0000
1000
0001
0000
0010
0100
1000
0100
0000
1000
0000
0010
0000
1000
,
0001
1000
0000
0000
1000
0000
0010
1000
1001
0000
0100
0000
0001
0000
1000
0010
,
0010
0100
0000
0010
0100
0000
0001
0010
0010
0000
0100
0000
1000
0010
0100
0001
,
0001
0000
0010
0000
0100
0000
1000
0010
0010
0000
0100
0000
0001
0000
0010
0100
,
0100
0000
1000
0000
0011
0000
0100
0010
0110
0000
1000
0000
0001
0000
0010
0001
,
0011
0000
1000
0000
0010
0000
0100
0001
0000
0000
0000
0000
1000
0000
0000
0000
,
0000
0010
0000
0000
0000
0000
1000
0000
,
0000
0010
0000
0000
1000
0000
0000
1000
,
0000
0000
0000
0000
0010
0000
0100
0010
1000
1000
0000
0001
0000
0010
0000
0100
,
0000
1000
0000
0010
0000
0100
0000
0001
0000
0000
0000
0000
0100
0000
0000
0000
,
0000
0100
0000
0000
0000
0000
0100
0000
,
0000
0000
0000
0000
0001
0000
1000
1000
0100
0000
0000
0000
0000
0000
0100
0000
,
0000
0000
0000
0000
0010
0000
0000
0100
0000
0000
1000
0000
0001
0000
0001
0010
,
0000
0010
0100
0000
0100
1000
0001
1000
0100
0000
0000
0000
1000
0000
0000
0000
,
0000
1000
0000
0000
0100
0000
1000
0100
,
0000
1000
0000
0000
0100
0000
0000
1000
,
0000
0000
0000
0000
0010
0000
0100
0100
0001
1000
0000
0100
0010
0000
0010
0001
,
0000
1000
0010
0000
0010
0100
0000
0010
1001
0000
0010
0000
1000
0000
0001
0000
,
0110
0000
0001
0000
0010
0000
0100
1000
0011
0000
0001
0000
0010
0000
0100
0000
,
1001
0000
1000
0000
0010
0000
0100
0001
0010
0001
1000
0010
0100
0001
0010
0100
,
1000
0010
0100
0001
0010
0100
1000
0001
0100
0001
0010
0100
1000
0001
0100
0010
,
1000
0100
0010
0001
1000
0010
0100
0001
1010
0000
0000
0000
0000
0000
0101
0000
,
0000
0000
0000
0000
0000
0000
0000
0110
0000
0000
0000
0000
0000
1100
0000
0000
,
0000
0000
0000
0022
0000
0000
0000
0000
,
0000
0000
0000
0000
,
0000
0000
0000
0000
,
0000
0000
0000
0033
0000
0000
0000
0000
;
