#TITLE:Bagger;
#SUBTITLE:;
#ARTIST:ACME;
#TITLETRANSLIT:;
#SUBTITLETRANSLIT:;
#ARTISTTRANSLIT:;
#CREDIT:;
#BANNER:acme.png;
#BACKGROUND:bagger-Copy.png;
#LYRICSPATH:;
#CDTITLE:pimpin wctitle.png;
#MUSIC:ACME - Bagger.mp3;
#OFFSET:-0.023;
#SAMPLESTART:42.880;
#SAMPLELENGTH:12.000;
#SELECTABLE:YES;
#BPMS:0.000=140.000;
#STOPS:;
#BGCHANGES:;
// cache tags:
#FIRSTBEAT:0.000;
#LASTBEAT:222.333;
#SONGFILENAME:Songs/Farewell, My Little Stepmania Pack/Bagger[wc]/Bagger.sm;
#HASMUSIC:1;
#HASBANNER:1;
#MUSICLENGTH:98.011;
// end cache tags

//---------------dance-single - ----------------
#NOTES:
     dance-single:
     :
     Challenge:
     3:
     1.000,1.000,1.000,1.000,1.000,524.000,218.000,253.000,4.000,116.000:
0010
0000
0010
0011
0100
0010
1100
0000
1000
0112
0003
0010
,
1200
0300
0100
1210
0310
0001
0120
0030
0010
1102
0003
0100
,
1020
0030
1000
0211
0301
0010
1100
0000
0010
1201
0300
0001
,
0102
0003
0100
1012
0013
0001
0120
0030
1000
1201
0300
0001
,
0120
0030
0001
2110
3100
0001
1010
0000
0100
2011
3000
0001
,
0210
0300
1000
0211
0310
0001
0120
0030
0001
1210
0300
1000
,
2100
3000
0010
1102
0103
0010
1001
0000
0100
1021
0030
0001
,
2010
3000
1000
1210
0310
0001
0120
0030
1000
0211
0300
0100
,
1020
0000
0000
0000
0030
0000
0000
0000
0010
0000
0000
0000
2101
0000
0000
0000
3100
0000
0000
0000
0001
0000
0000
0000
0110
0000
0000
0000
0000
0000
0000
0000
1000
0000
0000
0000
0121
0030
0000
0000
2000
3000
0000
0000
0020
0030
0000
0000
,
0102
0000
0000
0000
0000
0003
0000
0000
0200
0300
0000
0000
1012
0000
0000
0000
0010
0000
0003
0000
0200
0300
0000
0000
2001
0000
0000
0000
0000
3000
0000
0000
0001
0000
0000
0000
1120
0030
0000
0000
0000
0000
0000
0000
0200
0000
0000
0000
,
1010
0000
0000
0000
0300
0000
0000
0000
2000
0000
0000
0000
0111
0000
0000
0000
3001
0000
0000
0000
0100
0000
0000
0000
0021
0030
0000
0000
0000
0000
0000
0000
0001
0000
0000
0000
1210
0300
0000
0000
2000
3000
0000
0000
0200
0300
0000
0000
,
1020
0000
0000
0000
0000
0000
0030
0000
0200
0300
0000
0000
1021
0000
0000
0000
0001
0000
0030
0000
2000
3000
0000
0000
2100
0000
0000
0000
0000
0000
0000
0000
0100
0000
0000
0000
3111
0000
0000
0000
0000
0000
0000
0000
0001
0000
0000
0000
,
1100
0000
0000
0000
0000
0000
0000
0000
0010
0000
0000
0000
1101
0000
0000
0000
0100
0000
0000
0000
0010
0000
0000
0000
1100
0000
0000
0000
0000
0000
0000
0000
1000
0000
0000
0000
0121
0030
0000
0000
2000
3000
0000
0000
0200
0300
0000
0000
,
0102
0000
0000
0000
0000
0000
0003
0000
0200
0300
0000
0000
1012
0000
0000
0000
1000
0000
0000
0003
0020
0030
0000
0000
1020
0000
0000
0000
0000
0000
0030
0000
0001
0000
0000
0000
1120
0030
0000
0000
0000
0000
0000
0000
0200
0000
0000
0000
,
0011
0000
0000
0000
0300
0000
0000
0000
2000
0000
0000
0000
0111
0000
0000
0000
0001
3000
0000
0000
0010
0000
0000
0000
1200
0300
0000
0000
0000
0000
0000
0000
0100
0000
0000
0000
1102
0003
0000
0000
2000
3000
0000
0000
0200
0300
0000
0000
,
0021
0000
0000
0000
0001
0000
0030
0000
0200
0300
0000
0000
1021
0000
0000
0000
0001
0000
0030
0000
0200
0300
0000
0000
2001
0000
0000
0000
0000
0000
0000
0000
0010
0000
0000
0000
3111
0000
0000
0000
0000
0000
0000
0000
0100
0000
0000
0000
,
1010
0000
0000
0000
0000
0000
0000
0000
0001
0000
0000
0000
1110
0000
0000
0000
0010
0000
0000
0000
0001
0000
0000
0000
0201
0300
2000
0000
0000
0000
0000
0000
0100
0000
3000
0000
1011
0000
0000
0000
0000
0000
0000
0000
0001
0000
0000
0000
,
1100
0000
0000
0000
0000
0000
0000
0000
0200
0300
0000
0000
1120
0000
0000
0000
1000
0030
0000
0000
0200
0300
0000
0000
1020
0030
0002
0000
0000
0000
0000
0000
0013
0000
0000
0000
1102
0000
0000
0000
0000
0000
0003
0000
1000
0000
0000
0000
,
0120
0000
0000
0000
0000
0000
0030
0000
0001
0000
0000
0000
1210
0000
0000
0000
0010
0000
0300
0000
0100
0000
0000
0000
2001
3000
0000
0000
0200
0000
0000
0000
0010
0000
0000
0000
1311
0000
0000
0000
0000
0000
0000
0000
0001
0000
0000
0000
,
0120
0000
0000
0000
1030
0000
0111
0000
0100
0000
0002
0000
1010
0000
0000
0003
0010
0000
1101
0000
0000
0000
0001
0000
,
0110
0000
0000
0000
0000
0000
0000
0000
1000
0000
0000
0000
0121
0030
0000
0000
0001
0000
0000
0000
0010
0000
0000
0000
2000
3000
0200
0000
0000
0000
0000
0000
0010
0000
0000
0000
1311
0000
0000
0000
0000
0000
0000
0000
0001
0000
0000
0000
,
0110
0000
0000
0000
0000
0000
0000
0000
2000
3000
0000
0000
1210
0000
0000
0000
0010
0300
0000
0000
2000
3000
0000
0000
0120
0030
1000
0000
0002
0003
0000
0000
0010
0000
0000
0000
1102
0000
0000
0000
0000
0000
0003
0000
0100
0000
0000
0000
,
1020
0000
0000
0000
0000
0000
0030
0000
0001
0000
0000
0000
1210
0000
0000
0000
1000
0000
0300
0000
0010
0000
0000
0000
2100
3000
0000
0000
0002
0000
0000
0000
1000
0000
0000
0003
0111
0000
0000
0000
0000
0000
0000
0000
0001
0000
0000
0000
,
0210
0000
1300
1101
0001
0020
0131
0000
0100
1000
0000
0100
,
1000
0000
0100
0011
0100
0010
1100
0000
1000
0112
0003
0010
,
1200
0300
0100
1210
0310
0001
0120
0030
0010
1102
0003
0100
,
1020
0030
1000
0211
0301
0010
1100
0000
0010
1201
0300
0001
,
0102
0003
0100
1012
0013
0001
0120
0030
1000
1201
0300
0001
,
0120
0030
0001
2110
3100
0001
1010
0000
0100
2011
3000
0001
,
0210
0300
1000
0211
0310
0001
0120
0030
0001
1120
0030
1000
,
2100
3000
0010
1102
0103
0010
1001
0000
0100
1011
0000
0001
,
2010
3000
1000
0211
0310
0001
0120
0030
1000
1201
0300
0100
,
1020
0000
0000
0000
0030
0000
0000
0000
0001
0000
0000
0000
2110
0000
0000
0000
3100
0000
0000
0000
0001
0000
0000
0000
0110
0000
0000
0000
0000
0000
0000
0000
1000
0000
0000
0000
0121
0030
0000
0000
2000
3000
0000
0000
0200
0300
0000
0000
,
0012
0000
0000
0000
0000
0000
0000
0000
0023
0030
0000
0000
1102
0000
0000
0000
1000
0000
0000
0000
0023
0030
0000
0000
0120
0000
0000
0000
0000
0000
0000
0030
1000
0000
0000
0000
0211
0000
0000
0000
0000
0000
0000
0300
2000
0000
0000
0000
,
0110
0000
0000
3000
0000
0000
0000
0000
0200
0000
0000
0000
1011
0000
0000
0300
0010
0000
0000
0000
0001
0000
0000
0000
2100
3000
0000
0000
0000
0000
0000
0000
0010
0000
0000
0000
1201
0300
0000
0000
0020
0030
0000
0000
0200
0300
0000
0000
,
0012
0000
0000
0000
0000
0000
0000
0000
2003
3000
0000
0000
0112
0000
0000
0000
0010
0000
0000
0000
0203
0300
0000
0000
0210
0000
0000
0000
0000
0000
0000
0000
0310
0000
0000
0000
1101
0000
0000
0000
0000
0000
0000
0000
0010
0000
0000
0000
,
1100
0000
0000
0000
0000
0000
0000
0000
1000
0000
0000
0000
0111
0000
0000
0000
0001
0000
0000
0000
0010
0000
0000
0000
0110
0000
0000
0000
0000
0000
0000
0000
0100
0000
0000
0000
1012
0003
0000
0000
0020
0030
0000
0000
0002
0003
0000
0000
,
0210
0000
0000
0000
0000
0000
0000
0000
2300
3000
0000
0000
0211
0000
0000
0000
0001
0000
0000
0000
0320
0030
0000
0000
1020
0000
0000
0000
0000
0000
0000
0000
0001
0030
0000
0000
1210
0000
0000
0000
0000
0000
0000
0300
2000
0000
0000
0000
,
0101
0000
0000
0000
0000
3000
0000
0000
0002
0000
0000
0000
1110
0000
0000
0000
0010
0003
0000
0000
1000
0000
0000
0000
0210
0300
0000
0000
0000
0000
0000
0000
0001
0000
0000
0000
0121
0030
0000
0000
2000
3000
0000
0000
0200
0300
0000
0000
,
1002
0000
0000
0000
0000
0000
0000
0000
0203
0300
0000
0000
1012
0000
0000
0000
0010
0000
0000
0000
0203
0300
0000
0000
2010
0000
0000
0000
0000
0000
0000
0000
0010
0000
3000
0000
0111
0000
0000
0000
0000
0000
0000
0000
0010
0000
0000
0000
,
1100
0000
0000
0000
0000
0000
0000
0000
1000
0000
0000
0000
1110
0000
0000
0000
0100
0000
0000
0000
1000
0000
0000
0000
0210
0300
0000
0000
0000
0000
0000
0000
1000
0000
0000
0000
1201
0300
0000
0000
0000
0000
0000
0000
0020
0030
0000
0000
,
2010
0000
0000
0000
3000
0000
0000
0000
0020
0030
0000
0000
2110
0000
0000
0000
3100
0000
0000
0000
0002
0003
0000
0000
1002
0000
0000
0000
0003
0000
0000
0000
0200
0300
0000
0000
2101
0000
0000
0000
3000
0000
0000
0000
2000
3000
0000
0000
,
1020
0000
0000
0000
0030
0000
0000
0000
0010
0000
0000
0000
2110
3000
0000
0000
1000
0000
0000
0000
0002
0003
0000
0000
2001
3000
0000
0000
0000
0000
0000
0000
0002
0003
0000
0000
2011
3000
0000
0000
0000
0000
0000
0000
2000
3000
0000
0000
,
1020
0000
0000
0000
0030
0000
0000
0000
0020
0030
0000
0000
0121
0000
0000
0000
0031
0000
0000
0000
0200
0300
0000
0000
0102
0000
0000
0000
0003
0000
0000
0000
0020
0030
0000
0000
1210
0000
0000
0000
0300
0000
0000
0000
2000
3000
0000
0000
,
1002
0000
0000
0000
0003
0000
0000
0000
0002
0003
0000
0000
1201
0300
0000
0000
1000
0000
0000
0000
0020
0030
0000
0000
0012
0003
0000
0000
0000
0000
0000
0000
0100
0000
0000
0000
0112
0003
0000
0000
0000
0000
0000
0000
0200
0300
0000
0000
,
2100
0000
0000
0000
3000
0000
0000
0000
0020
0030
0000
0000
2110
0000
0000
0000
3100
0000
0000
0000
0020
0030
0000
0000
0012
0000
0000
0000
0003
0000
0000
0000
0002
0003
0000
0000
0211
0000
0000
0000
0000
0300
0000
0000
0200
0300
0000
0000
,
0120
0000
0000
0000
0030
0000
0000
0000
0001
0000
0000
0000
2101
3000
0000
0000
1000
0000
0000
0000
0200
0300
0000
0000
2100
3000
0000
0000
0000
0000
0000
0000
0200
0300
0000
0000
2110
3000
0000
0000
0000
0000
0000
0000
0200
0300
0000
0000
,
0120
0000
0000
0000
0030
0000
0000
0000
0200
0300
0000
0000
0121
0000
0000
0000
0031
0000
0000
0000
0020
0030
0000
0000
0012
0000
0000
0000
0003
0000
0000
0000
0002
0003
0000
0000
1201
0000
0000
0000
0300
0000
0000
0000
0020
0030
0000
0000
,
0012
0000
0000
0000
0003
0000
0000
0000
0002
0003
0000
0000
2011
3000
0000
0000
0010
0000
0000
0000
2000
3000
0000
0000
0021
0030
0200
0000
0000
0000
0000
0000
1000
0000
0300
0000
1011
0000
0000
0000
0000
0000
0000
0000
0001
0000
0000
0000
,
1100
0000
0000
0000
0000
0000
0000
0000
0200
0300
0000
0000
1120
0000
0000
0000
1000
0030
0000
0000
0200
0300
0000
0000
1020
0030
0002
0000
0000
0000
0000
0000
0013
0000
0000
0000
1102
0000
0000
0000
0000
0000
0003
0000
1000
0000
0000
0000
,
0120
0000
0000
0000
0000
0000
0030
0000
0001
0000
0000
0000
1210
0000
0000
0000
0010
0000
0300
0000
0100
0000
0000
0000
2001
3000
0000
0000
0200
0000
0000
0000
0010
0000
0000
0000
1311
0000
0000
0000
0000
0000
0000
0000
0001
0000
0000
0000
,
0120
0000
0000
0000
1030
0000
0111
0000
0100
0000
0002
0000
1010
0000
0000
0003
0010
0000
1101
0000
0000
0000
0001
0000
,
0110
0000
0000
0000
0000
0000
0000
0000
1000
0000
0000
0000
0121
0030
0000
0000
0001
0000
0000
0000
0010
0000
0000
0000
2001
3000
0200
0000
0000
0000
0000
0000
0010
0000
0000
0000
1311
0000
0000
0000
0000
0000
0000
0000
0001
0000
0000
0000
,
0110
0000
0000
0000
0000
0000
0000
0000
2000
3000
0000
0000
1210
0000
0000
0000
0010
0300
0000
0000
2000
3000
0000
0000
0120
0030
1000
0000
0002
0003
0000
0000
0010
0000
0000
0000
1102
0000
0000
0000
0000
0000
0003
0000
0100
0000
0000
0000
,
1020
0000
0000
0000
0000
0000
0030
0000
0001
0000
0000
0000
1210
0000
0000
0000
1000
0000
0300
0000
0010
0000
0000
0000
2000
3000
0000
0000
0002
0000
0000
0000
1000
0000
0000
0003
0111
0000
0000
0000
0000
0000
0000
0000
0001
0000
0000
0000
,
0210
0000
0000
0000
1300
0000
1101
0000
0001
0000
0020
0000
M101
0030
0MMM
0000
0000
0000
0000
0000
0000
0000
0000
0000
,
0000
0000
0000
0000
,
0000
0000
0000
0000
;
