#TITLE:Terror From Dom City;
#SUBTITLE:;
#ARTIST:Bong-Ra;
#TITLETRANSLIT:;
#SUBTITLETRANSLIT:;
#ARTISTTRANSLIT:;
#CREDIT:;
#BANNER:Bong-Ra-banner.PNG;
#BACKGROUND:Bong-Ra.PNG;
#LYRICSPATH:;
#CDTITLE:The_Blackbulb.PNG;
#MUSIC:Terror From Dom City.mp3;
#OFFSET:0.000;
#SAMPLESTART:60.000;
#SAMPLELENGTH:12.000;
#SELECTABLE:YES;
#BPMS:0.000=92.520;
#STOPS:;
#BGCHANGES:;
// cache tags:
#FIRSTBEAT:0.000;
#LASTBEAT:500.125;
#SONGFILENAME:Songs/toune/Terror From Dom City/Terror From Dom City.sm;
#HASMUSIC:1;
#HASBANNER:1;
#MUSICLENGTH:324.811;
// end cache tags

//---------------dance-single - Blank----------------
#NOTES:
     dance-single:
     Blank:
     Hard:
     13:
     1.000,1.000,1.000,0.908,1.000,2530.000,630.000,295.000,0.000,112.000:

0020
2030
3002
0203
0320
0032
0203
0320
,
0230
0302
0023
2030
3200
0302
0023
0230
,
2300
3200
0320
0032
2003
3200
0302
0023
,
0230
0302
2003
3020
0032
0203
0320
2030
,
3101
0000
0010
0101
0000
0000
0100
0000
0001
0100
0010
0000
1000
0100
0010
0000
0010
0100
1000
0100
0011
0000
0100
0010
0001
0000
1100
0000
0010
0100
1000
0000
,
0110
0000
0000
0000
0000
0000
0000
0000
0000
0000
0000
0000
0011
0000
0000
0000
0000
0000
0000
0000
0110
0000
0000
0000
0000
0000
0000
0000
0000
0000
1000
0000
0000
0000
0000
0000
0100
0000
0000
0000
0000
0000
0010
0000
0000
0000
0000
0000
0001
0000
0000
0000
0000
0000
0000
0000
0000
0000
0000
0000
0010
0000
0000
0000
0000
0000
0000
0000
0000
0000
0000
0000
0100
0000
0000
0000
0000
0000
0000
0000
0000
0000
0000
0000
1000
0000
0000
0000
0000
0000
0100
0000
0000
0000
0000
0000
0010
0000
0000
0000
0000
0000
0000
0000
0000
0000
0000
0000
0001
0000
0000
0000
0000
0000
0010
0000
0000
0000
0000
0000
1100
0000
0000
0000
0000
0000
0000
0000
0000
0000
0000
0000
0010
0000
0000
0000
0000
0000
0000
0000
0000
0000
0000
0000
1000
0000
0000
0000
0000
0000
0100
0000
0000
0000
0000
0000
0011
0000
0000
0000
0000
0000
0000
0000
0000
0000
0000
0000
1000
0000
0000
0000
0000
0000
0100
0000
0000
0000
0000
0000
0010
0000
0000
0000
0000
0000
0000
0000
0000
0000
0000
0000
,
2100
0000
0001
0000
3200
0010
0001
0000
0302
0000
0010
0000
0203
1000
0010
0000
0320
0000
0001
0000
2030
0010
0000
0100
3002
0010
0100
1000
0203
0000
0010
0000
,
0301
0010
0011
0000
1000
0100
0010
0000
0001
0010
0100
0010
0000
0000
1000
0100
0010
0001
0010
0000
1100
0000
0001
0010
0100
0000
0011
0100
1000
0100
0010
0000
,
1100
0000
0000
0000
0000
0000
0000
0000
0000
0000
0000
0000
0011
0000
0000
0000
0000
0000
0000
0000
0011
0000
0000
0000
0000
0000
0000
0000
0000
0000
0010
0000
0000
0000
0000
0000
0001
0000
0000
0000
0000
0000
0010
0000
0000
0000
0000
0000
1100
0000
0000
0000
0000
0000
0000
0000
0000
0000
0000
0000
1000
0000
0000
0000
0000
0000
0100
0000
0000
0000
0000
0000
0010
0000
0000
0000
0000
0000
0001
0000
0000
0000
0000
0000
0100
0000
0000
0000
0000
0000
0000
0000
0000
0000
0000
0000
0011
0000
0000
0000
0000
0000
0000
0000
0000
0000
0000
0000
1000
0000
0000
0000
0000
0000
0000
0000
0000
0000
0000
0000
0011
0000
0000
0000
0000
0000
0100
0000
0000
0000
0000
0000
1000
0000
0000
0000
0000
0000
0000
0000
0000
0000
0000
0000
1100
0000
0000
0000
0000
0000
0010
0000
0000
0000
0000
0000
0101
0000
0000
0000
0000
0000
0010
0000
0000
0000
0000
0000
0100
0000
0000
0000
0000
0000
0010
0000
0000
0000
0000
0000
0001
0000
0000
0000
0000
0000
0000
0000
0000
0000
0000
0000
,
2100
0000
0000
0000
0000
0000
0000
0000
0000
0000
0000
0000
0011
0000
0000
0000
0000
0000
0000
0000
0011
0000
0000
0000
3200
0000
0000
0000
0000
0000
0000
0000
0000
0000
0000
0000
0010
0000
0000
0000
0000
0000
0000
0000
0000
0000
0000
0000
0302
0000
0000
0000
0000
0000
0010
0000
0000
0000
0000
0000
1000
0000
0000
0000
0000
0000
0000
0000
0000
0000
0000
0000
0203
0000
0000
0000
0000
0000
0010
0000
0000
0000
0000
0000
0000
0000
0000
0000
0000
0000
0001
0000
0000
0000
0000
0000
0320
0000
0000
0000
0000
0000
0000
0000
0000
0000
0000
0000
0100
0000
0000
0000
0000
0000
0000
0000
0000
0000
0000
0000
2030
0000
0000
0000
0000
0000
0100
0000
0000
0000
0000
0000
0010
0000
0000
0000
0000
0000
0001
0000
0000
0000
0000
0000
3020
0000
0000
0000
0000
0000
0000
0000
0000
0000
0000
0000
0100
0000
0000
0000
0000
0000
0000
0000
0000
0000
0000
0000
0230
0000
0000
0000
0000
0000
1000
0000
0000
0000
0000
0000
0010
0000
0000
0000
0000
0000
0000
0000
0000
0000
0000
0000
,
0301
0000
0000
0000
0000
0000
0000
0000
0000
0000
0000
0000
0011
0000
0000
0000
0000
0000
0000
0000
0011
0000
0000
0000
0000
0000
0000
0000
0000
0000
1000
0000
0000
0000
0000
0000
0100
0000
0000
0000
0000
0000
0010
0000
0000
0000
0000
0000
1100
0000
0000
0000
0000
0000
0010
0000
0000
0000
0000
0000
0001
0000
0000
0000
0000
0000
0010
0000
0000
0000
0000
0000
0000
0000
0000
0000
0000
0000
0100
0000
0000
0000
0000
0000
0010
0000
0000
0000
0000
0000
0001
0000
0000
0000
0000
0000
1100
0000
0000
0000
0000
0000
0001
0000
0000
0000
0000
0000
0000
0000
0000
0000
0000
0000
1000
0000
0000
0000
0000
0000
0100
0000
0000
0000
0000
0000
0010
0000
0000
0000
0000
0000
0100
0000
0000
0000
0000
0000
1000
0000
0000
0000
0000
0000
0000
0000
0000
0000
0000
0000
0001
0000
0000
0000
0000
0000
0010
0000
0000
0000
0000
0000
0100
0000
0000
0000
0000
0000
0011
0000
0000
0000
0000
0000
0000
0000
0000
0000
0000
0000
0110
0000
0000
0000
0000
0000
0000
0000
0000
0000
0000
0000
,
2100
0000
0000
0000
0000
0000
0011
0000
0000
0000
0000
0000
0000
0000
0000
0000
0011
0000
0000
0000
0000
0000
0000
0000
3002
0000
0000
0000
0000
0000
0010
0000
0000
0000
0000
0000
0100
0000
0000
0000
0000
0000
0000
0000
0000
0000
0000
0000
0203
0000
0000
0000
0000
0000
0010
0000
0000
0000
0000
0000
0001
0000
0000
0000
0000
0000
0000
0000
0000
0000
0000
0000
0320
0000
0000
0000
0000
0000
0100
0000
0000
0000
0000
0000
1000
0000
0000
0000
0000
0000
0000
0000
0000
0000
0000
0000
2030
0000
0000
0000
0000
0000
0100
0000
0000
0000
0000
0000
0010
0000
0000
0000
0000
0000
0001
0000
0000
0000
0000
0000
3200
0000
0000
0000
0000
0000
0001
0000
0000
0000
0000
0000
0010
0000
0000
0000
0000
0000
0000
0000
0000
0000
0000
0000
0302
0000
0000
0000
0000
0000
0010
0000
0000
0000
0000
0000
0100
0000
0000
0000
0000
0000
1000
0000
0000
0000
0000
0000
0203
0000
0000
0000
0000
0000
0010
0000
0000
0000
0000
0000
0001
0000
0000
0000
0000
0000
0000
0000
0000
0000
0000
0000
,
0311
0000
0000
0000
0000
0000
0000
0000
0011
0000
0000
0000
0000
0000
0000
0000
0000
0000
0011
0000
0000
0000
0000
0000
0000
0000
0000
0000
0000
0000
0100
0000
0000
0000
0000
0000
0010
0000
0000
0000
0000
0000
0001
0000
0000
0000
0000
0000
1100
0000
0000
0000
0000
0000
0000
0000
0000
0000
0000
0000
0001
0000
0000
0000
0000
0000
1000
0000
0000
0000
0000
0000
0100
0000
0000
0000
0000
0000
0010
0000
0000
0000
0000
0000
0001
0000
0000
0000
0000
0000
0000
0000
0000
0000
0000
0000
0110
0000
0000
0000
0000
0000
0000
0000
0000
0000
0000
0000
0001
0000
0000
0000
0000
0000
0010
0000
0000
0000
0000
0000
0100
0000
0000
0000
0000
0000
1000
0000
0000
0000
0000
0000
0100
0000
0000
0000
0000
0000
0000
0000
0000
0000
0000
0000
1010
0000
0000
0000
0000
0000
0100
0000
0000
0000
0000
0000
0010
0000
0000
0000
0000
0000
0100
0000
0000
0000
0000
0000
0010
0000
0000
0000
0000
0000
0100
0000
0000
0000
0000
0000
0010
0000
0000
0000
0000
0000
0100
0000
0000
0000
0000
0000
,
0012
0000
0010
0000
0100
1000
0100
0000
2003
0100
0010
0001
0010
0100
0010
0001
3000
0000
0110
0000
0002
0100
0010
0100
2003
0010
0001
0010
0100
0000
0010
0000
,
3012
0000
0010
0100
1000
0100
0010
0000
2003
0100
0010
0001
0100
0010
0001
0010
0100
0001
0010
0100
3002
0010
0000
1000
0203
0000
0010
0000
0001
0000
0010
0000
,
2300
0000
0100
0010
0100
0010
0001
0000
3200
0000
0010
0000
0001
0000
0010
0001
0300
0000
1001
0000
0002
0010
0100
0010
2003
0000
0100
0010
0001
0000
0010
0100
,
3010
1100
0011
0000
0000
0110
1010
0110
0011
1010
0101
0000
0000
0000
0000
0000
,
0000
0220
0000
0000
0000
0000
0330
0000
2000
0000
0000
0000
0001
0000
3100
0000
0011
0000
1010
0000
0101
0000
0110
0000
1001
0000
0220
0000
0000
0000
0330
0000
,
1100
0010
0001
0010
1001
0010
1100
0001
0010
0001
1100
0010
0001
0010
0100
0010
1100
0010
0100
0001
0010
0100
0010
0001
0010
1000
0100
0010
0001
0010
0100
0010
,
1100
0010
0001
0100
0011
0100
1000
0100
0011
0100
0011
0100
0011
0100
0011
1000
0100
0010
0001
0010
1100
0010
0001
0010
1100
0010
0001
0010
1100
0010
0001
0010
,
0100
0010
1001
0100
1001
0010
0100
0010
0001
0100
1000
0100
0010
0001
0010
0100
1000
0100
1000
0100
0011
0100
1000
0100
1010
0100
1000
0100
0010
0001
0010
0001
,
0110
1000
0100
0010
0001
0010
0100
0010
0100
1000
0100
0010
0100
1000
0100
0010
1001
0100
0010
0001
0010
0100
0010
0100
0011
0100
1000
0100
0010
0001
0010
0100
,
0011
0000
0011
0100
1000
0100
1000
0100
0010
0001
0010
1000
0100
1000
0001
0010
0001
0100
1000
0001
0110
1000
0100
0010
0001
0010
0100
1000
0110
0001
0010
0100
,
0011
0100
1000
0100
0011
0100
0010
0001
1100
0010
0001
0010
1100
0000
0110
0001
0010
0100
1000
0010
0100
0010
1000
0001
1000
0010
0100
0010
0001
0010
0100
0010
,
1001
0010
1001
0010
0100
1000
0100
0010
0001
0010
0001
0010
0001
0010
0100
1000
0101
0010
0001
0010
0001
0010
0001
0010
1100
0010
0001
0010
1100
0010
0100
0010
,
1001
0010
0100
1000
0010
0100
0001
0010
0100
1000
0100
0010
0100
0010
0100
0010
0000
1000
0100
0010
0001
0000
0001
0010
1100
0001
0010
0100
0010
0001
0010
0001
,
0110
0000
0110
0000
1001
0000
0110
0000
0110
0000
1001
0000
0110
0000
0110
0000
1001
0000
0110
0000
0110
0000
1001
0100
0010
0100
0010
0100
0010
0100
0010
0001
,
1100
0001
0010
0001
0010
1100
0010
0001
0010
1100
0001
0010
0100
1000
0100
0001
0100
0010
0100
0010
1001
0100
0010
0001
1000
0100
0010
0001
0010
0100
1000
0001
,
0010
0001
0110
1000
0100
1000
0001
0010
0100
0010
0100
1000
0100
0010
0001
0100
0010
0001
0010
0100
1010
0100
0010
0100
1001
0100
0010
0001
0100
0010
0001
0010
,
1100
0001
1100
0010
0000
0010
1000
0001
0100
0010
0100
1000
0001
0010
0001
0100
0011
0100
1000
0100
1010
0001
0100
0010
1001
0010
0100
1000
0021
0000
0000
0000
,
2030
0200
0320
0032
,
0203
0000
0000
0000
0320
0000
0000
0000
0032
0000
0000
0000
0203
0000
0000
0300
,
0010
0000
0000
0000
0000
0000
0000
0000
0000
0000
0000
0000
0000
0000
0000
0000
0100
0000
0000
0000
0000
0000
0000
0000
0000
0000
0000
0000
0000
0000
0000
0000
0100
0000
0000
0000
0000
0000
0000
0000
0000
0000
0000
0000
0000
0000
0000
0000
0001
0000
0000
0000
0000
0000
0000
0000
0100
0000
0000
0000
0001
0000
0000
0010
,
0000
0000
0000
0000
,
3012
0000
0000
0000
0000
0000
0000
0000
0000
0000
0000
0000
0000
0000
0000
0000
0100
0000
0000
0000
0000
0000
0000
0000
0000
0000
0000
0000
0000
0000
0000
0000
1000
0000
0000
0000
0000
0000
0000
0000
0000
0000
0000
0000
0000
0000
0000
0000
0010
0000
0000
0000
0000
0000
0000
0000
1000
0000
0000
0000
0010
0000
0000
0100
,
0000
0000
0000
0000
,
1000
0000
0000
0000
0000
0000
0000
0000
0000
0000
0000
0000
0000
0000
0000
0000
0010
0000
0000
0000
0000
0000
0000
0000
0000
0000
0000
0000
0000
0000
0000
0000
0100
0000
0000
0000
0000
0000
0000
0000
0000
0000
0000
0000
0000
0000
0000
0000
1000
0000
0000
0000
0000
0000
0000
0000
0010
0000
0000
0000
0100
0000
0000
0010
,
0000
0000
0000
0000
,
2003
0000
0000
0000
0100
0000
0000
0000
3012
0000
0000
0000
0010
0000
0000
0000
0003
0100
0000
0000
2000
0000
0100
0000
3012
0000
0010
0000
0100
0000
1003
0000
,
2100
0000
0000
0000
0000
0000
0000
0000
3012
0000
0000
0000
0010
0000
0000
0000
0010
0000
0000
0000
2003
0000
0000
0000
0010
0000
0001
0020
3030
0000
0000
0000
,
0011
0000
0000
0000
0000
0000
0000
0000
0000
0000
0000
0000
0000
0000
0000
0000
0000
0000
0000
0000
0000
0000
0000
0000
0000
0000
0000
0000
0000
0000
0000
0000
0000
0000
0000
0000
0000
0000
0000
0000
0000
0000
0000
0000
0000
0000
0000
0000
1100
0000
0000
0000
0000
0000
0000
0000
0000
0000
0000
0000
0000
0000
0000
0000
0000
0000
1000
0000
0000
0000
0000
0000
0000
0000
0000
0000
0000
0000
0010
0000
0000
0000
0000
0000
0000
0000
0000
0000
0000
0000
0000
0000
0000
0000
0000
0000
0110
0000
0000
0000
0000
0000
0000
0000
0000
0000
0000
0000
0000
0000
0000
0000
0000
0000
0000
0000
0000
0000
0000
0000
0000
0000
0000
0000
0000
0000
0000
0000
0000
0000
0000
0000
0000
0000
0000
0000
0000
0000
0000
0000
0000
0000
0000
0000
0001
0000
0000
0000
0000
0000
0000
0000
0000
0000
0000
0000
1000
0000
0000
0000
0000
0000
0000
0000
0200
0000
0000
0000
0000
0000
0000
0000
0000
0000
0300
0000
0000
0000
0000
0000
0000
0000
0000
0000
0000
0000
0000
0000
0000
0000
0000
0000
,
0110
0000
0000
0000
0000
0000
0000
0000
1010
0000
0000
0000
0100
0000
0000
0000
0101
0000
0000
0000
0000
0000
0000
0000
0000
0010
0000
1000
0000
0020
0000
0030
,
1001
0000
0000
0000
0000
0000
0000
0000
0001
0000
0000
0000
0000
0000
0000
0000
0110
0000
0000
0000
0000
0000
0000
0000
0010
0000
0000
0000
0000
0000
0000
0000
0110
0000
0000
0000
0000
0000
0000
0000
0000
0000
0000
0000
0000
0000
0000
0000
1100
0000
0000
0000
0000
0000
0000
0011
0000
0000
0000
0000
0000
0110
0000
0000
,
1100
0000
0000
0000
0000
0000
0000
0000
1000
0000
0000
0000
0000
0000
0000
0000
0110
0000
0000
0000
0000
0000
0000
0000
0000
0000
0000
0000
0000
0000
0000
0000
0011
0000
0000
0000
0000
0000
0000
0000
0000
0000
0000
0000
0000
0000
0000
0000
1100
0000
0000
0000
0000
0000
0000
1001
0000
0000
0000
0000
0000
0110
0000
0000
,
1001
0000
0000
0000
0000
0000
0000
0000
1000
0000
0000
0000
0000
0000
0000
0000
1100
0000
0000
0000
0000
0000
0000
0000
1000
0000
0000
0000
0000
0000
0000
0000
1100
0000
0000
0000
0000
0000
0000
0000
1000
0000
0000
0000
0000
0000
0000
0000
1100
0000
0000
0000
0000
0000
0000
0000
1100
0000
0000
0000
0000
0011
0000
0000
,
0110
0000
0000
0000
0000
0000
0000
0000
1000
0000
0000
0000
0000
0000
0000
0000
1100
0000
0000
0000
0000
0000
0000
0000
1000
0000
0000
0000
0000
0000
0000
0000
1100
0000
0000
0000
0000
0000
0000
0000
1000
0000
0000
0000
0000
0000
0000
0000
1100
0000
0000
0000
0000
0000
0000
0000
1100
0000
0000
0000
0000
0011
0000
0000
,
1010
0100
0000
0011
0000
0000
0000
1001
0000
0110
0000
1001
0000
0000
0000
0110
0000
1001
0000
0110
0000
0000
0000
1010
0000
0101
0000
1010
0000
0110
0000
0011
,
0100
1010
0000
0101
0000
0000
0000
1100
0000
0110
0000
0011
0000
0000
0000
1010
0000
1010
0000
0101
0000
0000
0000
0110
0000
0110
0000
0101
0000
1100
0000
1001
,
0210
0000
0000
0000
0000
0000
0000
0000
1000
0000
0000
0000
0000
0000
0000
0000
1000
0000
0000
0000
0000
0000
0000
0000
1000
0000
0000
0000
0010
0000
0001
0010
,
1300
0001
0010
0100
0011
1000
0100
1000
0110
0001
0100
1000
0110
0001
0010
0100
0011
0100
1000
0010
0100
0010
1000
0100
0001
1000
0100
1000
0100
0001
0010
0001
,
0110
0001
0010
0100
1010
0100
1010
0100
1010
0100
1010
0100
1010
0100
1010
0100
1010
0001
0010
0001
0110
1000
0100
0010
0001
0100
0010
0001
0010
0100
1000
0100
,
0011
0100
1010
0100
0010
0001
0010
0100
0010
0001
1000
0100
0010
0001
0010
0100
0010
0001
0010
0100
1010
0100
0010
0100
0011
1000
0100
0010
1000
0100
0010
0001
,
1100
0000
0000
0000
0000
0000
0000
0000
1100
0000
0000
0000
0010
0000
0000
0000
0000
0000
0001
0000
0000
0000
0000
0000
0010
0000
0000
0000
0000
0000
0001
0000
0000
0000
0000
0000
0100
0000
0000
0000
0000
0000
1000
0000
0000
0000
0000
0000
0100
0000
0000
0000
0000
0000
1000
0000
0000
0000
0000
0000
0100
0000
0000
0000
0000
0000
0010
0000
0000
0000
0000
0000
0001
0000
0000
0000
0000
0000
0010
0000
0000
0000
0000
0000
0100
0000
0000
0000
0000
0000
0010
0000
0000
0000
0000
0000
1100
0000
0000
0000
0000
0000
0010
0000
0000
0000
0000
0000
0100
0000
0000
0000
0000
0000
0010
0000
0000
0000
0000
0000
0101
0000
0000
0000
0000
0000
0010
0000
0000
0000
0000
0000
0100
0000
0000
0000
0000
0000
0010
0000
0000
0000
0000
0000
1100
0000
0000
0000
0000
0000
0010
0000
0000
0000
0000
0000
0001
0000
0000
0000
0000
0000
0010
0000
0000
0000
0000
0000
0101
0000
0000
0000
0000
0000
0010
0000
0000
0000
0000
0000
0100
0000
0000
0000
0000
0000
1000
0000
0000
0000
0000
0000
,
0011
0000
0011
0100
1000
0100
0010
0100
0010
0001
1000
0100
1000
0100
0010
0100
0010
0100
0010
0001
1100
0010
1000
0100
0001
0100
0010
1000
0110
1000
0100
1000
,
0011
1000
0100
1000
0011
0100
1000
0100
0011
0100
1000
0110
1000
0100
0011
0100
1000
0100
0001
0010
1001
0100
0010
0100
1000
0100
1000
0001
0010
0100
0001
0010
,
1100
0000
0000
0000
0000
0000
0000
0000
1100
0000
0000
0000
0001
0000
0000
0000
0000
0000
0010
0000
0000
0000
0000
0000
0001
0000
0000
0000
0000
0000
0010
0000
0000
0000
0000
0000
1100
0000
0000
0000
0000
0000
0010
0000
0000
0000
0000
0000
0001
0000
0000
0000
0000
0000
1000
0000
0000
0000
0000
0000
0110
0000
0000
0000
0000
0000
1000
0000
0000
0000
0000
0000
0011
0000
0000
0000
0000
0000
0100
0000
0000
0000
0000
0000
1010
0000
0000
0000
0000
0000
0100
0000
0000
0000
0000
0000
1001
0000
0000
0000
0000
0000
0010
0000
0000
0000
0000
0000
0101
0000
0000
0000
0000
0000
0010
0000
0000
0000
0000
0000
1100
0000
0000
0000
0000
0000
0010
0000
0000
0000
0000
0000
0101
0000
0000
0000
0000
0000
1000
0000
0000
0000
0000
0000
0011
0000
0000
0000
0000
0000
0100
0000
0000
0000
0000
0000
1010
0000
0000
0000
0000
0000
0100
0000
0000
0000
0000
0000
0011
0000
0000
0000
0000
0000
1000
0000
0000
0000
0000
0000
0110
0000
0000
0000
0000
0000
0001
0000
0000
0000
0000
0000
,
0110
1000
0100
0010
0001
0010
1100
0010
0100
0010
1001
0100
0010
0100
0010
0100
0010
0100
0010
0100
0011
0100
0010
0100
1001
0100
0010
0001
0110
0001
0010
0001
,
1100
1100
1002
1003
1002
1003
1002
1023
,
1030
0001
0010
0100
0011
1000
0011
0100
1000
0100
0011
0100
1000
0100
1000
0100
0011
0100
0010
0001
1100
0010
0100
0010
0100
0010
0100
1000
0001
1000
0100
0010
,
1001
0110
1001
0000
2001
0000
3001
0000
2001
0000
3001
0000
2001
0000
3201
0000
,
0301
0000
0000
0000
0000
0000
0000
0000
0101
0000
0000
0000
0000
0000
0000
0000
0000
0000
0010
0000
0000
0000
0000
0000
1000
0000
0000
0000
0000
0000
0010
0000
0000
0000
0000
0000
1000
0000
0000
0000
0000
0000
0010
0000
0000
0000
0000
0000
1000
0000
0000
0000
0000
0000
0010
0000
0000
0000
0000
0000
1000
0000
0000
0000
0000
0000
0100
0000
0000
0000
0000
0000
0010
0000
0000
0000
0000
0000
0001
0000
0000
0000
0000
0000
0010
0000
0000
0000
0000
0000
0100
0000
0000
0000
0000
0000
0011
0000
0000
0000
0000
0000
0100
0000
0000
0000
0000
0000
0010
0000
0000
0000
0000
0000
0001
0000
0000
0000
0000
0000
1010
0000
0000
0000
0000
0000
0001
0000
0000
0000
0000
0000
0010
0000
0000
0000
0000
0000
0100
0000
0000
0000
0000
0000
0011
0000
0000
0000
0000
0000
0100
0000
0000
0000
0000
0000
0010
0000
0000
0000
0000
0000
0001
0000
0000
0000
0000
0000
1100
0000
0000
0000
0000
0000
0010
0000
0000
0000
0000
0000
0001
0000
0000
0000
0000
0000
0010
0000
0000
0000
0000
0000
,
0100
1001
0000
0110
0000
0000
0000
0110
0000
1001
0000
0110
0000
0000
0000
0110
0000
1001
0000
0110
0000
0000
0000
1010
0000
0101
0000
1010
0000
0101
0010
0100
,
0001
0110
0000
1100
0000
0000
0000
0110
0000
1010
0000
0101
0000
0000
0000
1100
0000
0110
0000
0011
0000
0000
0000
0011
0000
1100
0000
0110
0000
1100
0001
0010
,
0100
0011
0000
1100
0000
0000
0000
0011
0000
0110
0000
1100
0000
0000
0000
1100
0000
0011
0000
0110
0000
0000
0000
1001
0000
0110
0000
1001
0000
1010
0100
0010
,
0001
1100
0000
0110
0000
0000
0000
1100
0000
1010
0000
1001
0000
0000
0000
0011
0000
0101
0000
1001
0000
0000
0000
1001
0000
0101
0000
1010
0000
0110
1000
0100
,
0010
0101
0000
1010
0000
0000
0000
0101
0000
0110
0000
1010
0000
0000
0000
0011
0000
1100
0000
0011
0000
0000
0000
0110
0000
1001
0000
1001
0000
0110
0001
0010
,
0100
0000
0000
0000
0000
0000
0011
0000
0000
0000
0000
0000
0000
0000
0000
0000
1100
0000
0000
0000
0000
0000
0000
0000
0000
0000
0000
0000
0000
0000
0000
0000
0000
0000
0000
0000
0000
0000
0000
0000
0000
0000
0011
0000
0000
0000
0000
0000
0000
0000
0000
0000
0000
0000
0110
0000
0000
0000
0000
0000
0000
0000
0000
0000
0000
0000
1010
0000
0000
0000
0000
0000
0000
0000
0000
0000
0000
0000
0000
0000
0000
0000
0000
0000
0000
0000
0000
0000
0000
0000
0101
0000
0000
0000
0000
0000
0000
0000
0000
0000
0000
0000
0110
0000
0000
0000
0000
0000
0000
0000
0000
0000
0000
0000
1100
0000
0000
0000
0000
0000
0000
0000
0000
0000
0000
0000
0000
0000
0000
0000
0000
0000
0000
0000
0000
0000
0000
0000
0011
0000
0000
0000
0000
0000
0000
0000
0000
0000
0000
0000
0110
0000
0000
0000
0000
0000
0000
0000
0000
0000
0000
0000
1100
0000
0000
0000
0000
0000
0000
0000
0000
0000
0000
0000
1010
0000
0000
0000
0000
0000
0100
0000
0000
0000
0000
0000
0001
0000
0000
0000
0000
0000
,
0010
1100
0000
1010
0000
0000
0000
0110
0000
1100
0000
0101
0000
0000
0000
0101
0000
0110
0000
1010
0000
0000
0000
0110
0000
0011
0000
0110
0000
1100
0001
0010
,
0100
0011
0000
0110
0000
0000
0000
1100
0000
0000
0000
0110
0000
0000
0000
0011
0000
0000
0000
1010
0000
0000
0000
0101
0000
0000
0000
0110
0000
0000
0000
1001
,
0120
0132
2103
3021
1230
0312
2103
3201
,
0312
0123
2130
3012
0213
2301
3102
2013
,
3102
1023
0132
2013
3120
2031
3102
0213
,
1302
0213
1302
0213
1320
0231
0312
2013
,
3210
0321
0231
1320
1230
2301
3102
0213
,
0312
0213
2310
3102
0213
0312
2013
3120
,
1230
0321
0132
2103
3120
0132
0213
0321
,
2030
0000
3102
0100
0123
0100
2130
0100
3200
0000
0302
0000
0023
0000
0032
0000
,
1103
0000
0001
0010
0100
0010
0001
0000
1100
0010
0001
0000
1100
0010
0001
0010
1100
0010
0001
0010
1100
0010
0001
0010
1100
0001
1100
0010
1100
0001
1100
0010
,
1100
0001
0010
0100
0010
0001
1100
0010
0001
0010
1100
0000
0011
1000
0100
0010
0001
0010
0100
1000
0011
0100
0010
0001
0010
0100
0010
0100
1000
0100
0010
0100
,
1001
0000
0110
0000
1001
0100
0010
0001
1100
0010
0100
0010
1100
0010
0001
0100
0011
0100
0001
0010
1100
0010
0100
0010
1100
0001
0010
0001
0010
0100
0010
0001
,
1100
0000
1100
0010
0001
0010
0100
1000
0100
0010
0100
0010
0001
0010
0001
0010
1100
0010
0001
0100
0011
0100
0010
0001
1100
0010
0001
0010
1100
0001
0010
0100
,
1010
0000
1010
0100
0011
1000
0000
0100
0011
1000
0011
1000
0100
1000
0011
0100
0010
1000
0100
0010
0100
0010
0001
0010
0100
1000
0100
0010
0100
1000
0100
1000
,
0011
0100
0010
0100
0011
1000
0100
1000
0011
0100
0011
1000
0011
0100
0011
1000
0011
0100
0010
0100
0010
0001
0010
0001
1100
0010
0100
0010
0001
0010
0100
0010
,
1100
0000
1100
0001
0010
0100
1000
0100
0011
0100
0010
0100
0011
0100
0010
0001
1100
0001
0010
0001
0010
0100
0010
0100
1010
0100
0010
0001
1100
0010
0100
0010
,
1100
0010
0001
0010
0001
0010
0100
1000
0011
0100
0010
0001
1100
0010
0100
0010
0101
0000
0000
0000
1100
0000
0000
0000
0011
0100
1000
0100
0010
0001
0010
0001
,
1100
0010
0100
1000
0011
1000
0100
0010
1100
0010
0001
0010
1100
0010
1000
0010
1100
0001
0010
0100
0010
0100
1000
0010
0001
0010
1000
0100
1000
0100
0010
0001
,
0110
1000
0100
0010
1100
0010
0001
0010
1100
0010
0001
0010
1100
0010
0100
0010
1100
0001
0010
0001
0010
1100
0010
0100
1000
0010
0001
1000
0100
0010
0001
0010
,
1001
0000
0110
0000
1001
0100
0010
0001
0100
0010
0001
0010
1000
0010
0001
0010
1000
0100
0010
0001
0110
0001
0010
0100
1010
0100
0010
0100
0010
0001
0010
0001
,
1100
0000
1100
0010
1000
0100
0010
0100
0001
0010
0001
0100
1000
0100
0001
0010
1100
0010
0100
1000
0011
0100
0010
0001
0110
0001
0010
0100
1000
0000
0000
0000
,
1001
0010
1000
0001
0110
1000
0001
1000
0101
0010
0101
1000
0100
1000
0100
0000
0011
0100
0010
0100
0010
0100
0010
1000
0001
1000
0001
1000
0001
0100
0001
1000
,
0110
0001
0010
0100
0001
0010
0100
0010
1100
0001
0010
0100
0011
0100
1000
0100
0010
0001
0010
0001
0110
1000
0001
0010
0001
0010
0100
0010
0100
1000
0100
0010
,
1001
0000
1010
0000
0101
0010
0100
0010
0100
0010
0100
0010
0100
0010
1000
0001
1000
0001
1000
0001
1100
0010
0100
1000
0011
0100
0010
0001
0100
0010
0001
1000
,
0110
0000
0110
0001
0010
0100
1000
0100
1000
0100
0010
0001
0010
0100
0010
0100
0011
1000
0100
0010
0101
0010
0100
1000
0011
1000
0100
0010
1100
0001
0010
0100
,
0011
0000
0011
0000
1100
0010
0100
1000
0110
0001
0010
0100
1000
0100
0010
0001
0010
0100
1000
0100
0011
0100
1000
0001
1000
0100
0010
0001
1100
0001
0010
0100
,
0011
1000
0100
0010
1100
0001
0010
0001
0010
0100
1000
0100
0010
1000
0100
0010
0001
0010
0100
1000
0110
0001
1000
0001
1000
0001
1000
0001
0110
1000
0001
0010
,
1001
0000
1001
0100
0010
1000
0001
1000
0110
0001
0010
0100
0011
1000
0100
0010
1100
0001
0010
0100
1000
0100
1000
0100
0011
1000
0100
0010
0100
0010
0001
0100
,
0011
0100
1000
0100
0011
1000
0011
0100
0011
1000
0011
0100
1000
0100
1000
0100
1000
0100
0011
1000
0110
0000
0000
0000
0110
0001
1000
0001
1000
0001
1000
0010
,
1001
0100
0010
0100
1000
0100
0010
0001
0110
1000
0001
1000
0100
0010
0100
0010
1100
0001
0010
0001
0010
0100
1000
0100
0011
0100
1000
0010
0001
0010
0001
0010
,
1100
0000
1100
0001
0010
0001
0010
0001
0100
0010
0100
0010
1000
0100
1000
0100
0011
0100
1000
0100
0010
0100
0010
0001
1100
0010
0100
0010
0001
0010
1000
0010
,
1100
0000
1100
0010
0001
0010
0100
1000
0100
1000
0001
0010
0100
1000
0100
0010
0001
0010
0100
1000
0110
0001
1000
0001
1010
0100
0010
1000
0001
0100
0010
0100
,
1001
0000
1001
0010
0100
0010
1000
0100
0010
0001
0010
0100
1000
0010
0100
0010
1100
0001
0010
0100
1000
0100
1000
0100
0011
0100
0010
0001
0010
0001
0010
0100
,
0011
0000
0000
0000
0001
0000
0000
0000
0011
0000
0000
0000
0001
0000
0000
0000
0011
0000
0000
0000
0001
0000
0000
0000
0011
0000
0000
0000
0011
0000
0000
1100
,
0011
0000
1100
0001
1100
0010
1100
0001
1100
0010
1100
0010
0100
0010
0100
0010
1100
0000
0000
0000
0011
0000
1000
0100
1010
0001
0000
0000
1100
0000
0000
0000
,
1100
0000
0110
0000
0011
0100
1000
0100
0010
0001
0010
1000
0100
0010
0100
1000
0011
0100
0010
0100
0001
1000
0100
0010
0100
0010
1000
0001
0100
0010
0100
0001
,
1100
0000
1100
0010
0001
0010
0001
0010
0100
1000
0100
1000
0100
1000
0100
0010
1001
0100
0010
0100
0010
0100
0010
0100
1001
0010
0100
1000
0100
0010
0100
0010
,
1100
0010
0001
0010
1100
0010
0100
0010
0101
1000
0100
0010
1100
0001
0010
0100
0011
0100
1000
0100
1010
0100
0010
0100
0010
0100
0010
0100
0010
0100
0010
0100
,
0011
0100
0011
1000
0011
0100
0011
1000
0011
0100
0011
1000
0011
0100
0010
0100
0010
0100
0010
0100
0011
0100
1000
0100
0011
1000
0100
0010
0001
0010
0100
1000
,
0011
0100
1000
0100
0010
0001
1000
0100
0010
0001
0010
0100
1000
0100
0010
0001
0010
0100
0001
1000
0110
0001
1000
0001
0110
1000
0100
0010
0100
0010
0001
0010
,
1100
0000
0000
0000
1100
0000
0000
0000
0000
0000
0011
0000
0000
0000
0000
0000
1100
0000
0000
1100
0000
0000
0000
0000
0010
0000
0100
0000
0010
0000
0100
0000
1001
0000
0010
0000
0100
0000
0010
0000
0100
0000
0010
0000
0100
0000
0010
0000
1100
0000
0001
0000
0010
0000
0001
0000
0000
0000
0000
0000
0000
0000
0000
0000
,
2100
0001
0000
0010
3002
0000
0000
0010
2003
0001
0000
0010
3002
0000
0000
0100
2003
0010
0000
0100
3002
0000
0000
0100
2003
0010
0000
0100
3002
0010
1000
0010
,
2103
0010
0000
0001
3020
0000
0000
0100
2030
0001
0000
0100
3002
0000
0000
0010
2003
0100
0000
0010
3002
0000
0000
0100
2003
0010
0000
0100
3002
0010
0100
0010
,
2103
0010
0000
0000
3002
0000
0000
0010
2003
0100
0000
0010
3002
0000
0000
0100
2003
0010
0000
0100
3002
0000
0000
0100
2003
0010
0000
0100
3002
0100
1000
0010
,
2103
0010
0000
0000
3002
0000
0000
0010
2003
0100
0000
0010
3002
0000
0000
0010
2003
0100
0000
0010
3002
0000
0000
0010
2003
0100
0000
0010
3002
0100
0000
0010
,
2103
0010
0100
0010
3002
0000
0000
0100
2003
0000
0000
0010
3002
0000
0000
0100
2003
0000
0000
0010
3002
0000
0000
0100
2003
0000
0000
0010
3002
0000
0000
0100
,
2003
0000
0000
0100
3020
0000
0000
0001
0230
0000
0000
1000
0320
0000
0000
0001
0230
0000
0000
0010
2300
0000
0000
0100
3002
0000
0000
0010
0203
0000
0000
0010
,
2300
0000
0000
0100
3020
0000
0000
0100
0032
0000
0000
0010
0203
0000
0000
1000
0320
0000
0000
0100
2030
0000
0000
0100
3020
0000
0000
0001
0230
0000
0000
1000
,
0320
0001
0000
1000
0230
0000
0000
0001
0320
1000
0000
0001
0230
0000
0000
0001
0320
1000
0000
0001
0230
0000
0000
1000
0320
0001
0000
1000
0230
0001
0010
0001
,
0320
0000
1000
0000
0000
0000
0000
0000
2130
0000
0000
0000
0000
0000
0000
0000
3012
0000
0100
0000
0000
0000
0000
0000
0123
0000
0000
0000
0000
0000
0000
0000
1032
0000
0100
0000
0000
0000
0000
0000
0213
0000
0000
0000
0000
0000
0000
0000
1302
0000
0010
0000
0000
0000
0000
0000
2013
0000
0100
0000
0000
0000
0000
0010
,
3002
0000
0100
0000
0000
0000
0000
0000
2103
0000
0000
0000
0000
0000
0000
0000
3120
0000
0001
0000
0000
0000
0000
0000
2031
0000
0000
0000
0000
0000
0000
0000
3102
0000
0010
0000
0000
0000
0000
0000
2103
0000
0000
0000
0000
0000
0000
0000
3012
0000
0100
0000
0000
0000
0000
0000
2013
0000
0100
0000
0000
0000
0000
0010
,
3002
0100
0000
0000
2103
0000
0000
0000
3012
0000
0000
0000
0213
0000
0000
0000
1320
0000
0000
0000
0132
0000
0000
0000
0213
0000
0000
0000
1320
0000
0000
0000
,
1032
0000
0100
0000
0000
0000
0000
0000
2103
0000
0000
0000
0000
0000
0000
0000
3102
0000
0010
0000
0000
0000
0000
0000
0123
0000
0000
0000
0000
0000
0000
0000
1032
0000
0100
0000
0000
0000
0000
0000
0213
0000
0000
0000
0000
0000
0000
0000
1320
0000
0001
0000
0000
0000
0000
0000
2031
0000
0100
0000
0000
0000
0000
0010
,
3002
0100
0000
0000
0203
0000
0000
0000
0320
0000
0000
0000
2030
0000
0000
0000
3002
0000
0000
0000
0203
0000
0000
0000
0320
0000
0000
0000
2030
0000
0000
0000
,
3002
0203
0320
2030
3200
0302
0023
0230
,
2300
3002
0203
0320
2030
3002
0203
0320
,
2030
3002
0203
0320
0032
2003
3200
0322
,
0000
0033
0000
0000
0000
0000
0000
0000
0000
0000
0000
0000
0000
0000
0000
0000
0000
0000
0000
0000
0000
0000
0000
0000
0000
0000
0000
0000
0000
0000
0000
0000
;
