#TITLE:Dead Souls;
#SUBTITLE:MaXLER8ER's edit;
#ARTIST:teknoDRED;
#TITLETRANSLIT:;
#SUBTITLETRANSLIT:;
#ARTISTTRANSLIT:;
#CREDIT:;
#BANNER:Dead Souls.PNG;
#BACKGROUND:Dead Souls-bg.PNG;
#LYRICSPATH:;
#CDTITLE:MaXLER8ER.png;
#MUSIC:Dead Souls.mp3;
#OFFSET:0.000;
#SAMPLESTART:51.097;
#SAMPLELENGTH:12.000;
#SELECTABLE:YES;
#BPMS:0.000=155.000,64.000=77.500,96.000=155.000,152.000=77.500,156.000=155.000;
#STOPS:;
#BGCHANGES:;
// cache tags:
#FIRSTBEAT:16.000;
#LASTBEAT:220.000;
#SONGFILENAME:Songs/toune 4/Dead Souls/Dead Souls.sm;
#HASMUSIC:1;
#HASBANNER:1;
#MUSICLENGTH:97.933;
// end cache tags

//---------------dance-single - ----------------
#NOTES:
     dance-single:
     :
     Challenge:
     12:
     0.964,1.000,0.102,0.766,1.000,576.000,10.000,75.000,105.000,0.000:
0000
0000
0000
0000
,
0000
0000
0000
0000
,
0000
0000
0000
0000
,
0000
0000
0000
0000
,
1000
0000
0000
0000
0001
0000
0000
0010
0001
0000
0100
0000
1000
0000
0100
0000
,
0010
0000
0000
0000
1000
0000
0000
0001
0010
0100
1000
0000
0100
0000
0010
0000
,
0100
0000
0000
0000
0010
0000
0000
1000
0100
0000
0001
0000
0100
0000
0010
0000
,
1000
0000
0000
0000
0010
0000
0000
0100
0000
0010
0001
0010
0100
1000
0100
0000
,
0001
0000
0000
0000
0010
0000
0000
1000
0100
0010
0100
0000
0001
0000
1000
0000
,
0100
0000
0000
0000
0001
0000
0000
0010
0100
0000
0001
0000
0100
0000
1000
0000
,
0010
0000
0000
0000
1000
0000
0000
1000
0010
0100
0001
0000
0010
0000
1000
0000
,
0010
0000
0000
0000
0100
0000
0000
0001
0100
0000
0010
0000
1000
0000
0001
0000
,
1000
0100
1000
0100
0010
0100
0010
0001
0010
0001
1000
0100
1000
0010
1000
0001
,
1000
0100
1000
0100
0010
0100
0010
0001
0010
0100
0010
0001
0010
0100
1000
0100
,
0010
0000
0000
0000
00M0
0000
0000
0000
0010
0000
0000
00M0
0000
0000
0010
0000
0000
00M0
0000
0000
0010
0000
00M0
0000
0010
0000
00M0
0000
0010
0000
00M0
0000
,
0010
0000
0000
0000
0000
0000
0000
0000
1000
0000
0000
00M0
0000
0000
0010
0000
0M00
0000
0100
0000
M000
0000
1000
00M0
0001
0000
0M00
0000
0100
0000
0000
0000
,
0002
0023
0230
0320
0032
2003
3200
0320
0230
0302
0023
0032
2003
3200
0320
0230
,
0302
0023
2030
3200
0320
0230
0302
0023
2030
3200
0320
0230
0302
0023
2030
3200
,
0302
0023
0230
2300
3200
0320
0230
0302
0023
2030
3200
0320
2030
3002
0023
0230
,
0302
0203
2300
3200
0302
0023
2030
3200
0320
0230
0302
0023
2030
3200
0320
0032
,
1003
0100
1000
0100
100M
0100
0010
0100
0010
0100
0010
0001
M010
0001
0010
0100
1000
0100
1000
0100
10M0
0100
0010
1000
0010
1000
0010
1000
001M
0100
0010
0001
,
0010
0001
0010
0100
10M0
0100
1000
0100
0001
0100
0001
0100
00M1
1000
0001
1000
0001
1000
0010
0100
100M
0100
1000
0100
1000
0100
1000
0100
100M
0100
0010
0100
,
0010
0001
0010
1000
0M10
1000
0010
1000
0010
0001
0010
0001
M010
0001
0010
1000
0010
1000
0010
0001
1M00
0001
1000
0001
0010
0001
0010
0001
M010
0100
1000
0100
,
0010
0100
1000
0100
10M0
0100
0001
0100
0001
0100
1000
0010
1M00
0010
1000
0010
1000
0100
0010
0100
001M
0100
0010
0100
0010
0001
0010
0001
M010
0001
0010
0100
,
1200
0000
0000
0000
0001
0000
0000
0010
0000
0000
1000
0000
0001
0000
0310
0000
,
2100
0000
0000
0000
0010
0000
0000
0001
0000
0000
0010
0000
0001
0000
3010
0000
,
0102
0000
0000
0000
1000
0000
0000
0010
0000
0000
0100
0000
1000
0000
0013
0000
,
2100
0000
0000
0000
0001
0000
0000
0010
0000
0000
0010
0000
0100
0000
3001
0000
,
0021
0000
0000
0000
1000
0000
0000
0001
0000
0000
1000
0000
0100
0000
0031
0000
,
2010
0000
0000
0000
0010
0000
0000
0001
0000
0000
0100
0000
0010
0000
3001
0000
,
0102
0000
0000
0000
1000
0000
0000
0010
0000
0000
0100
0000
1000
0000
0013
0000
,
0210
0000
0000
0000
1000
0000
0000
0010
0000
0000
0001
0000
1000
0000
0310
0000
,
1000
0010
0100
0010
0001
0010
0100
1000
0100
1000
0010
0100
0010
0001
0010
0100
,
1000
0010
0100
0010
0001
0010
0100
1000
0100
1000
0010
0001
0100
0010
1000
0010
,
0100
0001
0010
1000
0010
0100
0001
0100
1000
0100
0010
0001
0010
0100
1000
0100
,
1000
0010
0100
0001
0010
0100
1000
0100
0010
0100
0010
0100
1000
0100
0010
0100
,
0010
1000
0010
1000
0010
0001
0010
0100
1000
0100
0010
0100
0010
0100
1000
0100
,
0010
0100
0001
1000
0100
0010
0100
0010
0100
1000
0100
0010
0100
0001
0010
1000
,
0102
0000
0000
0000
0000
0000
0000
0010
0000
0100
0000
1000
0010
0100
1000
0010
,
0103
0000
0000
0000
0010
0000
0000
1000
0010
0000
0001
0000
0100
0000
0001
0000
,
1000
0000
0000
0000
0100
0000
0000
0010
1000
0001
0100
0000
0001
0000
1000
0000
,
0001
0000
0000
0000
1000
0000
0000
0100
0001
0000
0010
0000
0001
0000
1000
0000
,
0100
0000
0000
0000
1000
0000
0000
0001
0000
1000
0010
1000
0001
0100
0001
0000
,
0010
0000
0000
0000
1000
0000
0000
0100
0001
1000
0001
0000
0010
0000
0100
0000
,
0001
0000
0000
0000
0010
0000
0000
1000
0001
0000
0010
0000
0001
0000
0100
0000
,
1000
0000
0000
0000
0100
0000
0000
0100
1000
0001
0010
0000
1000
0000
0100
0000
,
1000
0000
0000
0000
0001
0000
0000
0010
0001
0000
1000
0000
0100
0000
0010
0000
,
0100
0001
0100
0001
1000
0001
1000
0010
1000
0010
0100
0001
0100
1000
0100
0010
,
0100
0001
0100
0001
1000
0001
1000
0010
1000
0001
1000
0010
1000
0001
0100
0001
,
1000
0001
0100
1000
0001
1000
0010
1000
0001
0100
0001
1000
0001
1000
0010
0100
,
1000
0001
1000
0001
0100
0001
1000
0001
1000
0010
0100
1000
0001
1000
0010
1000
,
2MM2
0MM0
0MM0
0MM0
0MM0
0MM0
0MM0
0MM0
,
0MM0
0MM0
0MM0
0MM0
0MM0
0MM0
0MM0
0MM0
,
0MM0
0MM0
0MM0
0MM0
0MM0
0MM0
0MM0
0MM0
,
0MM0
0000
0MM0
0000
0MM0
0000
0MM0
0000
0MM0
0000
0MM0
0000
3MM3
MMMM
MMMM
MMMM
,
MMMM
0000
0000
0000
;

//---------------dance-single - ----------------
#NOTES:
     dance-single:
     :
     Beginner:
     2:
     0.111,0.234,0.010,0.000,0.000,75.000,1.000,0.000,0.000,0.000:
0000
0000
0000
0000
,
0000
0000
0000
0000
,
0000
0000
0000
0000
,
0000
0000
0000
0000
,
0100
0000
0000
0000
,
0001
0000
0000
0000
,
1000
0000
0000
0000
,
0010
0000
0000
0000
,
1000
0000
0000
0000
,
0010
0000
0000
0000
,
0001
0000
0000
0000
,
1000
0000
0000
0000
,
0010
0000
0000
0000
,
0001
0000
0000
0000
,
1000
0000
0000
0000
,
0100
0000
0000
0000
,
1000
0100
0010
0001
,
1000
0100
0010
0001
,
1000
0100
0010
0001
,
1000
0100
0010
0001
,
1000
0100
0010
0001
,
1000
0100
0010
0001
,
1000
0100
0010
0001
,
1000
0100
0001
1000
,
0010
0000
0000
0000
,
1000
0000
0000
0000
,
0010
0000
0000
0000
,
0001
0000
0000
0000
,
1000
0000
0000
0000
,
0010
0000
0000
0000
,
0100
0000
0000
0000
,
0001
0000
0000
0000
,
1000
0000
0000
0000
,
0100
0000
0000
0000
,
0010
0000
0000
0000
,
1000
0000
0000
0000
,
0001
0000
0000
0000
,
0010
0000
0000
0000
,
0001
0010
0100
1000
,
0010
0000
0000
0000
,
0001
0000
0000
0000
,
1000
0000
0000
0000
,
0010
0000
0000
0000
,
0001
0000
0000
0000
,
1000
0000
0000
0000
,
0100
0000
0000
0000
,
1000
0000
0000
0000
,
0001
0000
0000
0000
,
0100
0000
0000
0000
,
0010
0000
0000
0000
,
1000
0000
0000
0000
,
1001
0000
0000
0000
;

//---------------dance-single - ----------------
#NOTES:
     dance-single:
     :
     Hard:
     9:
     0.581,0.927,0.020,0.235,0.332,373.000,2.000,23.000,0.000,0.000:
0000
0000
0000
0000
,
0000
0000
0000
0000
,
0000
0000
0000
0000
,
0000
0000
0000
0000
,
0200
0000
0301
0000
1000
0100
0010
0001
,
2000
0000
3001
0000
0010
0100
0001
0100
,
2000
0000
3100
0000
0010
1000
0010
0001
,
0200
0000
0301
0000
1000
0010
0100
1000
,
0020
0000
0130
0000
0001
0010
0100
0001
,
2000
0000
3010
0000
0100
0001
1000
0010
,
0002
0000
0103
0000
0010
0001
0100
0001
,
2000
0000
3010
0000
0001
1000
0010
0100
,
0020
0000
1030
0000
0001
1000
0010
0001
,
0200
0000
0301
0000
1000
0100
0010
0001
,
2000
0000
3010
0000
0100
1000
0001
0010
,
0002
0000
1003
0000
0010
0100
0001
0100
,
1001
0100
0010
0000
1000
0010
0100
0000
0001
1000
0010
0000
0100
1000
0010
0000
,
0100
0001
0100
0000
1000
0010
0100
0000
0001
1000
0100
0000
0001
1000
0010
0000
,
0100
0001
1000
0000
0010
0100
0001
0000
1000
0010
0100
0000
0001
1000
0100
0000
,
0010
0100
0001
0000
1000
0010
0100
0000
0001
0010
0001
0000
1000
0010
0100
0000
,
1000
0100
0010
0100
0010
0001
0100
1000
0100
0010
0100
0001
1000
0100
0010
0100
,
0010
1000
0100
1000
0001
0100
0010
0100
1000
0010
0100
0010
0001
1000
0010
0100
,
0001
1000
0100
0010
0100
0010
1000
0010
0001
0100
0001
1000
0100
0010
0100
0001
,
1000
0010
0100
1000
0100
0010
0100
0001
0100
1000
0100
0010
0100
1000
0010
0100
,
0002
0000
0100
0000
0013
1000
0010
0100
,
0002
0000
1000
0000
0013
0100
0001
1000
,
0020
0000
0100
0000
0031
1000
0010
0100
,
0002
0000
1000
0000
0013
0100
0001
1000
,
0020
0000
0100
0000
0031
1000
0010
0100
,
0002
0000
1000
0000
0013
0100
0001
0100
,
2000
0000
0010
0000
3100
0001
1000
0010
,
0200
0000
0001
0000
1300
0010
0100
0001
,
1000
0001
0010
1000
0100
0010
0100
0001
,
1000
0001
0010
1000
0100
0001
0010
1000
,
0001
0010
0100
0010
0001
1000
0010
0100
,
0010
0001
1000
0100
0010
0100
1000
0010
,
0100
0001
1000
0100
0010
0001
0100
1000
,
0001
0010
1000
0100
0001
0100
1000
0010
,
2000
0000
0000
0000
0000
0000
0000
0100
0000
0001
0000
0010
0001
0100
0010
0001
,
3100
0000
0000
0000
0001
0000
0000
1000
0010
0000
0100
0000
0001
0000
1000
0000
,
0010
0000
0000
0000
0100
0000
0000
0010
1000
0000
0010
0000
0100
0000
0001
0000
,
1000
0000
0000
0000
0010
0000
0000
0100
0001
0000
0010
0000
1000
0000
0001
0000
,
0100
0000
0000
0000
0010
0000
0000
0001
1000
0000
0010
0000
0100
0000
1000
0000
,
0001
0000
0000
0000
0010
0000
0000
0100
0001
0000
1000
0000
0010
0000
0100
0000
,
0001
0000
0000
0000
1000
0000
0000
0010
0100
0000
1000
0000
0001
0000
0100
0000
,
0010
0000
0000
0000
1000
0000
0000
0010
0001
0000
1000
0000
0010
0000
0100
0000
,
0001
0000
0000
0000
1000
0000
0000
0010
0001
0000
1000
0000
0010
0000
0100
0000
,
0001
0000
0000
0000
1000
0000
0000
0010
0001
0000
0010
0000
0100
0000
0001
0000
,
1000
0000
0000
0000
0010
0000
0000
0001
0100
0000
1000
0000
0010
0000
0100
0000
,
0001
0000
0000
0000
1000
0000
0000
0010
0001
0000
1000
0000
0010
0000
0100
0000
,
0001
0000
0000
0000
0010
0000
0000
0001
0100
0000
0010
0000
1000
0000
0010
0000
,
2002
0000
0000
0000
,
0000
0000
0000
0000
,
0000
0000
0000
0000
,
0000
0000
0000
0000
,
3003
0000
0000
0000
;

//---------------dance-single - ----------------
#NOTES:
     dance-single:
     :
     Easy:
     5:
     0.350,0.505,0.020,0.286,0.000,210.000,2.000,28.000,0.000,1.000:
0000
0000
0000
0000
,
0000
0000
0000
0000
,
0000
0000
0000
0000
,
0000
0000
0000
0000
,
0001
0001
0001
0001
,
1000
1000
1000
1000
,
0010
0010
0010
0010
,
0100
0100
0100
0100
,
0001
0100
1000
0001
,
0010
0001
0010
1000
,
0001
0010
0100
1000
,
0001
0010
0100
1000
,
0001
0010
0100
1000
,
0100
0010
0100
1000
,
0001
0010
0100
1000
,
0001
0010
0100
1000
,
0001
1000
0001
0000
0010
0100
0010
0000
,
1000
0001
1000
0000
0010
0001
0010
0000
,
1000
0010
1000
0000
0001
1000
0001
0000
,
0010
0100
0010
0000
0010
1000
0010
0000
,
1000
0100
0010
0100
1000
0010
0100
0001
,
1000
0100
0010
0100
1000
0010
0100
0001
,
0010
1000
0100
0010
0100
1000
0100
0010
,
0100
0001
1000
0100
0010
0100
1000
0010
,
0001
1000
0001
0010
,
0100
1000
0100
0010
,
0001
1000
0100
0010
,
0100
1000
0100
0010
,
0001
0010
0100
1000
,
0100
0010
0100
1000
,
0001
0010
0100
1000
,
0010
0100
0001
1000
,
0200
0320
0032
2003
,
3200
0320
0230
2300
,
3002
0023
0230
2300
,
3020
0032
0023
0230
,
2300
3002
0023
0230
,
2300
3200
0320
0032
,
2203
0000
0000
0000
0000
0000
0000
3300
,
0001
1000
0010
0100
,
0001
1000
0010
0100
,
0001
1000
0001
0010
,
1000
0100
0010
0100
,
0001
1000
0100
0010
,
0100
1000
0010
0100
,
0001
1000
0010
0100
,
0001
1000
0010
0100
,
0001
1000
0010
0100
,
0001
1000
0010
0100
,
0010
1000
0001
1000
,
0100
0010
0100
0001
,
2002
0000
0000
0000
,
0000
0000
0000
0000
,
0000
0000
0000
0000
,
0000
0000
0000
0000
,
3003
0000
0000
0000
;

//---------------dance-single - ----------------
#NOTES:
     dance-single:
     :
     Medium:
     7:
     0.530,0.927,0.010,0.194,0.163,343.000,1.000,19.000,0.000,0.000:
0000
0000
0000
0000
,
0000
0000
0000
0000
,
0000
0000
0000
0000
,
0000
0000
0000
0000
,
0100
0000
0001
0000
1000
0010
1000
0000
,
0001
0000
1000
0000
0010
0100
0010
0000
,
0001
0000
1000
0000
0010
1000
0010
0000
,
0100
0000
0001
0000
1000
0010
1000
0000
,
0010
0000
0100
0000
0001
0100
0001
0000
,
1000
0000
0010
0000
0001
0100
0001
0000
,
1000
0000
0010
0000
0001
1000
0001
0000
,
0100
0000
0010
0000
1000
0001
1000
0000
,
0010
0000
0100
0000
0001
0010
0001
0000
,
1000
0000
0001
0000
0100
0010
0100
0000
,
1000
0000
0010
0000
0100
0001
0100
0000
,
0010
0000
1000
0000
0010
0001
0010
0000
,
1000
0100
1000
0000
0010
0001
0010
0000
1000
0100
1000
0000
0010
0001
0010
0000
,
1000
0100
1000
0000
0010
0001
0010
0000
1000
0100
1000
0000
0010
0001
0010
0000
,
1000
0100
1000
0000
0010
0001
0010
0000
1000
0100
1000
0000
0010
0001
0010
0000
,
1000
0100
1000
0000
0010
0001
0010
0000
1000
0100
1000
0000
0010
0001
0010
0000
,
0001
0010
0200
0000
1300
0100
0020
0000
0031
0010
0200
0000
1300
0100
0020
0000
,
0031
0010
0200
0000
1300
0100
0020
0000
0031
0010
0200
0000
1300
0100
0020
0000
,
0031
0010
0200
0000
1300
0100
0020
0000
0031
0010
0200
0000
1300
0100
0020
0000
,
0031
0010
0200
0000
1300
0100
0020
0000
0031
0010
0200
0000
1300
0100
0020
0000
,
0031
0000
0100
0000
0010
0100
1000
0000
,
0010
0000
0001
0000
1000
0100
0010
0000
,
0100
0000
0010
0000
0100
0010
0001
0000
,
0010
0000
0100
0000
1000
0100
1000
0000
,
0010
0000
0100
0000
0001
0100
0001
0000
,
1000
0000
0010
0000
0100
1000
0100
0000
,
0010
0000
0100
0000
0010
0001
0010
0000
,
1000
0000
0010
0000
0100
0001
0100
0000
,
1000
0010
0001
0010
0100
1000
0100
0010
,
0001
0010
0100
1000
0100
0010
0100
0010
,
0100
0010
0001
0010
0100
1000
0100
0010
,
0100
0010
0001
1000
0100
0010
0100
1000
,
0010
0100
0001
1000
0010
0100
0001
1000
,
0100
0010
0001
1000
0100
0010
0001
1000
,
0020
0000
1000
0001
,
0130
1000
0100
0010
0001
0010
0100
1000
,
0100
0010
0100
0010
0001
1000
0100
0010
,
0001
0010
0100
1000
0100
0010
0001
0010
,
0100
1000
0100
0010
0100
1000
0001
0010
,
0001
1000
0100
0010
0001
1000
0100
0010
,
0001
1000
0100
0010
0001
0010
0100
0010
,
0100
0010
0001
0010
0001
0010
0100
1000
,
0100
1000
0001
0010
0100
1000
0100
0010
,
0001
0010
0100
1000
0100
0010
0001
0010
,
0100
1000
0100
1000
0100
0010
0001
0010
,
0001
0010
0100
1000
0100
0010
0001
0010
,
0100
1000
0100
0010
0001
0010
0100
0000
,
2002
0000
0000
0000
,
0000
0000
0000
0000
,
0000
0000
0000
0000
,
0000
0000
0000
0000
,
3003
0000
0000
0000
;
