#TITLE:DiSCONNECTED;
#SUBTITLE:-Disco-;
#ARTIST:Kid Whatever vs. Inspector K;
#TITLETRANSLIT:;
#SUBTITLETRANSLIT:;
#ARTISTTRANSLIT:;
#CREDIT:Blue0ctane;
#BANNER:disconnected.png;
#BACKGROUND:disconnected-bg.png;
#LYRICSPATH:;
#CDTITLE:grandslam.GIF;
#MUSIC:Disconnected Disco.mp3;
#OFFSET:-2.020;
#SAMPLESTART:43.145;
#SAMPLELENGTH:12.000;
#SELECTABLE:YES;
#BPMS:0.000=139.440;
#STOPS:151.000=0.220
,158.500=0.220
,166.000=0.220
,170.500=0.220
;
#BGCHANGES:;
// cache tags:
#FIRSTBEAT:0.000;
#LASTBEAT:240.000;
#SONGFILENAME:Songs/Community Keyboard Megapack - Volume 3/(BlueOctane) Disconnected Disco/Disconnected Disco.sm;
#HASMUSIC:1;
#HASBANNER:1;
#MUSICLENGTH:107.650;
// end cache tags

//---------------dance-single - Blue0ctane----------------
#NOTES:
     dance-single:
     Blue0ctane:
     Challenge:
     10:
     1.000,1.000,1.000,0.752,1.000,575.000,111.000,81.000,125.000,19.000:

M2M2
0000
M0M0
0000
1303
0M0M
0000
1000
0010
0000
0010
0000
0100
0000
0000
0000
,
0001
0000
0000
0000
1000
0000
0000
0100
0010
0100
0001
0000
1000
0000
0000
0000
,
0100
0000
0000
0000
1000
0000
0000
0100
1000
0000
0100
0000
0001
0000
0000
0000
,
0010
0000
0000
0000
0010
0000
0000
0010
0001
0100
0010
0000
1000
0000
0000
0000
,
0220
0000
M00M
0000
1330
0MM0
0000
0001
1000
0000
0001
0000
1000
0000
0010
0100
,
0001
0000
0000
0000
0010
0000
0000
0100
0001
0100
0001
0000
2020
0000
3M30
0000
,
1MM0
0000
0000
0000
0100
0000
0000
0010
0001
0000
0100
0000
0010
0000
0001
0010
,
0100
0000
0010
1000
0001
0000
0100
1000
0100
0010
0000
0000
0010
0000
0001
0000
,
2002
0000
0MM0
0000
3103
M00M
0000
0010
0100
0000
0001
0000
0010
0000
1000
0001
,
0100
0000
0000
0000
0001
0000
0000
0001
0010
1000
0100
0000
0101
0000
0000
0000
,
0001
0000
0000
0000
0001
0000
0000
1000
0001
0000
0010
0000
0001
0000
1000
0000
,
0040
0000
0000
0000
0030
00M0
00M0
00M0
11M0
00M0
01M1
0000
0110
0000
0000
0000
,
2200
0000
00MM
0000
3301
MM00
0000
0010
0001
0000
1000
0000
0001
0000
0000
0000
,
0010
0000
0000
0000
1000
0000
0000
1000
0010
0001
0010
0000
0100
0000
0000
0000
,
0010
0000
0000
0000
0001
0000
0000
0010
0001
0000
0010
0000
0100
0000
0000
0000
,
0010
0000
0000
0000
1000
0000
0000
0001
1000
0010
1000
0000
0100
0000
0000
0000
,
0220
0000
M00M
0000
1330
0MM0
0000
0100
0001
0000
0010
0000
1000
0000
0000
0000
,
1000
0000
0000
0000
0100
0000
0000
0100
0010
0001
1000
0000
1000
0000
0000
0000
,
0001
0000
0000
0000
0010
0000
0000
0100
0010
0000
0001
0000
0001
0000
0000
0000
,
1000
0000
1000
0000
0000
0000
0000
0000
0010
0000
1000
0000
0000
0000
0010
0000
0001
0000
0100
0000
0000
0000
0000
0000
0000
1000
0011
0000
0000
0000
0000
0000
,
2020
0000
0M01
0000
3030
M0M0
0001
0100
0001
0010
1000
0100
0010
0000
0100
0010
,
1001
0000
0000
0000
0100
1000
0000
0000
0010
0100
0000
0000
0010
0000
0001
0000
0020
0000
0000
0000
0000
0000
0000
0000
0030
0000
0000
0000
0000
0000
0000
0000
,
1100
0000
0001
0000
0100
0010
0000
0000
0110
0000
0000
0000
1000
0000
0100
0000
0010
0100
0000
0000
1000
0000
0100
0000
0110
0000
0000
0000
0001
0000
0000
0000
,
0101
0000
0000
0000
0010
0000
0010
0000
1100
0001
0000
0000
0100
0000
0100
0000
0011
0000
1010
0000
0001
0000
0010
0000
0100
0000
0000
0000
1010
0000
0000
0000
,
0220
0000
0000
0000
M00M
0000
0000
0000
1331
0000
0MM0
0000
1000
0000
0010
0000
0200
0000
0300
0000
0001
0000
2000
0000
3001
0000
0000
0000
0010
0001
0000
0000
,
0100
0000
0100
0000
0100
0000
0000
0000
1000
0100
0000
0000
1000
0000
0011
0000
0100
0000
0011
0000
1000
0000
0001
0010
1100
0000
0000
0000
1000
0001
0000
0000
,
0010
0000
0100
0000
0100
0001
0000
0000
0010
1000
0000
0000
0100
0000
1000
0000
0100
0001
0000
0100
1000
0000
0000
0100
0010
0000
0000
0000
0011
0000
0000
0000
,
1100
0000
0010
0000
0001
0000
0010
0000
1100
0000
0000
0000
0100
0000
0001
0000
0010
1000
0000
0000
0100
0000
0010
0000
2000
0000
0000
0000
0000
0000
0000
0000
,
3202
0000
M0M0
0000
1313
0M0M
1000
0010
0001
0010
0100
1000
0110
0000
0011
1100
,
0110
0000
0000
0000
1000
0010
0000
0000
0100
0001
0000
0000
0010
0000
1000
0000
0202
M0M0
0000
2323
0000
0000
0M0M
0000
3232
0000
0000
M3M3
0000
0M0M
0M0M
0000
,
0010
0000
1000
0000
0100
0010
0000
0000
1000
0000
0001
0000
0001
0000
0001
0000
1000
0000
0100
0000
0010
0000
0001
0000
0110
0000
0000
0000
0010
0000
0001
0000
,
1001
0000
0000
0000
0001
0000
0100
0000
0010
0100
1000
0000
0001
0000
0001
0000
1010
0101
0010
0000
1000
0000
0100
0000
1001
0000
0000
0000
0011
0000
0000
0000
,
0220
0000
0000
0000
M00M
0000
0000
0000
1331
0000
0MM0
0000
1000
0000
0001
0000
0010
0200
0000
0000
1310
0000
0110
0000
1001
0000
0000
0000
0010
2200
0000
0000
,
3311
0000
0110
0000
1100
0000
0000
0000
1000
0100
0000
0000
1000
0000
0010
0000
0001
0000
0010
0000
0100
0000
1000
0000
1000
0100
0000
0000
1010
0000
0000
0000
,
0100
0000
0010
0000
0001
1000
0000
0000
0110
0000
0000
0000
0010
0000
0010
0000
1000
0000
0001
0000
0110
0000
1010
0000
0101
0000
0000
0000
0010
0000
1000
0000
,
0000
0000
0000
0000
0100
0000
0000
0000
0000
0000
0000
0000
0001
0000
1000
0000
0010
0000
0000
0000
1100
0000
0000
0000
2002
0000
3003
0000
0000
1000
0000
0000
,
0020
0000
0000
0000
0101
0000
M000
0000
2030
0000
00M0
0000
0110
0000
0000
0000
3000
0000
M000
M000
M010
0000
0200
0000
0300
0000
0000
0000
0010
0000
0000
0000
,
0110
0000
1000
0000
0110
0000
0001
0010
0000
1000
0100
0010
0011
0000
1001
0000
,
0101
0000
1100
0000
0011
1000
0100
0001
0010
1000
0000
0000
1001
0000
1010
0000
,
0100
0000
0000
0000
0000
0000
0000
0000
0011
0000
0000
0000
0000
0000
0000
0000
0001
0000
0000
0000
0000
0000
0000
0000
1100
0000
0000
0000
0000
0000
0000
0000
0010
0000
0000
0000
0000
0000
0000
0000
1001
M00M
0000
0000
0000
0000
0000
0000
M2M2
0000
0000
0000
M0M0
0000
0000
0000
M0M0
0000
0000
0000
M0M0
0000
0000
0000
,
M3M3
0M0M
1M0M
0M1M
0000
0100
0001
0001
0010
0100
1000
0000
0110
0000
0010
0000
,
0110
0000
0000
0000
0000
0000
0000
0000
0100
0000
0000
0000
0001
0000
0000
0000
0000
0000
0000
0000
0001
0000
0000
0000
0100
0000
0000
0000
1000
0000
0000
0000
1010
MMMM
0000
0000
0000
0000
0000
0000
1000
0000
0000
0000
0000
0000
0000
0000
0001
0000
0000
0000
0000
0000
0000
0000
0100
0000
0000
0000
0000
0000
0000
0000
,
0001
1000
1100
1110
1111
0110
0002
0000
,
2003
0000
3200
0000
0320
0000
0030
0000
2002
0000
0MM0
0000
3003
M00M
0000
0000
,
1000
0100
0000
0000
0100
0010
0000
0000
0010
0001
0000
0000
0100
0000
0100
0000
0000
0000
0000
0000
1000
0000
0000
0000
1000
0010
0000
0000
0100
0000
0010
0000
,
0002
0000
0000
0000
0000
0000
0000
0000
0003
0000
0000
0000
0000
0000
0000
0000
1100
0000
0000
0000
0100
0001
0000
0000
0110
0000
0000
0000
1000
0001
0000
0000
,
0020
0000
0200
0000
0030
0000
0002
0000
0300
0000
0003
0000
1000
0000
0000
0000
1001
0000
0000
0000
0010
0000
0010
0000
0001
0010
0000
0000
1000
0000
0100
0000
,
0020
0032
0000
0203
0000
0300
1001
0000
2002
0MM0
0MM0
0MM0
3003
M00M
0010
0000
,
0100
0000
0000
0000
1000
0000
0000
0000
0100
0000
0000
0000
0020
0000
0000
0030
1000
0000
0100
0000
0010
0000
0000
0000
1000
0010
0000
0000
1000
0000
0001
0000
,
0010
0000
0100
0000
0010
0000
0100
1000
0000
0000
0000
0000
0220
0000
0000
0330
0001
0000
0100
0000
0010
0000
0000
0000
2000
0000
0000
3000
0001
0000
0001
0000
,
0100
1000
0000
0100
0000
0000
0010
0000
1100
0000
1100
1100
0110
0000
1001
1001
,
1010
0101
0000
0202
0303
0000
1100
0000
0011
0100
2000
3000
0011
0000
0100
1000
,
0010
0001
0000
2200
0000
3300
0010
0000
1000
1000
1000
0000
0002
0023
0031
1000
,
0100
0010
0000
0000
0100
0000
1000
0000
0100
0000
0000
0000
0100
0000
0000
0000
0011
0000
0000
0000
0100
0000
1000
0000
0001
0000
0010
0000
0002
0000
1003
0000
,
01M0
0000
100M
0000
0100
0000
1000
0010
0100
0000
0000
0000
0001
1000
0000
0000
0200
0000
0300
0000
0010
0000
0001
0000
0010
0000
0000
0000
0010
0000
0100
0000
,
0010
0100
0010
0100
0010
0000
0100
0010
1000
0000
1000
0010
0100
0000
0100
0010
,
0001
0000
0010
0000
0100
0000
0010
0000
0001
0000
0000
0000
0100
0000
0000
0000
0011
0000
0110
0000
1001
0000
0000
0000
MM2M
0000
0030
0M0M
10M0
0000
0001
0000
,
0100
0000
0010
0000
0001
0000
0100
0000
1000
0000
0000
0000
0220
M00M
0330
0000
1MM0
0000
0001
0000
1000
0010
0000
0000
2200
0000
3300
0000
0001
0000
0010
0000
,
0100
0000
2000
0000
3020
0000
0232
0000
0000
0000
0303
0000
1000
0010
0000
0000
0100
0001
0000
0000
0010
1000
0000
0000
0100
0000
0100
0000
0010
0000
0010
0000
,
0002
0000
2003
0000
3010
0000
0100
0000
0011
0000
0000
0000
0100
1000
0000
0000
M202
M0M0
00M0
0000
M0M0
0000
0000
M0M0
0303
M0M0
0000
MMMM
0000
0000
0000
0000
,
MMMM
0000
0000
0000
;
