#TITLE:Balalaika, Carried With The Wind;
#SUBTITLE:Jondi & Spesh Mix;
#ARTIST:Julie Ann Frost;
#TITLETRANSLIT:;
#SUBTITLETRANSLIT:;
#ARTISTTRANSLIT:;
#CREDIT:;
#BANNER:hh.banner.jpg;
#BACKGROUND:hhh.bg.jpg;
#LYRICSPATH:;
#CDTITLE:CDTITLE.jpg;
#MUSIC:07-balalaika-carried-with-the-wind-jondi-spesh-mix-.mp3;
#OFFSET:0.100;
#SAMPLESTART:35.194;
#SAMPLELENGTH:12.000;
#SELECTABLE:YES;
#BPMS:0.000=170.000,113.000=85.000,129.000=170.000,193.000=85.000,209.000=170.000;
#STOPS:;
#BGCHANGES:;
// cache tags:
#FIRSTBEAT:17.000;
#LASTBEAT:240.000;
#SONGFILENAME:Songs/Definitive Keyboard Megapack/Balalaika carried with the wind -j ondi spesh mix(Leone510)/07-balalaika-carried-with-the-wind-jondi-spesh-mix-.sm;
#HASMUSIC:1;
#HASBANNER:1;
#MUSICLENGTH:98.951;
// end cache tags

//---------------dance-single - ----------------
#NOTES:
     dance-single:
     :
     Challenge:
     11:
     1.000,1.000,1.000,0.990,0.576,482.000,130.000,98.000,0.000,5.000:
0000
0000
0000
0000
,
0000
0000
0000
0000
,
0000
0000
0000
0000
,
0000
0000
0000
0000
,
0000
0000
0000
0000
1010
0000
0000
0002
0000
0003
1100
0000
0000
0000
0100
0000
,
0010
0100
1010
0110
0101
2010
3000
0100
,
1000
0000
0001
0000
1100
0000
0000
0020
0000
0030
1001
0000
0000
1000
0000
0000
,
0100
0010
0101
0000
0000
0000
1010
0000
,
0000
0000
0000
0000
0110
0000
0000
2000
0000
3000
0101
0000
0000
0000
0001
0000
,
1000
0001
1100
1001
0110
0201
0300
0010
,
1000
0000
0010
0000
0101
0000
0000
2000
0000
3000
0101
0000
0000
0001
0000
0000
,
1000
0010
0101
0000
0000
0000
1010
0000
,
0000
0000
0000
0000
0100
0000
0100
0001
0010
0000
2000
0000
3101
0000
0001
0000
,
1100
0001
1010
0001
1100
0100
0101
0010
,
1010
0000
0000
0000
0100
0000
0000
0000
0022
0000
0000
0000
0000
0000
0000
0033
0202
0000
0000
0000
0000
0000
0000
0303
2200
0000
0000
0000
0000
0000
0000
3300
,
2002
0000
0000
0000
0000
0000
0000
3003
0101
0000
0000
0000
0010
0000
0000
0000
1001
0000
0000
0000
0010
0000
0000
0000
1100
0000
0000
0000
0010
0000
0000
0000
,
1001
0000
0010
0000
0001
0000
0001
0010
1000
0000
0200
0000
1301
0000
0100
0000
,
0011
1000
0101
1000
0011
0100
1010
0100
,
0011
0000
0000
0000
0100
0000
0000
0000
2020
0000
0000
0000
0000
0000
0000
3030
0202
0000
0000
0000
0000
0000
0000
0303
2002
0000
0000
0000
0000
0000
0000
3003
,
0202
0000
0000
0000
0000
0000
0000
0303
1010
0000
0000
0000
0000
0000
0000
0000
0110
0000
0000
0000
0000
0000
0000
0000
1001
0000
0000
0000
0000
0000
0000
0000
,
0101
0000
0200
0001
0310
0002
2003
0100
,
3001
0020
0230
1000
0301
0020
0230
0010
,
1300
0002
0203
0001
0310
0002
2003
0100
,
3001
0020
0230
1000
0301
0020
0230
0010
,
1300
0002
0203
0001
0310
0002
2003
0100
,
3001
0020
0230
1000
0301
0020
0230
0010
,
1300
0002
0203
0001
0310
0002
2003
0100
,
3001
0020
1130
0000
1001
0000
0110
0000
,
1000
0000
0000
0000
0101
0000
0000
0001
0010
0000
0100
0000
1000
0000
0000
0000
,
0101
0000
0000
0000
0100
2000
0000
0000
3000
0000
0010
0000
0100
0000
0010
0000
,
0100
0010
0100
1000
0001
0010
1000
0010
,
0001
0010
2000
0000
3002
0000
2003
0000
,
3000
0000
0000
0000
0101
0000
0100
0000
1010
0000
1000
0000
0101
0000
0010
0001
,
1100
0010
0001
0100
1010
0000
0100
0010
0101
0000
0100
0001
1010
0000
0001
0010
,
1100
0001
1000
0010
0101
0000
1000
0001
0110
0000
1000
0010
0101
0000
0010
0100
,
0011
0100
1000
0010
0101
0000
1000
0010
0101
0000
0001
0010
1100
0000
0010
0000
,
1001
0000
0000
0000
0011
0000
0100
0000
1001
0000
0010
0000
0101
0000
0001
0010
,
1100
0010
0001
1000
0101
0000
1000
0010
0101
0000
0010
0100
0011
0000
1000
0001
,
1100
0001
1000
0010
0101
0000
1000
0001
1100
0000
0100
0010
0101
0000
0001
0100
,
1010
0001
1000
0001
0110
0000
1000
0001
0110
0000
1000
0001
1100
0000
0001
0000
,
1010
0000
0000
0000
0101
0000
0100
0000
1010
0000
1000
0000
0101
0000
0010
0001
,
1100
0010
0001
0100
1010
0000
0100
0010
0101
0000
0100
0001
1010
0000
0001
0010
,
1100
0001
1000
0010
0101
0000
1000
0001
0110
0000
1000
0010
0101
0000
0010
0100
,
0011
0100
1000
0010
0101
0000
1000
0010
0101
0000
0001
0010
1100
0000
0010
0000
,
1001
0000
0000
0000
0002
0000
0000
0000
2003
0000
0000
0000
3002
0000
0100
0010
,
2003
0000
0001
0100
3002
0000
1000
0010
0203
0001
0010
1000
0001
0000
1000
0001
,
1300
0000
1000
0010
0202
0000
0313
0000
1100
0000
0100
0000
0101
0000
0001
0100
,
1010
1000
0110
1000
0110
1000
1100
0001
,
2002
0000
3003
0000
0101
0000
0000
0001
0010
0000
0100
0000
1000
0000
0000
0000
,
0101
0000
0000
0000
0100
2000
0000
0000
3001
0000
0010
0000
0100
0000
0010
0000
,
0100
0000
0000
0000
0010
0000
0000
0000
0100
0000
0010
0001
1000
0000
0010
0100
0001
0000
1000
0100
0010
0001
0100
0010
1000
0000
0001
0100
0010
0000
1000
0010
,
0001
0000
0001
1000
0010
0001
0010
0100
2000
0000
0010
0100
0001
0000
0100
0010
3002
0000
0010
0100
1000
0000
0010
0100
2003
0000
0100
0010
0100
0010
0001
0010
,
3100
0000
0000
0000
0101
0000
0001
0010
1000
0000
0001
0000
0100
0000
0001
1000
,
0100
0010
0001
0000
0010
0100
1000
0100
0010
0001
0020
0000
0032
0000
0013
1000
,
0100
0000
0010
0000
0001
0000
1000
0000
0022
0000
0000
0000
0000
0000
0000
0033
2020
0000
0000
0000
0000
0000
0000
3030
2002
0000
0000
0000
0000
0000
0000
3003
,
0202
0000
0000
0000
0000
0000
0000
0303
0220
0000
0000
0000
0330
0000
0000
0000
0101
0000
0000
0000
1010
0000
0000
0000
1001
0000
0000
0000
0000
0000
0000
0000
,
0110
0000
0000
0000
0101
0000
0001
0010
1000
0000
0001
0000
0100
0000
0001
1000
,
0100
0010
0001
0000
0010
0100
1000
0100
0010
0001
0020
0000
0032
0000
0013
1000
,
0100
0000
0010
0000
0001
0000
1000
0000
0022
0000
0000
0000
0000
0000
0000
0033
2020
0000
0000
0000
0000
0000
0000
3030
2002
0000
0000
0000
0000
0000
0000
3003
,
0202
0000
0000
0000
0000
0000
0000
0303
0220
0000
0000
0000
0000
0000
0000
0330
0202
0000
0000
0000
0000
0000
0000
0303
2002
0000
0000
0000
0000
0000
0000
0000
,
3113
0000
0000
0000
;
