#TITLE:I Knew You Were Trouble;
#SUBTITLE:Sexuality Violation;
#ARTIST:Taylor Swift;
#TITLETRANSLIT:;
#SUBTITLETRANSLIT:;
#ARTISTTRANSLIT:;
#CREDIT:;
#BANNER:Trouble - bn.png;
#BACKGROUND:Trouble - bg.png;
#LYRICSPATH:;
#CDTITLE:;
#MUSIC:Trouble.ogg;
#OFFSET:0.010;
#SAMPLESTART:114.540;
#SAMPLELENGTH:12.000;
#SELECTABLE:YES;
#DISPLAYBPM:154.000;
#BPMS:0.000=154.000,34.000=308.000,39.000=154.000,66.000=308.000,71.000=154.000,104.000=77.000,120.000=154.000,376.000=77.000,394.000=154.000;
#STOPS:34.000=0.194
,35.000=0.195
,36.000=0.195
,37.000=0.195
,38.000=0.195
,66.000=0.195
,67.000=0.194
,68.000=0.195
,69.000=0.195
,70.000=0.195
;
#BGCHANGES:;
// cache tags:
#FIRSTBEAT:8.000;
#LASTBEAT:522.000;
#SONGFILENAME:Songs/Sexuality Violation 2/I Knew You Were Trouble - [Aoreo]/Trouble.sm;
#HASMUSIC:1;
#HASBANNER:1;
#MUSICLENGTH:217.012;
// end cache tags

//---------------dance-single - J. Nero----------------
#NOTES:
     dance-single:
     J. Nero:
     Challenge:
     17:
     1.000,1.000,0.240,0.120,1.000,1950.000,52.000,26.000,8.000,0.000:
0000
0000
0000
0000
,
0000
0000
0000
0000
,
0101
0100
0010
1010
1000
0100
0110
0010
,
0011
0001
1000
1010
0010
0100
0101
0001
,
1010
1000
0100
0110
0010
0001
1001
1000
,
1100
0100
1000
1010
0010
0100
0101
0001
,
4001
0000
0000
0000
0000
0000
0000
0000
0000
0000
0000
0000
0100
0000
0000
3000
1000
0000
0000
0000
0001
0000
0000
0000
0101
0000
0000
0000
0100
0000
0000
0000
,
0140
0000
0000
0000
0000
0000
0000
0000
0000
0000
0000
0000
1000
0000
0000
0030
0010
0000
0000
0000
0100
0000
0000
0000
0101
0000
0000
0000
0001
0000
0000
0000
,
4001
0000
0000
0000
0000
0000
0000
0000
0000
0000
0000
0000
0000
0000
0000
0000
0000
0000
0000
0000
0000
0000
0000
0000
3010
0000
0000
0000
0000
0000
0000
0000
0200
0300
0000
0000
0000
0000
0000
0000
0000
0000
0000
0000
0000
0000
0000
0000
0200
0300
0000
0000
0000
0000
0000
0000
0000
0000
0000
0000
0000
0000
0000
0000
,
0200
0300
0000
0000
0000
0000
0000
0000
0000
0000
0000
0000
0000
0000
0000
0000
0200
0300
0000
0000
0000
0000
0000
0000
0000
0000
0000
0000
0000
0000
0000
0000
0200
0300
0000
0000
0000
0000
0000
0000
0000
0000
0000
0000
0000
0000
0000
0000
0200
0000
0000
0000
0000
0000
0000
0000
0301
0000
0000
0000
0000
0000
0000
0000
,
1001
0000
1000
0000
0100
0000
0110
0000
0010
0000
0001
0000
1001
0000
1000
0010
,
0100
0010
1000
1100
0100
0010
0011
0001
,
1001
1000
0010
0110
0100
0001
0011
0010
,
0110
0100
1000
1001
0001
0100
0110
0010
,
4001
0000
0000
0000
0000
0000
0000
0000
0000
0000
0000
0000
0100
0000
0000
3000
1000
0000
0000
0000
0010
0000
0000
0000
0110
0000
0000
0000
0100
0000
0000
0000
,
0104
0000
0000
0000
0000
0000
0000
0000
0000
0000
0000
0000
0010
0000
0000
0003
0001
0000
0000
0000
0010
0000
0000
0000
0110
0000
0000
0000
0100
0000
0000
0000
,
4100
0000
0000
0000
0000
0000
0000
0000
0000
0000
0000
0000
3001
0000
0000
0000
0200
0300
0000
0000
0000
0000
0000
0000
0200
0300
0000
0000
0000
0000
0000
0000
,
0200
0300
0000
0000
0000
0000
0000
0000
0200
0300
0000
0000
0000
0000
0000
0000
0200
0000
0000
0000
0300
0000
0000
0000
0100
0000
0000
0000
0001
0000
0000
0000
,
1001
1000
0100
0110
0010
0001
1001
1000
,
0001
0100
0001
1000
0010
0100
0010
1000
0100
0010
0001
1000
0001
0100
0010
1000
,
0001
0010
0100
1100
1000
0001
0101
0100
,
0010
1000
0010
0100
0001
1000
0100
0010
0001
1000
0001
0100
0010
0100
0001
1000
,
0001
1000
0010
0110
0100
0001
0011
0010
,
0100
1000
0001
1000
0010
0100
0010
1000
0100
0010
0001
0100
0001
1000
0010
0100
,
0001
1000
0100
1100
1000
0010
0110
0100
,
0101
0001
0010
0110
0100
1000
1010
0010
,
1MM1
0000
1000
0000
0010
0000
0100
0000
0001
0010
0100
1000
0010
0000
0400
0000
,
0000
0000
0300
0000
0000
0000
0000
0001
1000
0000
0100
0000
1000
0000
0010
0000
,
0100
0000
0001
0000
0010
0000
0100
0000
1000
0100
1000
0001
0100
0010
0400
0000
,
0000
0300
0000
0000
0000
0000
0001
1000
0010
0000
0010
0000
0100
0000
0001
0000
,
1MM1
1000
0001
0100
0010
0100
0001
1000
,
0001
0100
0001
1000
0000
0000
0100
0000
0000
0010
0000
0000
0100
0000
0000
1000
0000
0000
0001
0000
0000
0100
0000
0000
,
0001
0010
0100
1000
0000
0000
0100
0000
0000
0010
0000
0000
0100
0000
0000
1000
0000
0000
0001
0000
0000
0100
0000
0000
,
0010
1000
0010
0100
0000
0000
0001
0000
0000
1000
0000
0000
0001
0010
0100
1000
0000
0000
0001
0000
0000
0100
0000
0000
,
0001
1000
0100
1000
0000
0000
0010
0000
0000
0100
0000
0000
0001
0000
0000
0010
0000
0000
0100
0000
0000
1000
0000
0000
,
0001
0100
0001
1000
0000
0000
0100
0000
0000
0010
0000
0000
0100
0000
0000
1000
0000
0000
0001
0000
0000
0100
0000
0000
,
0010
1000
0010
0100
0000
0000
0001
0000
0000
0010
0000
0000
0100
0000
0000
1000
0000
0000
0010
0000
0000
0100
0000
0000
,
0002
0003
0000
0000
0000
0000
0000
0000
,
2002
0000
0000
0000
0000
0000
0000
0000
0000
0000
0000
0000
0000
0000
0000
0000
0000
0000
0000
0000
0000
3003
0000
0000
1000
0000
0100
0000
0010
0000
0100
0000
1000
0000
0001
0000
0100
0000
0010
0000
0100
0000
0001
0000
1000
0000
0001
0000
,
0100
0000
0000
0001
0000
0000
1000
0000
0000
0100
0000
0000
0010
0000
0000
0100
0000
0000
1000
0000
0000
0001
0000
0000
1000
0000
0100
0000
0010
0000
0100
0000
1000
0000
0001
0000
1000
0000
0010
0000
0100
0000
0001
0000
1000
0000
0001
0000
,
0100
0000
0000
0001
0000
0000
1000
0000
0000
0010
0000
0000
0100
0000
0000
0010
0000
0000
1000
0000
0000
0001
0000
0000
1000
0000
0100
0000
0010
0000
0100
0000
1000
0000
0001
0000
1000
0000
0000
0001
0000
0000
0100
0000
0000
0001
0000
0000
,
1000
0000
0001
0000
0100
0000
0001
0000
1000
0000
0010
0000
0100
0000
0000
0001
0000
0000
1000
0000
0000
0100
0000
0000
1000
0000
0001
0000
0010
0000
0100
0000
0010
0000
0001
0000
1000
0000
0000
0001
0000
0000
0100
0000
0000
0010
0000
0000
,
1000
0000
0000
0100
0000
0000
0010
0000
0000
0100
0000
0000
1000
0000
0000
0001
0000
0000
0100
0000
0000
0010
0000
0000
1000
0000
0100
0000
0010
0000
0001
0000
0100
0000
0010
0000
1000
0000
0100
0000
0010
0000
0001
0000
1000
0000
0001
0000
,
0100
0000
0000
0001
0000
0000
1000
0000
0000
0010
0000
0000
0100
0000
0000
0010
0000
0000
1000
0000
0000
0001
0000
0000
0100
0000
0001
0000
0010
0000
0100
0000
1000
0000
0010
0000
0100
0000
0001
0000
0010
0000
0100
0000
1000
0000
0001
0000
,
0100
0000
0000
0001
0000
0000
1000
0000
0000
0100
0000
0000
1000
0000
0000
0010
0000
0000
1000
0000
0000
0001
0000
0000
1000
0000
0100
0000
0010
0000
0100
0000
1000
0000
0001
0000
0100
0000
0000
0001
0000
0000
0100
0000
0000
0010
0000
0000
,
1000
0000
0001
0000
0010
0000
0100
0000
1000
0000
0001
0000
0100
0000
0000
0010
0000
0000
0100
0000
0000
0001
0000
0000
1000
0000
0100
0000
1000
0000
0001
0000
0100
0000
0010
0000
0100
0000
0000
0001
0000
0000
1000
0000
0000
0001
0000
0000
,
0100
0001
0001
1000
0100
0100
1000
0010
,
0100
0000
0001
0000
0001
0000
1000
0000
0001
0100
0001
1000
0100
0010
0001
1000
,
0001
0100
0010
1010
1000
0100
0110
0010
,
0011
0001
1000
1010
0010
0100
0101
0001
,
1000
0001
0010
0100
1000
0001
0100
0010
0100
0001
1000
0001
0100
0000
0000
0001
0000
0000
0101
0000
0000
0100
0000
0000
,
0001
1000
0100
1000
0001
0010
0100
1000
0001
0100
0010
0100
0001
0000
0000
1000
0000
0000
1010
0000
0000
0010
0000
0000
,
0100
0000
0001
0000
1000
0000
0001
0000
0010
0000
0100
0000
1000
0000
0001
0000
0100
0000
0001
0000
1000
0000
0001
0000
1000
0000
0000
0100
0000
0000
0010
0000
0000
0100
0000
0000
1000
0000
0000
0100
0000
0000
0010
0000
0000
0100
0000
0000
,
1000
0100
0010
0100
1000
0100
0010
0100
1000
0100
0010
0100
1000
0000
0001
0000
,
1000
0100
1000
0000
0001
0000
0100
0010
0100
0000
0001
0000
1000
0100
1000
0000
,
0001
0100
0001
0000
0010
0000
0100
1000
0100
0000
1000
0000
0001
0100
0001
0000
,
1000
0100
1000
0000
0010
0000
0100
0001
0100
0000
0001
0000
0010
0100
0010
0000
,
0100
1000
0100
0000
1000
0000
0001
0100
0001
0000
0100
0000
0010
0100
0010
0000
,
1000
0000
0001
0000
0100
0000
0010
0000
0100
0000
0001
0000
1000
0000
0100
0000
0010
0000
0001
0000
1000
0000
0001
0000
0100
0000
0000
0000
0000
0000
0010
0000
0000
0000
0000
0000
1000
0000
0000
0100
0000
0000
1000
0000
0000
0000
0000
0000
,
0001
0000
0010
0000
0100
0000
1000
0000
0001
0000
0100
0000
0001
0000
1000
0000
0010
0000
0100
0000
0010
0000
1000
0000
0001
0000
0000
0000
0000
0000
0100
0000
0000
0000
0000
0000
0001
0000
0000
1000
0000
0000
0001
0000
0000
0000
0000
0000
,
1000
0000
0100
0000
0010
0000
0100
0000
1000
0000
0001
0000
0010
0000
0001
0000
1000
0000
0010
0000
0100
0000
0001
0000
0100
0000
0000
0001
0000
0000
0010
0000
0000
0001
0000
0000
0100
0000
0000
0001
0000
0000
0010
0000
0000
0001
0000
0000
,
0100
0001
0010
0001
0100
0001
0010
0001
0200
0001
0310
0001
0100
0001
0010
0100
,
1000
0001
0100
0000
0001
0000
0010
0100
1000
0000
0001
0000
0100
0010
1000
0000
,
0001
0100
0001
1000
0010
0100
0010
1000
0001
0100
0001
1000
0100
0010
0001
1000
0010
0100
0001
0010
0100
1000
0001
1000
,
0001
0100
0010
0000
1000
0000
0100
0010
0001
0000
1000
0000
0010
0100
0001
0000
,
1000
0010
0100
0010
1000
0001
0010
0100
1000
0001
1000
0010
0100
0001
1000
0100
0010
0001
0100
0010
1000
0100
0010
0001
,
1000
0010
0100
0000
0001
0000
0010
0100
1000
0000
0001
0000
1000
0100
1000
0000
,
0001
0100
0001
1000
0010
0100
0010
1000
0001
1000
0001
0010
0100
1000
0001
0100
0001
1000
0100
0010
0001
1000
0001
0100
,
0001
0100
0010
0000
1000
0000
0001
0010
0100
0000
1000
0000
0010
0100
0001
0000
,
1000
0100
0010
0100
1000
0001
0100
0010
2000
0000
0000
0000
3000
0000
0000
0000
,
0001
0000
0100
0000
0001
0000
1000
0000
0100
0000
0010
0000
0001
0000
1000
0000
0010
0000
0100
0000
0001
0000
1000
0000
0001
0000
0000
0010
0000
0000
0100
0000
0000
1000
0000
0000
0001
0000
0000
0100
0000
0000
0001
0000
0000
1000
0000
0000
,
0001
0000
0100
0000
0001
0000
1000
0000
0010
0000
0100
0000
0010
0000
1000
0000
0001
0000
0010
0000
0100
0000
1000
0000
0001
0000
0000
0100
0000
0000
0010
0000
0000
0100
0000
0000
0001
0000
0000
1000
0000
0000
0100
0000
0000
0010
0000
0000
,
0001
0100
0001
1000
0010
0100
0010
1000
0001
0100
0001
1000
0001
0010
0100
1000
0001
1000
0010
0100
0010
1000
0100
0010
,
0001
1000
0100
0010
0100
1000
0010
0100
0010
1000
0001
0010
0100
1000
0010
0100
,
0001
0000
0100
0000
0001
0000
1000
0000
0100
0000
0010
0000
0001
0000
1000
0000
0010
0000
0100
0000
0010
0000
1000
0000
0001
0000
0000
0100
0000
0000
0001
0000
0000
0010
0000
0000
0100
0000
0000
1000
0000
0000
0010
0000
0000
0100
0000
0000
,
0001
0000
0100
0000
0001
0000
1000
0000
0100
0000
0010
0000
0001
0000
1000
0000
0010
0000
0100
0000
0010
0000
1000
0000
0001
0000
0000
0100
0000
0000
0001
0000
0000
0010
0000
0000
0100
0000
0000
1000
0000
0000
0001
0000
0000
0100
0000
0000
,
0010
0000
1000
0000
0001
0000
0010
0000
0100
0000
1000
0000
0001
0000
0100
0000
0010
0000
0100
0000
0001
0000
1000
0000
0001
0000
0000
0100
0000
0000
0001
0000
0000
0010
0000
0000
0100
0000
0000
1000
0000
0000
0010
0000
0000
0100
0000
0000
,
0001
1000
0100
1000
0001
0100
0010
1000
0100
0010
0100
1000
0010
0100
0001
1000
,
0001
0000
0100
0000
0001
0000
1000
0000
0100
0000
0010
0000
0001
0000
0100
0000
0001
0000
1000
0000
0010
0000
0100
0000
0001
0000
0000
1000
0000
0000
0100
0000
0000
0010
0000
0000
0100
0000
0000
1000
0000
0000
0001
0000
0000
0100
0000
0000
,
0001
0000
0100
0000
0001
0000
1000
0000
0100
0000
0010
0000
0100
0000
1000
0000
0001
0000
0010
0000
0001
0000
1000
0000
0010
0000
0000
0100
0000
0000
0001
0000
0000
0010
0000
0000
0100
0000
0000
1000
0000
0000
0010
0000
0000
0100
0000
0000
,
0001
0000
1000
0000
0100
0000
0010
0000
0100
0000
1000
0000
0001
0000
0100
0000
0010
0000
1000
0000
0001
0000
0100
0000
0001
0000
0000
1000
0000
0000
0100
0000
0000
0010
0000
0000
0100
0000
0000
1000
0000
0000
0010
0000
0000
0100
0000
0000
,
0001
0010
0100
1000
0010
0100
0010
1000
0100
0010
0001
1000
0010
0100
0010
1000
,
0001
0000
0100
0000
0001
0000
1000
0000
0100
0000
0010
0000
0001
0000
1000
0000
0010
0000
0100
0000
0001
0000
1000
0000
0001
0000
0000
1000
0000
0000
0100
0000
0000
1000
0000
0000
0001
0000
0000
0100
0000
0000
0001
0000
0000
1000
0000
0000
,
0001
0000
0100
0000
0001
0000
1000
0000
0010
0000
0100
0000
0001
0000
1000
0000
0010
0000
1000
0000
0001
0000
0100
0000
0010
0000
0000
1000
0000
0000
0001
0000
0000
0010
0000
0000
0100
0000
0000
1000
0000
0000
0001
0000
0000
0100
0000
0000
,
0001
0000
0010
0000
0100
0000
1000
0000
0001
0000
1000
0000
0010
0000
0100
0000
0001
0000
1000
0000
0010
0000
0100
0000
0001
0000
1000
0000
0100
0000
0010
0000
0001
0000
1000
0000
0001
0000
0000
0010
0000
0000
0100
0000
0000
1000
0000
0000
,
0010
0100
0010
1000
0100
0010
0100
1000
0001
0100
0010
0100
0001
1000
0100
0010
,
0002
0000
0000
0000
0000
0000
0000
0000
0000
0000
0000
0000
0000
0000
0000
0000
0000
0000
0000
0000
0000
0003
0000
0000
1000
0000
0001
0000
0100
0000
0001
0000
1000
0000
0010
0000
0100
0000
0001
0000
1000
0000
0001
0000
0100
0000
0001
0000
,
1000
0100
1000
0001
0010
0100
1000
0001
0010
0001
1000
0001
1000
0010
0100
0001
0100
0010
1000
0001
0100
0001
1000
0001
,
0200
0000
0000
0000
0000
0000
0301
0000
0000
1000
0000
0000
0001
0100
0001
1000
0010
0100
0010
1000
0001
0100
0001
1000
,
0001
0010
0100
1000
0001
0010
0001
1000
0100
0010
0100
1000
0001
0100
0001
1000
0010
0100
0001
1000
0010
0100
0001
1000
,
0002
0000
0000
0000
0000
0000
0000
0000
0000
0003
0000
0000
1000
0100
1000
0001
0010
0001
1000
0100
0010
0001
1000
0100
,
1000
0001
0100
0001
1000
0010
0100
0010
1000
0001
0100
0001
1000
0001
0010
0100
1000
0001
0010
0001
1000
0100
0010
0001
,
2000
0000
0000
0000
0000
0000
0000
0000
0000
3000
0000
0000
0001
0100
0001
1000
0010
0100
0010
1000
0001
0100
0001
1000
,
0001
0010
0100
1000
0001
0010
0001
1000
0100
0010
0001
1000
0001
1000
0010
0100
0001
1000
0001
0000
0000
1000
0000
0000
,
0MM1
1000
0100
0000
0000
0000
0000
1000
,
0001
0000
0100
0000
0010
0000
0000
0000
0000
0000
0000
0000
0000
0000
0100
0001
,
1000
0100
1000
0000
0001
0000
0000
0000
0000
0000
0100
0010
0000
0000
0000
0100
,
0001
1000
0100
0000
0000
0000
0000
1000
0100
1000
0001
0000
0000
0000
0000
0000
,
2000
0000
0000
0000
0000
0000
3000
0000
0000
0000
0000
0000
2002
0000
0000
3003
0000
0000
0000
0000
0000
0000
0000
0000
0MM1
0000
1000
0000
0001
0000
0100
0000
0010
0000
0100
0000
0001
0000
1000
0000
0001
0000
0100
0000
0001
0000
1000
0000
,
0100
1000
0001
0010
0100
1000
0001
0010
0001
1000
0100
0010
0001
1000
0001
0100
0010
0100
0001
1000
0001
0100
0010
0100
,
0001
1000
0001
0100
0001
1000
0100
0010
0100
1000
0001
0010
0100
1000
0001
0100
0010
0100
0001
1000
0001
0100
0010
1000
,
0001
1000
0100
1000
0001
0100
0001
1000
0010
0100
0010
1000
0001
0100
0001
1000
0100
1000
0001
0010
0100
1000
0001
0010
,
0001
1000
0100
0010
0001
1000
0001
0100
0010
0100
0001
1000
0002
0000
0000
0000
0000
0000
0000
0000
0000
0000
0000
0000
,
1003
0000
0000
0100
0000
0000
1000
0000
0000
0001
0000
0000
0100
0000
0000
0010
0000
0000
0100
0000
0000
0001
0000
0000
1000
0000
0001
0000
0010
0000
0100
0000
1000
0000
0001
0000
1000
0000
0010
0000
0100
0000
0001
0000
1000
0000
0001
0000
,
0100
0000
0000
0001
0000
0000
0100
0000
0000
0010
0000
0000
1000
0000
0000
0001
0000
0000
0010
0000
0000
0100
0000
0000
1000
0000
0001
0000
0100
0000
0001
0000
1000
0000
0010
0000
0100
0000
0001
0000
1000
0000
0100
0000
0010
0000
0001
0000
,
1000
0001
0100
0010
0100
0001
0010
0100
1000
0010
0100
0001
1000
0100
0010
0001
,
0100
0000
0000
0001
0000
0000
1000
0000
0000
0100
0000
0000
1000
0000
0000
0010
0000
0000
0100
0000
0000
0001
0000
0000
1000
0000
0001
0000
0100
0000
0001
0000
1000
0000
0100
0000
0010
0000
0100
0000
1000
0000
0010
0000
0100
0000
0001
0000
,
1000
0000
0000
0001
0000
0000
0100
0000
0000
0010
0000
0000
0100
0000
0000
0001
0000
0000
0010
0000
0000
0100
0000
0000
1000
0000
0001
0000
0100
0000
0001
0000
0010
0000
0100
0000
1000
0000
0001
0000
0100
0000
0010
0000
0100
0000
0001
0000
,
1000
0000
0000
0100
0000
0000
0010
0000
0000
0100
0000
0000
1000
0000
0000
0001
0000
0000
0100
0000
0000
0010
0000
0000
0100
0000
0001
0000
1000
0000
0100
0000
0010
0000
0001
0000
1000
0000
0010
0000
0100
0000
0010
0000
1000
0000
0001
0000
,
0100
0001
0010
0100
1000
0001
1000
0100
0010
0100
1000
0010
0100
0001
1000
0100
,
1000
0000
0000
0001
0000
0000
0100
0000
0000
0010
0000
0000
1000
0000
0000
0100
0000
0000
0010
0000
0000
0001
0000
0000
1000
0000
0001
0000
0010
0000
0100
0000
1000
0000
0001
0000
1000
0000
0010
0000
0100
0000
0001
0000
1000
0000
0001
0000
,
0100
0000
0000
0001
0000
0000
1000
0000
0000
0100
0000
0000
1000
0000
0000
0001
0000
0000
0010
0000
0000
0100
0000
0000
1000
0000
0001
0000
0100
0000
0001
0000
1000
0000
0010
0000
0100
0000
0001
0000
1000
0000
0100
0000
0010
0000
0001
0000
,
1000
0000
0000
0001
0000
0000
0100
0000
0000
0001
0000
0000
1000
0000
0000
0010
0000
0000
0100
0000
0000
0010
0000
0000
1000
0000
0001
0000
0010
0000
0100
0000
1000
0000
0001
0000
0100
0000
0001
0000
1000
0000
0010
0000
0100
0000
0001
0000
,
1000
0010
0100
0001
0100
0010
1000
0001
0010
0100
1000
0001
0100
0001
1000
0100
0010
0001
1000
0010
0100
0010
1000
0001
,
0100
0001
1000
0100
0010
0001
1000
0001
0100
0001
1000
0010
0100
0010
1000
0001
0100
0001
1000
0100
0010
0001
1000
0001
,
1000
0010
0100
0010
1000
0001
0100
0001
1000
0100
0010
0001
1000
0001
0100
0001
1000
0010
0100
0010
1000
0001
1000
0010
,
1000
0001
0010
0100
1000
0001
0010
0001
1000
0100
0010
0001
1000
0100
1000
0001
0100
0001
1000
0010
0100
0010
1000
0001
,
1000
0100
0010
0001
1000
0100
0010
0001
1000
0001
1000
0010
0100
0001
1000
0010
0100
0001
1000
0001
0100
0001
1000
0010
,
1000
0001
0010
0100
1000
0001
0010
0001
1000
0100
0010
0001
1000
0001
0100
0010
1000
0001
1000
0100
0010
0001
1000
0010
,
1000
0001
0010
0001
1000
0100
0010
0001
1000
0001
0010
0100
1000
0001
0100
0001
1000
0010
0100
0010
1000
0001
0100
0001
,
1000
0100
1000
0001
0010
0100
1000
0001
1000
0100
0010
0001
1000
0001
0100
0010
0100
0001
1000
0001
0100
0001
1000
0010
,
1000
0001
0010
0100
1000
0001
0010
0001
1000
0100
0010
0001
1000
0001
0100
0010
0100
0001
1000
0001
0100
0010
1000
0001
,
1000
0100
0010
0100
1000
0001
0010
0100
1000
0001
0010
0001
1000
0010
0100
0010
1000
0001
0100
0001
1000
0001
0010
0100
,
1000
0000
0000
0001
0000
0000
0100
0000
0000
0010
0000
0000
0100
0000
0000
0001
0000
0000
0010
0000
0000
0100
0000
0000
1000
0000
0100
0000
1000
0000
0001
0000
0100
0000
0010
0000
0100
0000
0001
0000
1000
0000
0100
0000
0010
0000
0001
0000
,
1000
0000
0000
0100
0000
0000
1000
0000
0000
0001
0000
0000
0100
0000
0000
0010
0000
0000
0100
0000
0000
0001
0000
0000
1000
0000
0100
0000
1000
0000
0001
0000
1000
0000
0100
0000
0010
0000
0001
0000
1000
0000
0100
0000
1000
0000
0001
0000
,
0100
0001
1000
0010
0100
0001
0100
0001
1000
0010
0100
0010
1000
0001
0010
0100
1000
0001
0010
0001
1000
0100
0010
0001
,
1000
0001
0100
0001
1000
0010
0100
0010
1000
0001
0100
0001
1000
0010
0100
0010
1000
0001
0100
0001
1000
0010
0100
0001
,
1000
0000
0000
0100
0000
0000
1000
0000
0000
0001
0000
0000
0100
0000
0000
0001
0000
0000
0010
0000
0000
0100
0000
0000
1000
0000
0001
0000
0100
0000
0001
0000
1000
0000
0010
0000
0100
0000
0010
0000
1000
0000
0001
0000
0100
0000
0010
0000
,
0100
0000
0000
0001
0000
0000
0010
0000
0000
0100
0000
0000
1000
0000
0000
0001
0000
0000
0100
0000
0000
0010
0000
0000
1000
0000
0100
0000
1000
0000
0001
0000
0010
0000
0100
0000
1000
0000
0001
0000
1000
0000
0001
0000
0100
0000
0010
0000
,
1000
0001
0010
0001
1000
0100
0010
0001
1000
0100
1000
0001
0100
0010
0100
0001
1000
0010
0100
0001
1000
0010
1000
0001
,
2000
3200
0000
0000
0300
0000
0000
0000
;

//---------------dance-single - J. Nero----------------
#NOTES:
     dance-single:
     J. Nero:
     Hard:
     16:
     1.000,1.000,0.240,0.115,1.000,1827.000,52.000,25.000,8.000,0.000:
0000
0000
0000
0000
,
0000
0000
0000
0000
,
0101
0100
0010
1010
1000
0100
0110
0010
,
0011
0001
1000
1010
0010
0100
0101
0001
,
1010
1000
0100
0110
0010
0001
1001
1000
,
1100
0100
1000
1010
0010
0100
0101
0001
,
4001
0000
0000
0000
0000
0000
0000
0000
0000
0000
0000
0000
0100
0000
0000
3000
1000
0000
0000
0000
0001
0000
0000
0000
0101
0000
0000
0000
0100
0000
0000
0000
,
0140
0000
0000
0000
0000
0000
0000
0000
0000
0000
0000
0000
1000
0000
0000
0030
0010
0000
0000
0000
0100
0000
0000
0000
0101
0000
0000
0000
0001
0000
0000
0000
,
4001
0000
0000
0000
0000
0000
0000
0000
0000
0000
0000
0000
0000
0000
0000
0000
0000
0000
0000
0000
0000
0000
0000
0000
3010
0000
0000
0000
0000
0000
0000
0000
0200
0300
0000
0000
0000
0000
0000
0000
0000
0000
0000
0000
0000
0000
0000
0000
0200
0300
0000
0000
0000
0000
0000
0000
0000
0000
0000
0000
0000
0000
0000
0000
,
0200
0300
0000
0000
0000
0000
0000
0000
0000
0000
0000
0000
0000
0000
0000
0000
0200
0300
0000
0000
0000
0000
0000
0000
0000
0000
0000
0000
0000
0000
0000
0000
0200
0300
0000
0000
0000
0000
0000
0000
0000
0000
0000
0000
0000
0000
0000
0000
0200
0000
0000
0000
0000
0000
0000
0000
0301
0000
0000
0000
0000
0000
0000
0000
,
1001
0000
1000
0000
0100
0000
0110
0000
0010
0000
0001
0000
1001
0000
1000
0010
,
0100
0010
1000
1100
0100
0010
0011
0001
,
1001
1000
0010
0110
0100
0001
0011
0010
,
0110
0100
1000
1001
0001
0100
0110
0010
,
4001
0000
0000
0000
0000
0000
0000
0000
0000
0000
0000
0000
0100
0000
0000
3000
1000
0000
0000
0000
0010
0000
0000
0000
0110
0000
0000
0000
0100
0000
0000
0000
,
0104
0000
0000
0000
0000
0000
0000
0000
0000
0000
0000
0000
0010
0000
0000
0003
0001
0000
0000
0000
0010
0000
0000
0000
0110
0000
0000
0000
0100
0000
0000
0000
,
4100
0000
0000
0000
0000
0000
0000
0000
0000
0000
0000
0000
3001
0000
0000
0000
0200
0300
0000
0000
0000
0000
0000
0000
0200
0300
0000
0000
0000
0000
0000
0000
,
0200
0300
0000
0000
0000
0000
0000
0000
0200
0300
0000
0000
0000
0000
0000
0000
0200
0000
0000
0000
0300
0000
0000
0000
0100
0000
0000
0000
0001
0000
0000
0000
,
1001
1000
0100
0110
0010
0001
1001
1000
,
0001
0100
0001
1000
0010
0100
0010
1000
0100
0010
0001
1000
0001
0100
0010
1000
,
0001
0010
0100
1100
1000
0001
0101
0100
,
0010
1000
0010
0100
0001
1000
0100
0010
0001
1000
0001
0100
0010
0100
0001
1000
,
0001
1000
0010
0110
0100
0001
0011
0010
,
0100
1000
0001
1000
0010
0100
0010
1000
0100
0010
0001
0100
0001
1000
0010
0100
,
0001
1000
0100
1100
1000
0010
0110
0100
,
0101
0001
0010
0110
0100
1000
1010
0010
,
1MM1
0000
1000
0000
0010
0000
0100
0000
0001
0010
0100
1000
0010
0000
0400
0000
,
0000
0000
0300
0000
0000
0000
0000
0001
1000
0000
0100
0000
1000
0000
0010
0000
,
0100
0000
0001
0000
0010
0000
0100
0000
1000
0100
1000
0001
0100
0010
0400
0000
,
0000
0300
0000
0000
0000
0000
0001
1000
0010
0000
0010
0000
0100
0000
0001
0000
,
1MM1
1000
0001
0100
0010
0100
0001
1000
,
0001
0100
0001
0000
0010
0000
0100
0000
1000
0000
0001
0000
0100
0000
0010
0000
,
1000
0100
1000
0000
0001
0000
0100
0000
0001
0000
0010
0000
0100
0000
1000
0000
,
0010
0100
0010
0000
1000
0000
0100
0000
0010
0001
1000
0000
0001
0000
0100
0000
,
0001
1000
0100
0000
1000
0000
0010
0000
0100
0000
0001
0000
1000
0000
0001
0000
,
0010
0100
1000
0000
0100
0000
0010
0000
0100
0000
1000
0000
0001
0000
0100
0000
,
0001
1000
0001
0000
1000
0000
0100
0000
0010
0000
0001
0000
0100
0000
0010
0000
,
2000
3000
0000
0000
0000
0000
0000
0000
,
2002
0000
0000
0000
0000
0000
0000
0000
0000
0000
0000
0000
0000
0000
0000
0000
0000
0000
0000
0000
0000
3003
0000
0000
1000
0000
0100
0000
0010
0000
0100
0000
1000
0000
0001
0000
0100
0000
0010
0000
0100
0000
0001
0000
1000
0000
0001
0000
,
0100
0000
0000
0001
0000
0000
1000
0000
0000
0100
0000
0000
0010
0000
0000
0100
0000
0000
1000
0000
0000
0001
0000
0000
1000
0000
0100
0000
0010
0000
0100
0000
1000
0000
0001
0000
1000
0000
0010
0000
0100
0000
0001
0000
1000
0000
0001
0000
,
0100
0000
0000
0001
0000
0000
1000
0000
0000
0010
0000
0000
0100
0000
0000
0010
0000
0000
1000
0000
0000
0001
0000
0000
1000
0000
0100
0000
0010
0000
0100
0000
1000
0000
0001
0000
1000
0000
0000
0001
0000
0000
0100
0000
0000
0001
0000
0000
,
1000
0000
0001
0000
0100
0000
0001
0000
1000
0000
0010
0000
0100
0000
0000
0001
0000
0000
1000
0000
0000
0100
0000
0000
1000
0000
0001
0000
0010
0000
0100
0000
0010
0000
0001
0000
1000
0000
0000
0001
0000
0000
0100
0000
0000
0010
0000
0000
,
1000
0000
0000
0100
0000
0000
0010
0000
0000
0100
0000
0000
1000
0000
0000
0001
0000
0000
0100
0000
0000
0010
0000
0000
1000
0000
0100
0000
0010
0000
0001
0000
0100
0000
0010
0000
1000
0000
0100
0000
0010
0000
0001
0000
1000
0000
0001
0000
,
0100
0000
0000
0001
0000
0000
1000
0000
0000
0010
0000
0000
0100
0000
0000
0010
0000
0000
1000
0000
0000
0001
0000
0000
0100
0000
0001
0000
0010
0000
0100
0000
1000
0000
0010
0000
0100
0000
0001
0000
0010
0000
0100
0000
1000
0000
0001
0000
,
0100
0000
0000
0001
0000
0000
1000
0000
0000
0100
0000
0000
1000
0000
0000
0010
0000
0000
1000
0000
0000
0001
0000
0000
1000
0000
0100
0000
0010
0000
0100
0000
1000
0000
0001
0000
0100
0000
0000
0001
0000
0000
0100
0000
0000
0010
0000
0000
,
1000
0000
0001
0000
0010
0000
0100
0000
1000
0000
0001
0000
0100
0000
0000
0010
0000
0000
0100
0000
0000
0001
0000
0000
1000
0000
0100
0000
1000
0000
0001
0000
0100
0000
0010
0000
0100
0000
0000
0001
0000
0000
1000
0000
0000
0001
0000
0000
,
0100
0001
0001
1000
0100
0100
1000
0010
,
0100
0000
0001
0000
0001
0000
1000
0000
0001
0100
0001
1000
0100
0010
0001
1000
,
0001
0100
0010
1010
1000
0100
0110
0010
,
0011
0001
1000
1010
0010
0100
0101
0001
,
1000
0001
0010
0100
1000
0001
0100
0010
0100
0001
1000
0001
0100
0000
0000
0001
0000
0000
0101
0000
0000
0100
0000
0000
,
0001
1000
0100
1000
0001
0010
0100
1000
0001
0100
0010
0100
0001
0000
0000
1000
0000
0000
1010
0000
0000
0010
0000
0000
,
0100
0000
0001
0000
1000
0000
0001
0000
0010
0000
0100
0000
1000
0000
0001
0000
0100
0000
0001
0000
1000
0000
0001
0000
1000
0000
0000
0100
0000
0000
0010
0000
0000
0100
0000
0000
1000
0000
0000
0100
0000
0000
0010
0000
0000
0100
0000
0000
,
1000
0100
0010
0100
1000
0100
0010
0100
1000
0100
0010
0100
1000
0000
0001
0000
,
1000
0100
1000
0000
0001
0000
0100
0010
0100
0000
0001
0000
1000
0100
1000
0000
,
0001
0100
0001
0000
0010
0000
0100
1000
0100
0000
1000
0000
0001
0100
0001
0000
,
1000
0100
1000
0000
0010
0000
0100
0001
0100
0000
0001
0000
0010
0100
0010
0000
,
0100
1000
0100
0000
1000
0000
0001
0100
0001
0000
0100
0000
0010
0100
0010
0000
,
1000
0000
0001
0000
0100
0000
0010
0000
0100
0000
0001
0000
1000
0000
0100
0000
0010
0000
0001
0000
1000
0000
0001
0000
0100
0000
0000
0000
0000
0000
0010
0000
0000
0000
0000
0000
1000
0000
0000
0100
0000
0000
1000
0000
0000
0000
0000
0000
,
0001
0000
0010
0000
0100
0000
1000
0000
0001
0000
0100
0000
0001
0000
1000
0000
0010
0000
0100
0000
0010
0000
1000
0000
0001
0000
0000
0000
0000
0000
0100
0000
0000
0000
0000
0000
0001
0000
0000
1000
0000
0000
0001
0000
0000
0000
0000
0000
,
1000
0000
0100
0000
0010
0000
0100
0000
1000
0000
0001
0000
0010
0000
0001
0000
1000
0000
0010
0000
0100
0000
0001
0000
0100
0000
0000
0001
0000
0000
1000
0000
0000
0010
0000
0000
0100
0000
0000
0010
0000
0000
1000
0000
0000
0001
0000
0000
,
0100
0010
0100
0001
1000
0010
0100
0010
1000
0001
0100
0010
0100
0001
1000
0100
,
0010
0001
1000
0000
0001
0000
0010
0100
1000
0000
0001
0000
0100
0010
1000
0000
,
0001
0100
0001
1000
0010
0100
0010
1000
0001
0100
0001
1000
0100
0010
0001
1000
0010
0100
0001
0010
0100
1000
0001
1000
,
0001
0100
0010
0000
1000
0000
0100
0010
0001
0000
1000
0000
0010
0100
0001
0000
,
1000
0010
0100
0010
1000
0001
0010
0100
1000
0001
1000
0010
0100
0001
1000
0100
0010
0001
0100
0010
1000
0100
0010
0001
,
1000
0010
0100
0000
0001
0000
0010
0100
1000
0000
0001
0000
1000
0100
1000
0000
,
0001
0100
0001
1000
0010
0100
0010
1000
0001
1000
0001
0010
0100
1000
0001
0100
0001
1000
0100
0010
0001
1000
0001
0100
,
0001
0100
0010
0000
1000
0000
0001
0010
0100
0000
1000
0000
0010
0100
0001
0000
,
1000
0100
0010
0100
1000
0001
0100
0010
2000
0000
0000
0000
3000
0000
0000
0000
,
0001
0100
0001
0010
0100
1000
0010
0100
0001
0010
0100
1000
0001
0100
0001
1000
,
0100
0010
0001
0100
0010
1000
0001
0010
0001
0100
0010
0100
0001
1000
0100
0010
,
0001
0000
0000
0100
0000
0000
0010
0000
0000
1000
0000
0000
0010
0000
1000
0000
0001
0000
0100
0000
0001
0000
1000
0000
0001
0000
0010
0000
0100
0000
1000
0000
0001
0000
1000
0000
0010
0000
0100
0000
0010
0000
1000
0000
0100
0000
0010
0000
,
0001
1000
0100
0010
0100
1000
0010
0100
0010
1000
0001
0010
0100
1000
0010
0100
,
0001
1000
0100
0010
0001
0100
0010
1000
0001
0100
0001
0010
0100
1000
0010
0100
,
0001
1000
0100
0010
0100
1000
0010
0100
0001
0100
0001
0010
0100
1000
0001
0100
,
0010
1000
0100
0010
0001
1000
0001
0100
0010
0100
0001
0010
0100
1000
0010
0100
,
0001
1000
0100
1000
0001
0100
0010
1000
0100
0010
0100
1000
0010
0100
0001
1000
,
0001
0100
0010
1000
0100
1000
0010
0100
0001
1000
0100
0010
0100
1000
0001
0100
,
0001
0010
0100
1000
0010
0100
0001
1000
0100
1000
0001
0100
0001
0010
0100
1000
,
0010
0100
0001
0010
0100
1000
0010
0100
0001
1000
0100
0010
0100
1000
0010
0100
,
0001
0010
0100
1000
0010
0100
0010
1000
0100
0010
0001
1000
0010
0100
0010
1000
,
0001
0100
0001
0010
0100
1000
0010
0100
0001
1000
0100
1000
0001
0100
0001
1000
,
0010
0100
0001
0010
0100
1000
0010
0100
0010
1000
0001
0010
0100
1000
0001
0100
,
0001
0000
0000
0010
0000
0000
0100
0000
0000
1000
0000
0000
0010
0000
0100
0000
0001
0000
1000
0000
0010
0000
0100
0000
0001
0000
1000
0000
0100
0000
0010
0000
0001
0000
1000
0000
0001
0000
0000
0010
0000
0000
0100
0000
0000
1000
0000
0000
,
0010
0100
0010
1000
0100
0010
0100
1000
0001
0100
0010
0100
0001
1000
0100
0010
,
0002
0000
0000
0000
0000
0000
0000
0000
0000
0000
0000
0000
0000
0000
0000
0000
0000
0000
0000
0000
0000
0003
0000
0000
1000
0000
0001
0000
0100
0000
0001
0000
1000
0000
0010
0000
0100
0000
0001
0000
1000
0000
0001
0000
0100
0000
0001
0000
,
1000
0100
1000
0001
0010
0100
1000
0001
0010
0001
1000
0001
1000
0010
0100
0001
0100
0010
1000
0001
0100
0001
1000
0001
,
0200
0000
0000
0000
0000
0000
0301
0000
0000
1000
0000
0000
0001
0100
0001
1000
0010
0100
0010
1000
0001
0100
0001
1000
,
0001
0010
0100
1000
0001
0010
0001
1000
0100
0010
0100
1000
0001
0100
0001
1000
0010
0100
0001
1000
0010
0100
0001
1000
,
0002
0000
0000
0000
0000
0000
0000
0000
0000
0003
0000
0000
1000
0100
1000
0001
0010
0001
1000
0100
0010
0001
1000
0100
,
1000
0001
0100
0001
1000
0010
0100
0010
1000
0001
0100
0001
1000
0001
0010
0100
1000
0001
0010
0001
1000
0100
0010
0001
,
2000
0000
0000
0000
0000
0000
0000
0000
0000
3000
0000
0000
0001
0100
0001
1000
0010
0100
0010
1000
0001
0100
0001
1000
,
0001
0010
0100
1000
0001
0010
0001
1000
0100
0010
0001
1000
0001
1000
0010
0100
0001
1000
0001
0000
0000
1000
0000
0000
,
0MM1
1000
0100
0000
0000
0000
0000
1000
,
0001
0000
0100
0000
0010
0000
0000
0000
0000
0000
0000
0000
0000
0000
0100
0001
,
1000
0100
1000
0000
0001
0000
0000
0000
0000
0000
0100
0010
0000
0000
0000
0100
,
0001
1000
0100
0000
0000
0000
0000
1000
0100
1000
0001
0000
0000
0000
0000
0000
,
2000
0000
0000
0000
0000
0000
3000
0000
0000
0000
0000
0000
2002
0000
0000
3003
0000
0000
0000
0000
0000
0000
0000
0000
0MM1
0000
1000
0000
0001
0000
0100
0000
0010
0000
0100
0000
0001
0000
1000
0000
0001
0000
0100
0000
0001
0000
1000
0000
,
0100
1000
0001
0010
0100
1000
0001
0010
0001
1000
0100
0010
0001
1000
0001
0100
0010
0100
0001
1000
0001
0100
0010
0100
,
0001
1000
0001
0100
0001
1000
0100
0010
0100
1000
0001
0010
0100
1000
0001
0100
0010
0100
0001
1000
0001
0100
0010
1000
,
0001
1000
0100
1000
0001
0100
0001
1000
0010
0100
0010
1000
0001
0100
0001
1000
0100
1000
0001
0010
0100
1000
0001
0010
,
0001
1000
0100
0010
0001
1000
0001
0100
0010
0100
0001
1000
0002
0000
0000
0000
0000
0000
0000
0000
0000
0000
0000
0000
,
1003
0100
1000
0001
0100
0010
0100
0001
1000
0100
0010
0001
1000
0010
0100
0001
,
0010
0100
1000
0010
1000
0001
0010
0100
1000
0001
0100
0010
0100
0001
0010
0100
,
1000
0001
0100
0010
0100
0001
0010
0100
1000
0010
0100
0001
1000
0100
0010
0001
,
0100
0001
1000
0100
1000
0010
0100
0001
1000
0100
0010
0001
0100
0010
0100
0001
,
1000
0001
0100
0010
0100
0001
0010
0100
1000
0010
0100
0001
0010
0100
1000
0010
,
1000
0100
0010
0100
1000
0001
0100
0010
0100
0001
1000
0001
0010
0100
1000
0001
,
0100
0001
0010
0100
1000
0001
1000
0100
0010
0100
1000
0010
0100
0001
1000
0100
,
1000
0001
0100
0010
1000
0100
0010
0001
1000
0100
1000
0001
0100
0010
0100
0010
,
1000
0001
1000
0100
1000
0001
0010
0100
1000
0010
1000
0001
0010
0100
1000
0010
,
1000
0000
0000
0001
0000
0000
0100
0000
0000
0001
0000
0000
1000
0000
0000
0010
0000
0000
0100
0000
0000
0010
0000
0000
1000
0000
0001
0000
0010
0000
0100
0000
1000
0000
0001
0000
0100
0000
0001
0000
1000
0000
0010
0000
0100
0000
0001
0000
,
1000
0010
0100
0001
0100
0010
1000
0001
0010
0100
1000
0001
0100
0001
1000
0100
0010
0001
1000
0010
0100
0010
1000
0001
,
0100
0000
0001
0000
1000
0000
0100
0000
0010
0000
0001
0000
1000
0000
0001
0000
0100
0000
0001
0000
1000
0000
0010
0000
1000
0000
0000
0001
0000
0000
0010
0000
0000
0100
0000
0000
1000
0000
0000
0010
0000
0000
0100
0000
0000
0001
0000
0000
,
1000
0000
0010
0000
0100
0000
0010
0000
1000
0000
0001
0000
0100
0000
0001
0000
1000
0000
0100
0000
0010
0000
0001
0000
1000
0000
0000
0001
0000
0000
0100
0000
0000
0001
0000
0000
0010
0000
0000
0100
0000
0000
1000
0000
0000
0001
0000
0000
,
1000
0000
0001
0000
0010
0000
0100
0000
1000
0000
0001
0000
0010
0000
0001
0000
1000
0000
0100
0000
0010
0000
0001
0000
1000
0000
0000
0001
0000
0000
0100
0000
0000
0010
0000
0000
0100
0000
0000
0001
0000
0000
0010
0000
0000
0100
0000
0000
,
1000
0100
0010
0001
1000
0100
0010
0001
1000
0001
1000
0010
0100
0001
1000
0010
0100
0001
1000
0001
0100
0001
1000
0010
,
1000
0000
0001
0000
0010
0000
0100
0000
1000
0000
0001
0000
0010
0000
0001
0000
1000
0000
0100
0000
0010
0000
0001
0000
1000
0000
0000
0100
0000
0000
1000
0000
0000
0001
0000
0000
0100
0000
0000
0010
0000
0000
0100
0000
0000
0001
0000
0000
,
1000
0000
0001
0000
0010
0000
0001
0000
1000
0000
0100
0000
0010
0000
0001
0000
1000
0000
0001
0000
0010
0000
0100
0000
1000
0000
0000
0001
0000
0000
0100
0000
0000
0001
0000
0000
0010
0000
0000
0100
0000
0000
1000
0000
0000
0010
0000
0000
,
1000
0100
1000
0001
0010
0100
1000
0001
1000
0100
0010
0001
1000
0001
0100
0010
0100
0001
1000
0001
0100
0001
1000
0010
,
1000
0001
0010
0100
1000
0001
0010
0001
1000
0100
0010
0001
1000
0001
0100
0010
0100
0001
1000
0001
0100
0010
1000
0001
,
1000
0000
0100
0000
0010
0000
0100
0000
1000
0000
0001
0000
0010
0000
0100
0000
1000
0000
0001
0000
0010
0000
0001
0000
1000
0000
0000
0100
0000
0000
0010
0000
0000
0001
0000
0000
1000
0000
0000
0010
0000
0000
0100
0000
0000
0001
0000
0000
,
1000
0001
0100
0010
0100
0001
0010
0100
1000
0001
0100
0001
0010
0100
1000
0010
,
1000
0100
1000
0001
0100
0010
0100
0001
1000
0001
0100
0010
0100
0001
0010
0100
,
1000
0001
1000
0010
0100
0001
0100
0001
1000
0010
0100
0010
1000
0001
0010
0100
1000
0001
0010
0001
1000
0100
0010
0001
,
1000
0000
0001
0000
0100
0000
0001
0000
1000
0000
0010
0000
0100
0000
0010
0000
1000
0000
0001
0000
0100
0000
0001
0000
1000
0000
0000
0100
0000
0000
1000
0000
0000
0001
0000
0000
0100
0000
0000
0010
0000
0000
0100
0000
0000
0001
0000
0000
,
1000
0100
1000
0001
0100
0001
0010
0100
1000
0001
0100
0001
0010
0100
1000
0001
,
0100
0001
0010
0100
1000
0001
0100
0010
1000
0100
1000
0010
0100
0001
0010
0100
,
1000
0001
0010
0001
1000
0100
0010
0001
1000
0100
1000
0001
0100
0010
0100
0001
1000
0010
0100
0001
1000
0010
1000
0001
,
2000
3200
0000
0000
0300
0000
0000
0000
;

//---------------dance-single - J. Nero----------------
#NOTES:
     dance-single:
     J. Nero:
     Medium:
     14:
     1.000,1.000,0.240,0.106,1.000,1761.000,52.000,23.000,8.000,0.000:
0000
0000
0000
0000
,
0000
0000
0000
0000
,
0101
0100
0010
1010
1000
0100
0110
0010
,
0011
0001
1000
1010
0010
0100
0101
0001
,
1010
1000
0100
0110
0010
0001
1001
1000
,
1100
0100
1000
1010
0010
0100
0101
0001
,
4001
0000
0000
0000
0000
0000
0000
0000
0000
0000
0000
0000
0100
0000
0000
3000
1000
0000
0000
0000
0001
0000
0000
0000
0101
0000
0000
0000
0100
0000
0000
0000
,
0140
0000
0000
0000
0000
0000
0000
0000
0000
0000
0000
0000
1000
0000
0000
0030
0010
0000
0000
0000
0100
0000
0000
0000
0101
0000
0000
0000
0001
0000
0000
0000
,
4001
0000
0000
0000
0000
0000
0000
0000
0000
0000
0000
0000
0000
0000
0000
0000
0000
0000
0000
0000
0000
0000
0000
0000
3010
0000
0000
0000
0000
0000
0000
0000
0200
0300
0000
0000
0000
0000
0000
0000
0000
0000
0000
0000
0000
0000
0000
0000
0200
0300
0000
0000
0000
0000
0000
0000
0000
0000
0000
0000
0000
0000
0000
0000
,
0200
0300
0000
0000
0000
0000
0000
0000
0000
0000
0000
0000
0000
0000
0000
0000
0200
0300
0000
0000
0000
0000
0000
0000
0000
0000
0000
0000
0000
0000
0000
0000
0200
0300
0000
0000
0000
0000
0000
0000
0000
0000
0000
0000
0000
0000
0000
0000
0200
0000
0000
0000
0000
0000
0000
0000
0301
0000
0000
0000
0000
0000
0000
0000
,
1001
0000
1000
0000
0100
0000
0110
0000
0010
0000
0001
0000
1001
0000
1000
0010
,
0100
0010
1000
1100
0100
0010
0011
0001
,
1001
1000
0010
0110
0100
0001
0011
0010
,
0110
0100
1000
1001
0001
0100
0110
0010
,
4001
0000
0000
0000
0000
0000
0000
0000
0000
0000
0000
0000
0100
0000
0000
3000
1000
0000
0000
0000
0010
0000
0000
0000
0110
0000
0000
0000
0100
0000
0000
0000
,
0104
0000
0000
0000
0000
0000
0000
0000
0000
0000
0000
0000
0010
0000
0000
0003
0001
0000
0000
0000
0010
0000
0000
0000
0110
0000
0000
0000
0100
0000
0000
0000
,
4100
0000
0000
0000
0000
0000
0000
0000
0000
0000
0000
0000
3001
0000
0000
0000
0200
0300
0000
0000
0000
0000
0000
0000
0200
0300
0000
0000
0000
0000
0000
0000
,
0200
0300
0000
0000
0000
0000
0000
0000
0200
0300
0000
0000
0000
0000
0000
0000
0200
0000
0000
0000
0300
0000
0000
0000
0100
0000
0000
0000
0001
0000
0000
0000
,
1001
1000
0100
0110
0010
0001
1001
1000
,
0001
0100
0001
1000
0010
0100
0010
1000
0100
0010
0001
1000
0001
0100
0010
1000
,
0001
0010
0100
1100
1000
0001
0101
0100
,
0010
1000
0010
0100
0001
1000
0100
0010
0001
1000
0001
0100
0010
0100
0001
1000
,
0001
1000
0010
0110
0100
0001
0011
0010
,
0100
1000
0001
1000
0010
0100
0010
1000
0100
0010
0001
0100
0001
1000
0010
0100
,
0001
1000
0100
1100
1000
0010
0110
0100
,
0101
0001
0010
0110
0100
1000
1010
0010
,
1MM1
0000
1000
0000
0010
0000
0100
0000
0001
0010
0100
1000
0010
0000
0400
0000
,
0000
0000
0300
0000
0000
0000
0000
0001
1000
0000
0100
0000
1000
0000
0010
0000
,
0100
0000
0001
0000
0010
0000
0100
0000
1000
0100
1000
0001
0100
0010
0400
0000
,
0000
0300
0000
0000
0000
0000
0001
1000
0010
0000
0010
0000
0100
0000
0001
0000
,
1MM1
1000
0001
0100
0010
0100
0001
1000
,
0001
0100
0001
0000
0010
0000
0100
0000
1000
0000
0001
0000
0100
0000
0010
0000
,
1000
0100
1000
0000
0001
0000
0100
0000
0001
0000
0010
0000
0100
0000
1000
0000
,
0010
0100
0010
0000
1000
0000
0100
0000
0010
0001
1000
0000
0001
0000
0100
0000
,
0001
1000
0100
0000
1000
0000
0010
0000
0100
0000
0001
0000
1000
0000
0001
0000
,
0010
0100
1000
0000
0100
0000
0010
0000
0100
0000
1000
0000
0001
0000
0100
0000
,
0001
1000
0001
0000
1000
0000
0100
0000
0010
0000
0001
0000
0100
0000
0010
0000
,
2000
3000
0000
0000
0000
0000
0000
0000
,
2002
0000
0000
0000
0000
0000
0000
0000
0000
0000
0000
0000
0000
0000
0000
0000
0000
0000
0000
0000
0000
3003
0000
0000
1000
0000
0100
0000
0010
0000
0100
0000
1000
0000
0001
0000
0100
0000
0010
0000
0100
0000
0001
0000
1000
0000
0001
0000
,
0100
0000
0000
0001
0000
0000
1000
0000
0000
0100
0000
0000
0010
0000
0000
0100
0000
0000
1000
0000
0000
0001
0000
0000
1000
0000
0100
0000
0010
0000
0100
0000
1000
0000
0001
0000
1000
0000
0010
0000
0100
0000
0001
0000
1000
0000
0001
0000
,
0100
0000
0000
0001
0000
0000
1000
0000
0000
0010
0000
0000
0100
0000
0000
0010
0000
0000
1000
0000
0000
0001
0000
0000
1000
0000
0100
0000
0010
0000
0100
0000
1000
0000
0001
0000
1000
0000
0000
0001
0000
0000
0100
0000
0000
0001
0000
0000
,
1000
0000
0001
0000
0100
0000
0001
0000
1000
0000
0010
0000
0100
0000
0000
0001
0000
0000
1000
0000
0000
0100
0000
0000
1000
0000
0001
0000
0010
0000
0100
0000
0010
0000
0001
0000
1000
0000
0000
0001
0000
0000
0100
0000
0000
0010
0000
0000
,
1000
0000
0000
0100
0000
0000
0010
0000
0000
0100
0000
0000
1000
0000
0000
0001
0000
0000
0100
0000
0000
0010
0000
0000
1000
0000
0100
0000
0010
0000
0001
0000
0100
0000
0010
0000
1000
0000
0100
0000
0010
0000
0001
0000
1000
0000
0001
0000
,
0100
0000
0000
0001
0000
0000
1000
0000
0000
0010
0000
0000
0100
0000
0000
0010
0000
0000
1000
0000
0000
0001
0000
0000
0100
0000
0001
0000
0010
0000
0100
0000
1000
0000
0010
0000
0100
0000
0001
0000
0010
0000
0100
0000
1000
0000
0001
0000
,
0100
0000
0000
0001
0000
0000
1000
0000
0000
0100
0000
0000
1000
0000
0000
0010
0000
0000
1000
0000
0000
0001
0000
0000
1000
0000
0100
0000
0010
0000
0100
0000
1000
0000
0001
0000
0100
0000
0000
0001
0000
0000
0100
0000
0000
0010
0000
0000
,
1000
0000
0001
0000
0010
0000
0100
0000
1000
0000
0001
0000
0100
0000
0000
0010
0000
0000
0100
0000
0000
0001
0000
0000
1000
0000
0100
0000
1000
0000
0001
0000
0100
0000
0010
0000
0100
0000
0000
0001
0000
0000
1000
0000
0000
0001
0000
0000
,
0100
0001
0001
1000
0100
0100
1000
0010
,
0100
0000
0001
0000
0001
0000
1000
0000
0001
0100
0001
1000
0100
0010
0001
1000
,
0001
0100
0010
1010
1000
0100
0110
0010
,
0011
0001
1000
1010
0010
0100
0101
0001
,
1000
0001
0010
0100
1000
0001
0100
0010
0100
0001
1000
0001
0100
0000
0000
0001
0000
0000
0101
0000
0000
0100
0000
0000
,
0001
1000
0100
1000
0001
0010
0100
1000
0001
0100
0010
0100
0001
0000
0000
1000
0000
0000
1010
0000
0000
0010
0000
0000
,
0100
0000
0001
0000
1000
0000
0001
0000
0010
0000
0100
0000
1000
0000
0001
0000
0100
0000
0001
0000
1000
0000
0001
0000
1000
0000
0000
0100
0000
0000
0010
0000
0000
0100
0000
0000
1000
0000
0000
0100
0000
0000
0010
0000
0000
0100
0000
0000
,
1000
0100
0010
0100
1000
0100
0010
0100
1000
0100
0010
0100
1000
0000
0001
0000
,
1000
0100
1000
0000
0001
0000
0100
0010
0100
0000
0001
0000
1000
0100
1000
0000
,
0001
0100
0001
0000
0010
0000
0100
1000
0100
0000
1000
0000
0001
0100
0001
0000
,
1000
0100
1000
0000
0010
0000
0100
0001
0100
0000
0001
0000
0010
0100
0010
0000
,
0100
1000
0100
0000
1000
0000
0001
0100
0001
0000
0100
0000
0010
0100
0010
0000
,
1000
0000
0001
0000
0100
0000
0010
0000
0100
0000
0001
0000
1000
0000
0100
0000
0010
0000
0001
0000
1000
0000
0001
0000
0100
0000
0000
0000
0000
0000
0010
0000
0000
0000
0000
0000
1000
0000
0000
0100
0000
0000
1000
0000
0000
0000
0000
0000
,
0001
0000
0010
0000
0100
0000
1000
0000
0001
0000
0100
0000
0001
0000
1000
0000
0010
0000
0100
0000
0010
0000
1000
0000
0001
0000
0000
0000
0000
0000
0100
0000
0000
0000
0000
0000
0001
0000
0000
1000
0000
0000
0001
0000
0000
0000
0000
0000
,
1000
0000
0100
0000
0010
0000
0100
0000
1000
0000
0001
0000
0010
0000
0001
0000
1000
0000
0010
0000
0100
0000
0001
0000
0100
0000
0000
0001
0000
0000
1000
0000
0000
0010
0000
0000
0100
0000
0000
0010
0000
0000
1000
0000
0000
0001
0000
0000
,
0100
0010
0100
0001
1000
0010
0100
0010
1000
0001
0100
0010
0100
0001
1000
0100
,
0010
0001
1000
0000
0001
0000
0010
0100
1000
0000
0001
0000
0100
0010
1000
0000
,
0001
0100
0001
1000
0010
0100
0010
1000
0001
0100
0001
1000
0100
0010
0001
1000
0010
0100
0001
0010
0100
1000
0001
1000
,
0001
0100
0010
0000
1000
0000
0100
0010
0001
0000
1000
0000
0010
0100
0001
0000
,
1000
0010
0100
0010
1000
0001
0010
0100
1000
0001
1000
0010
0100
0001
1000
0100
0010
0001
0100
0010
1000
0100
0010
0001
,
1000
0010
0100
0000
0001
0000
0010
0100
1000
0000
0001
0000
1000
0100
1000
0000
,
0001
0100
0001
1000
0010
0100
0010
1000
0001
1000
0001
0010
0100
1000
0001
0100
0001
1000
0100
0010
0001
1000
0001
0100
,
0001
0100
0010
0000
1000
0000
0001
0010
0100
0000
1000
0000
0010
0100
0001
0000
,
1000
0100
0010
0100
1000
0001
0100
0010
2000
0000
0000
0000
3000
0000
0000
0000
,
0001
0100
0001
0010
0100
1000
0010
0100
0001
0010
0100
1000
0001
0100
0001
1000
,
0100
0010
0001
0100
0010
1000
0001
0010
0001
0100
0010
0100
0001
1000
0100
0010
,
0001
0000
0000
0100
0000
0000
0010
0000
0000
1000
0000
0000
0010
0000
1000
0000
0001
0000
0100
0000
0001
0000
1000
0000
0001
0000
0010
0000
0100
0000
1000
0000
0001
0000
1000
0000
0010
0000
0100
0000
0010
0000
1000
0000
0100
0000
0010
0000
,
0001
1000
0100
0010
0100
1000
0010
0100
0010
1000
0001
0010
0100
1000
0010
0100
,
0001
1000
0100
0010
0001
0100
0010
1000
0001
0100
0001
0010
0100
1000
0010
0100
,
0001
1000
0100
0010
0100
1000
0010
0100
0001
0100
0001
0010
0100
1000
0001
0100
,
0010
1000
0100
0010
0001
1000
0001
0100
0010
0100
0001
0010
0100
1000
0010
0100
,
0001
1000
0100
1000
0001
0100
0010
1000
0100
0010
0100
1000
0010
0100
0001
1000
,
0001
0100
0010
1000
0100
1000
0010
0100
0001
1000
0100
0010
0100
1000
0001
0100
,
0001
0010
0100
1000
0010
0100
0001
1000
0100
1000
0001
0100
0001
0010
0100
1000
,
0010
0100
0001
0010
0100
1000
0010
0100
0001
1000
0100
0010
0100
1000
0010
0100
,
0001
0010
0100
1000
0010
0100
0010
1000
0100
0010
0001
1000
0010
0100
0010
1000
,
0001
0100
0001
0010
0100
1000
0010
0100
0001
1000
0100
1000
0001
0100
0001
1000
,
0010
0100
0001
0010
0100
1000
0010
0100
0010
1000
0001
0010
0100
1000
0001
0100
,
0001
0000
0000
0010
0000
0000
0100
0000
0000
1000
0000
0000
0010
0000
0100
0000
0001
0000
1000
0000
0010
0000
0100
0000
0001
0000
1000
0000
0100
0000
0010
0000
0001
0000
1000
0000
0001
0000
0000
0010
0000
0000
0100
0000
0000
1000
0000
0000
,
0010
0100
0010
1000
0100
0010
0100
1000
0001
0100
0010
0100
0001
1000
0100
0010
,
0002
0000
0000
0000
0000
0000
0000
0000
0000
0000
0000
0000
0000
0000
0000
0000
0000
0000
0000
0000
0000
0003
0000
0000
1000
0000
0001
0000
0100
0000
0001
0000
1000
0000
0010
0000
0100
0000
0001
0000
1000
0000
0001
0000
0100
0000
0001
0000
,
1000
0000
0000
0001
0000
0000
0010
0000
0000
0100
0000
0000
1000
0000
0000
0010
0000
0000
0100
0000
0000
0001
0000
0000
0100
0000
0001
0000
1000
0000
0001
0000
0010
0000
0100
0000
1000
0000
0001
0000
0100
0000
0010
0000
0100
0000
0001
0000
,
1000
0000
0100
0000
0010
0000
0001
0000
1000
0000
0001
0000
0100
0000
0000
0001
0000
0000
1000
0000
0000
0001
0000
0000
1000
0000
0100
0000
0010
0000
0100
0000
1000
0000
0001
0000
0100
0000
0000
0001
0000
0000
1000
0000
0000
0001
0000
0000
,
1000
0000
0100
0000
1000
0000
0001
0000
0100
0000
0010
0000
0100
0000
0000
0001
0000
0000
1000
0000
0000
0001
0000
0000
0010
0000
0100
0000
1000
0000
0001
0000
0100
0000
0001
0000
1000
0000
0000
0100
0000
0000
0010
0000
0000
0100
0000
0000
,
1000
0000
0000
0001
0000
0000
0100
0000
0000
0010
0000
0000
0100
0000
0000
0001
0000
0000
0010
0000
0000
0100
0000
0000
1000
0000
0100
0000
1000
0000
0001
0000
0010
0000
0001
0000
1000
0000
0100
0000
0010
0000
0001
0000
1000
0000
0100
0000
,
1000
0000
0000
0001
0000
0000
0100
0000
0000
0010
0000
0000
0100
0000
0000
0001
0000
0000
0010
0000
0000
0100
0000
0000
1000
0000
0001
0000
0100
0000
0001
0000
1000
0000
0100
0000
0010
0000
0001
0000
1000
0000
0010
0000
0100
0000
0010
0000
,
1000
0000
0000
0100
0000
0000
1000
0000
0000
0010
0000
0000
0100
0000
0000
0001
0000
0000
0010
0000
0000
0100
0000
0000
1000
0000
0001
0000
0100
0000
0001
0000
1000
0000
0100
0000
0010
0000
0000
0001
0000
0000
1000
0000
0000
0001
0000
0000
,
1000
0000
0100
0000
0010
0000
0100
0000
1000
0000
0001
0000
0100
0000
0000
0001
0000
0000
1000
0000
0000
0010
0000
0000
1000
0000
0100
0000
0010
0000
0001
0000
1000
0000
0001
0000
0100
0000
0000
0000
0000
0000
0001
0000
0000
0000
0000
0000
,
1MM0
1000
0100
0000
0000
0000
0000
1000
,
0001
0000
0100
0000
0010
0000
0000
0000
0000
0000
0000
0000
0000
0000
0100
0001
,
1000
0100
1000
0000
0001
0000
0000
0000
0000
0000
0100
0010
0000
0000
0000
0100
,
0001
1000
0100
0000
0000
0000
0000
1000
0100
1000
0001
0000
0000
0000
0000
0000
,
2000
0000
3000
0000
2002
3003
0000
0000
0MM1
1000
0100
0010
0001
0100
0010
0100
,
0001
0010
0100
1000
0001
0100
0010
0100
0001
1000
0100
0010
0001
1000
0100
1000
,
0010
0100
0010
1000
0001
0100
0001
0010
0100
1000
0001
0100
0010
0100
0001
1000
,
0100
0010
0001
1000
0001
0100
0001
0010
0100
1000
0010
0100
0010
1000
0100
0010
,
0001
0100
0001
1000
0100
1000
0010
0100
0001
0010
0100
1000
0001
0100
0001
1000
,
0100
1000
0001
0100
0010
1000
0100
1000
0001
0010
0100
1000
0001
0100
0010
1000
,
0100
0010
0001
0100
0001
1000
0100
0010
0001
1000
0010
0100
0010
1000
0100
0010
,
0001
1000
0010
0100
0010
1000
0100
0010
0001
0100
0010
1000
0001
0010
0001
1000
,
0100
1000
0001
0010
0001
0100
0010
1000
0001
0010
0100
1000
0010
0100
0010
1000
,
0001
1000
0010
0100
0010
1000
0100
0010
0001
0100
0010
1000
0100
0010
0001
0100
,
0001
0010
0100
0010
0001
1000
0010
0100
0010
1000
0001
1000
0100
0010
0001
1000
,
0010
1000
0100
0010
0001
1000
0001
0010
0100
0010
0001
0100
0010
1000
0001
0010
,
0001
1000
0010
0100
0001
0010
0100
1000
0001
0010
0001
1000
0010
0100
0010
0100
,
0001
1000
0001
0010
0001
1000
0100
0010
0001
0100
0001
1000
0100
0010
0001
0100
,
0001
0000
0000
1000
0000
0000
0010
0000
0000
1000
0000
0000
0001
0000
0000
0100
0000
0000
0010
0000
0000
0100
0000
0000
0001
0000
1000
0000
0001
0000
0010
0000
0100
0000
1000
0000
0001
0000
0100
0000
0010
0000
0100
0000
0001
0000
1000
0000
,
0100
0010
0001
1000
0001
0100
0010
1000
0001
1000
0100
0010
0001
0000
0000
0100
0000
0000
0001
0000
0000
0010
0000
0000
,
0200
0000
0300
0000
2000
0000
3000
0000
0001
0100
0010
0100
0001
1000
0100
1000
,
0001
0000
0100
0000
0010
0000
0100
0000
0001
0000
1000
0000
0100
0000
0010
0000
0001
0000
1000
0000
0010
0000
0100
0000
0001
0000
0000
1000
0000
0000
0010
0000
0000
1000
0000
0000
0100
0000
0000
0010
0000
0000
0001
0000
0000
1000
0000
0000
,
0001
0000
1000
0000
0100
0000
0010
0000
0001
0000
1000
0000
0100
0000
1000
0000
0001
0000
0010
0000
0100
0000
1000
0000
0001
0000
0000
1000
0000
0000
0010
0000
0000
0100
0000
0000
0010
0000
0000
1000
0000
0000
0100
0000
0000
0010
0000
0000
,
0001
0000
0100
0000
0001
0000
1000
0000
0100
0000
0010
0000
0001
0000
0000
0100
0000
0000
0001
0000
0000
1000
0000
0000
0010
0000
1000
0000
0001
0000
0100
0000
0010
0000
1000
0000
0001
0000
0000
1000
0000
0000
0100
0000
0000
0010
0000
0000
,
0100
0000
1000
0000
0001
0000
0100
0000
0010
0000
1000
0000
0001
0000
0000
0100
0000
0000
0010
0000
0000
0100
0000
0000
0001
0000
0000
0010
0000
0000
0001
0000
0000
1000
0000
0000
0010
0000
0000
0100
0000
0000
0010
0000
0000
1000
0000
0000
,
0001
0000
1000
0000
0100
0000
1000
0000
0001
0000
0010
0000
0100
0000
1000
0000
0001
0000
1000
0000
0100
0000
0010
0000
0001
0000
0000
1000
0000
0000
0010
0000
0000
1000
0000
0000
0100
0000
0000
0010
0000
0000
0001
0000
0000
0100
0000
0000
,
0001
0000
0010
0000
0001
0000
1000
0000
0100
0000
0010
0000
0001
0000
1000
0000
0001
0000
0010
0000
0100
0000
1000
0000
0001
0000
0000
0100
0000
0000
0001
0000
0000
1000
0000
0000
0100
0000
0000
0010
0000
0000
0001
0000
0000
1000
0000
0000
,
0001
0000
1000
0000
0100
0000
0010
0000
0001
0000
1000
0000
0001
0000
0000
0100
0000
0000
0010
0000
0000
0100
0000
0000
0001
0000
1000
0000
0010
0000
0100
0000
0010
0000
1000
0000
0001
0000
0000
0100
0000
0000
0001
0000
0000
1000
0000
0000
,
0001
0000
0010
0000
0100
0000
1000
0000
0001
0000
0100
0000
0001
0000
0000
1000
0000
0000
0010
0000
0000
0100
0000
0000
0001
0000
0000
0010
0000
0000
0100
0000
0000
1000
0000
0000
0001
0000
0000
0100
0000
0000
0010
0000
0000
1000
0000
0000
,
0001
1000
0010
0100
0010
1000
0100
0010
0001
1000
0010
1000
0100
0010
0001
0100
,
0001
0010
0001
1000
0010
0100
0010
1000
0001
1000
0010
0100
0010
1000
0100
0010
,
0001
0000
1000
0000
0001
0000
0100
0000
0010
0000
1000
0000
0010
0000
0000
0100
0000
0000
0001
0000
0000
1000
0000
0000
0001
0000
1000
0000
0001
0000
0100
0000
0010
0000
0100
0000
0001
0000
0000
0010
0000
0000
0100
0000
0000
1000
0000
0000
,
0001
0000
0100
0000
0001
0000
1000
0000
0100
0000
0010
0000
0001
0000
0000
0100
0000
0000
0010
0000
0000
1000
0000
0000
0100
0000
0000
0010
0000
0000
0001
0000
0000
1000
0000
0000
0010
0000
0000
0100
0000
0000
0010
0000
0000
1000
0000
0000
,
0001
0010
0001
1000
0010
1000
0100
0010
0001
1000
0010
1000
0100
0010
0001
1000
,
0010
1000
0100
0010
0001
1000
0010
0100
0001
0010
0001
0100
0010
1000
0100
0010
,
0001
0000
1000
0000
0001
0000
0100
0000
0010
0000
1000
0000
0001
0000
0000
0100
0000
0000
0001
0000
0000
0010
0000
0000
0100
0000
1000
0000
0001
0000
0100
0000
0010
0000
1000
0000
0010
0000
0000
0100
0000
0000
0001
0000
0000
0010
0000
0000
,
0200
2300
0000
0000
3000
0000
0000
0000
;

//---------------dance-single - J. Nero----------------
#NOTES:
     dance-single:
     J. Nero:
     Easy:
     13:
     1.000,1.000,0.240,0.106,1.000,1647.000,52.000,23.000,8.000,0.000:
0000
0000
0000
0000
,
0000
0000
0000
0000
,
0101
0100
0010
1010
1000
0100
0110
0010
,
0011
0001
1000
1010
0010
0100
0101
0001
,
1010
1000
0100
0110
0010
0001
1001
1000
,
1100
0100
1000
1010
0010
0100
0101
0001
,
4001
0000
0000
0000
0000
0000
0000
0000
0000
0000
0000
0000
0100
0000
0000
3000
1000
0000
0000
0000
0001
0000
0000
0000
0101
0000
0000
0000
0100
0000
0000
0000
,
0140
0000
0000
0000
0000
0000
0000
0000
0000
0000
0000
0000
1000
0000
0000
0030
0010
0000
0000
0000
0100
0000
0000
0000
0101
0000
0000
0000
0001
0000
0000
0000
,
4001
0000
0000
0000
0000
0000
0000
0000
0000
0000
0000
0000
0000
0000
0000
0000
0000
0000
0000
0000
0000
0000
0000
0000
3010
0000
0000
0000
0000
0000
0000
0000
0200
0300
0000
0000
0000
0000
0000
0000
0000
0000
0000
0000
0000
0000
0000
0000
0200
0300
0000
0000
0000
0000
0000
0000
0000
0000
0000
0000
0000
0000
0000
0000
,
0200
0300
0000
0000
0000
0000
0000
0000
0000
0000
0000
0000
0000
0000
0000
0000
0200
0300
0000
0000
0000
0000
0000
0000
0000
0000
0000
0000
0000
0000
0000
0000
0200
0300
0000
0000
0000
0000
0000
0000
0000
0000
0000
0000
0000
0000
0000
0000
0200
0000
0000
0000
0000
0000
0000
0000
0301
0000
0000
0000
0000
0000
0000
0000
,
1001
0000
1000
0000
0100
0000
0110
0000
0010
0000
0001
0000
1001
0000
1000
0010
,
0100
0010
1000
1100
0100
0010
0011
0001
,
1001
1000
0010
0110
0100
0001
0011
0010
,
0110
0100
1000
1001
0001
0100
0110
0010
,
4001
0000
0000
0000
0000
0000
0000
0000
0000
0000
0000
0000
0100
0000
0000
3000
1000
0000
0000
0000
0010
0000
0000
0000
0110
0000
0000
0000
0100
0000
0000
0000
,
0104
0000
0000
0000
0000
0000
0000
0000
0000
0000
0000
0000
0010
0000
0000
0003
0001
0000
0000
0000
0010
0000
0000
0000
0110
0000
0000
0000
0100
0000
0000
0000
,
4100
0000
0000
0000
0000
0000
0000
0000
0000
0000
0000
0000
3001
0000
0000
0000
0200
0300
0000
0000
0000
0000
0000
0000
0200
0300
0000
0000
0000
0000
0000
0000
,
0200
0300
0000
0000
0000
0000
0000
0000
0200
0300
0000
0000
0000
0000
0000
0000
0200
0000
0000
0000
0300
0000
0000
0000
0100
0000
0000
0000
0001
0000
0000
0000
,
1001
1000
0100
0110
0010
0001
1001
1000
,
0001
0100
0001
1000
0010
0100
0010
1000
0100
0010
0001
1000
0001
0100
0010
1000
,
0001
0010
0100
1100
1000
0001
0101
0100
,
0010
1000
0010
0100
0001
1000
0100
0010
0001
1000
0001
0100
0010
0100
0001
1000
,
0001
1000
0010
0110
0100
0001
0011
0010
,
0100
1000
0001
1000
0010
0100
0010
1000
0100
0010
0001
0100
0001
1000
0010
0100
,
0001
1000
0100
1100
1000
0010
0110
0100
,
0101
0001
0010
0110
0100
1000
1010
0010
,
1MM1
0000
1000
0000
0010
0000
0100
0000
0001
0010
0100
1000
0010
0000
0400
0000
,
0000
0000
0300
0000
0000
0000
0000
0001
1000
0000
0100
0000
1000
0000
0010
0000
,
0100
0000
0001
0000
0010
0000
0100
0000
1000
0100
1000
0001
0100
0010
0400
0000
,
0000
0300
0000
0000
0000
0000
0001
1000
0010
0000
0010
0000
0100
0000
0001
0000
,
1MM1
1000
0001
0100
0010
0100
0001
1000
,
0001
0100
0001
0000
0010
0000
0100
0000
1000
0000
0001
0000
0100
0000
0010
0000
,
1000
0100
1000
0000
0001
0000
0100
0000
0001
0000
0010
0000
0100
0000
1000
0000
,
0010
0100
0010
0000
1000
0000
0100
0000
0010
0001
1000
0000
0001
0000
0100
0000
,
0001
1000
0100
0000
1000
0000
0010
0000
0100
0000
0001
0000
1000
0000
0001
0000
,
0010
0100
1000
0000
0100
0000
0010
0000
0100
0000
1000
0000
0001
0000
0100
0000
,
0001
1000
0001
0000
1000
0000
0100
0000
0010
0000
0001
0000
0100
0000
0010
0000
,
2000
3000
0000
0000
0000
0000
0000
0000
,
2002
0000
0000
0000
0000
0000
0000
3003
1000
0100
0010
0100
1000
0010
0100
0001
,
1000
0001
1000
0100
0010
0100
1000
0001
1000
0100
0010
0001
0100
0010
0100
0001
,
0010
0100
1000
0010
0100
0010
1000
0001
1000
0100
0010
0100
1000
0001
0100
0001
,
1000
0100
0010
0100
1000
0001
1000
0010
1000
0100
0010
0100
1000
0001
0100
0010
,
1000
0100
0010
0100
1000
0001
0100
0010
1000
0001
0100
0001
0010
0100
1000
0010
,
0100
0001
1000
0010
0100
0010
1000
0001
0100
0010
1000
0100
0010
0001
0100
0010
,
0100
0001
1000
0100
1000
0010
1000
0001
0010
0100
1000
0001
0100
0001
1000
0001
,
0010
0100
1000
0001
0100
0001
1000
0001
0010
0100
1000
0001
0100
0010
0100
0001
,
1000
0001
0001
1000
0100
0100
1000
0010
,
0100
0000
0001
0000
0001
0000
1000
0000
0001
0100
0001
1000
0100
0010
0001
1000
,
0001
0100
0010
1010
1000
0100
0110
0010
,
0011
0001
1000
1010
0010
0100
0101
0001
,
1000
0001
0010
0100
1000
0001
0100
0010
0100
0001
1000
0001
0100
0000
0000
0001
0000
0000
0101
0000
0000
0100
0000
0000
,
0001
1000
0100
1000
0001
0010
0100
1000
0001
0100
0010
0100
0001
0000
0000
1000
0000
0000
1010
0000
0000
0010
0000
0000
,
0100
0000
0001
0000
1000
0000
0001
0000
0010
0000
0100
0000
1000
0000
0001
0000
0100
0000
0001
0000
1000
0000
0001
0000
1000
0000
0000
0100
0000
0000
0010
0000
0000
0001
0000
0000
1000
0000
0000
0100
0000
0000
0010
0000
0000
0100
0000
0000
,
1000
0001
0100
0001
1000
0010
0100
0010
1000
0001
0010
0100
1000
0000
0001
0000
,
1000
0100
1000
0000
0001
0000
0100
0010
0100
0000
0001
0000
1000
0100
1000
0000
,
0001
0100
0001
0000
0010
0000
0100
1000
0100
0000
1000
0000
0001
0100
0001
0000
,
1000
0100
1000
0000
0010
0000
0100
0001
0100
0000
0001
0000
0010
0100
0010
0000
,
0100
1000
0100
0000
1000
0000
0001
0100
0001
0000
0100
0000
0010
0100
0010
0000
,
1000
0000
0001
0000
0100
0000
0010
0000
0100
0000
0001
0000
1000
0000
0100
0000
0010
0000
0001
0000
1000
0000
0001
0000
0100
0000
0000
0000
0000
0000
0010
0000
0000
0000
0000
0000
1000
0000
0000
0100
0000
0000
1000
0000
0000
0000
0000
0000
,
0001
0000
0010
0000
0100
0000
1000
0000
0001
0000
0100
0000
0001
0000
1000
0000
0010
0000
0100
0000
0010
0000
1000
0000
0001
0000
0000
0000
0000
0000
0100
0000
0000
0000
0000
0000
0001
0000
0000
1000
0000
0000
0001
0000
0000
0000
0000
0000
,
1000
0000
0100
0000
0010
0000
0100
0000
1000
0000
0001
0000
0010
0000
0001
0000
1000
0000
0010
0000
0100
0000
0001
0000
0100
0000
0000
0001
0000
0000
1000
0000
0000
0010
0000
0000
0100
0000
0000
0010
0000
0000
1000
0000
0000
0001
0000
0000
,
0100
0010
0100
0001
1000
0010
0100
0010
1000
0001
0100
0010
0100
0001
1000
0100
,
0010
0001
1000
0000
0001
0000
0010
0100
1000
0000
0001
0000
0100
0010
1000
0000
,
0001
0100
0001
1000
0010
0100
0010
1000
0001
0100
0001
1000
0100
0010
0001
1000
0010
0100
0001
0010
0100
1000
0001
1000
,
0001
0100
0010
0000
1000
0000
0100
0010
0001
0000
1000
0000
0010
0100
0001
0000
,
1000
0010
0100
0010
1000
0001
0010
0100
1000
0001
1000
0010
0100
0001
1000
0001
0100
0010
0100
0001
1000
0100
0010
0001
,
1000
0010
0100
0000
0001
0000
0010
0100
1000
0000
0001
0000
1000
0100
1000
0000
,
0001
0100
0001
1000
0010
0100
0010
1000
0001
1000
0001
0010
0100
1000
0001
0100
0001
1000
0100
0010
0001
1000
0001
0100
,
0001
0100
0010
0000
1000
0000
0001
0010
0100
0000
1000
0000
0010
0100
0001
0000
,
1000
0100
0010
0100
1000
0001
0100
0010
2000
0000
0000
0000
3000
0000
0000
0000
,
0001
0100
0001
0010
0100
1000
0010
0100
0001
0010
0100
1000
0001
0100
0001
1000
,
0100
0010
0001
0100
0010
1000
0001
0010
0001
0100
0010
0100
0001
1000
0100
0010
,
0001
0100
0010
1000
0001
0010
0100
1000
0010
0100
0010
1000
0100
0010
0001
0100
,
0001
1000
0100
0010
0100
1000
0010
0100
0010
1000
0001
0010
0100
1000
0010
0100
,
0001
1000
0100
0010
0001
0100
0010
1000
0001
0100
0001
0010
0100
1000
0010
0100
,
0001
1000
0100
0010
0100
1000
0010
0100
0001
0100
0001
0010
0100
1000
0001
0100
,
0010
1000
0100
0010
0001
1000
0001
0100
0010
0100
0001
0010
0100
1000
0010
0100
,
0001
1000
0100
1000
0001
0100
0010
1000
0100
0010
0100
1000
0010
0100
0001
1000
,
0001
0100
0010
1000
0100
1000
0010
0100
0001
1000
0100
0010
0100
1000
0001
0100
,
0001
0010
0100
1000
0010
0100
0001
1000
0100
1000
0001
0100
0001
0010
0100
1000
,
0010
0100
0001
0010
0100
1000
0010
0100
0001
1000
0100
0010
0100
1000
0010
0100
,
0001
0010
0100
1000
0010
0100
0010
1000
0100
0010
0001
1000
0010
0100
0010
1000
,
0001
0100
0001
0010
0100
1000
0010
0100
0001
1000
0100
1000
0001
0100
0001
1000
,
0010
0100
0001
0010
0100
1000
0010
0100
0010
1000
0001
0010
0100
1000
0001
0100
,
0001
0010
0100
1000
0001
0100
0001
0010
0100
1000
0010
0100
0001
0010
0100
1000
,
0010
0100
0010
1000
0100
0010
0100
1000
0001
0100
0010
0100
0001
1000
0100
0010
,
0002
0000
0000
0000
0000
0000
0000
0003
1000
0100
0010
0100
1000
0010
0100
0001
,
1000
0001
0010
0100
1000
0010
0100
0001
0100
0010
1000
0100
0010
0001
0100
0010
,
1000
0001
1000
0010
0100
0001
1000
0100
0010
0001
0100
0010
0100
0001
1000
0100
,
0010
0001
0100
0010
0100
0001
1000
0100
0010
0001
0100
0010
0100
0001
1000
0100
,
1000
0001
0100
0010
0100
0001
0010
0100
1000
0010
0100
0001
0010
0100
1000
0010
,
1000
0001
0100
0010
0100
0001
0010
0100
1000
0001
0100
0001
0010
0100
1000
0010
,
0100
0001
1000
0010
0100
0001
1000
0100
0010
0001
0100
0010
0100
0001
1000
0100
,
0010
0001
0100
0010
0100
0001
1000
0100
0010
0001
0100
0010
0100
0000
0001
0000
,
1MM0
1000
0100
0000
0000
0000
0000
1000
,
0001
0000
0100
0000
0010
0000
0000
0000
0000
0000
0000
0000
0000
0000
0100
0001
,
1000
0100
1000
0000
0001
0000
0000
0000
0000
0000
0100
0010
0000
0000
0000
0100
,
0001
1000
0100
0000
0000
0000
0000
1000
0100
1000
0001
0000
0000
0000
0000
0000
,
2000
0000
3000
0000
2002
3003
0000
0000
0MM1
1000
0100
0010
0001
0100
0010
0100
,
0001
0010
0100
1000
0001
0100
0010
0100
0001
1000
0100
0010
0001
1000
0100
1000
,
0010
0100
0010
1000
0001
0100
0001
0010
0100
1000
0001
0100
0010
0100
0001
1000
,
0100
0010
0001
1000
0001
0100
0001
0010
0100
1000
0010
0100
0010
1000
0100
0010
,
0001
0100
0001
1000
0100
1000
0010
0100
0001
0010
0100
1000
0001
0100
0001
1000
,
0100
1000
0001
0100
0010
1000
0100
1000
0001
0010
0100
1000
0001
0100
0010
1000
,
0100
0010
0001
0100
0001
1000
0100
0010
0001
1000
0010
0100
0010
1000
0100
0010
,
0001
1000
0010
0100
0010
1000
0100
0010
0001
0100
0010
1000
0001
0010
0001
1000
,
0100
1000
0001
0010
0001
0100
0010
1000
0001
0010
0100
1000
0010
0100
0010
1000
,
0001
1000
0010
0100
0010
1000
0100
0010
0001
0100
0010
1000
0100
0010
0001
0100
,
0001
0010
0100
0010
0001
1000
0010
0100
0010
1000
0001
1000
0100
0010
0001
1000
,
0010
1000
0100
0010
0001
1000
0001
0010
0100
0010
0001
0100
0010
1000
0001
0010
,
0001
1000
0010
0100
0001
0010
0100
1000
0001
0010
0001
1000
0010
0100
0010
0100
,
0001
1000
0001
0010
0001
1000
0100
0010
0001
0100
0001
1000
0100
0010
0001
0100
,
0001
1000
0010
1000
0001
0100
0010
0100
0001
1000
0100
0010
0001
0100
0010
0100
,
0001
0010
0100
1000
0010
0100
0001
1000
0001
0000
0100
0000
0001
0000
0010
0000
,
0200
0000
0300
0000
2000
0000
3000
0000
0001
0100
0010
0100
0001
1000
0100
1000
,
0001
0100
0001
0010
0100
1000
0010
0100
0001
1000
0010
1000
0100
0010
0001
1000
,
0001
0100
0010
0100
0001
1000
0100
0010
0001
1000
0010
0100
0010
1000
0001
0010
,
0100
1000
0010
0100
0010
1000
0001
0010
0100
1000
0010
0100
0010
1000
0001
0010
,
0100
1000
0010
0100
0010
1000
0100
0010
0001
1000
0001
0100
0010
1000
0100
0010
,
0001
0100
0001
1000
0100
0010
0001
0100
0001
1000
0010
1000
0100
0010
0001
0100
,
0001
1000
0100
0010
0100
1000
0010
0100
0001
1000
0100
0010
0001
0100
0001
1000
,
0100
1000
0010
0100
0001
0100
0001
1000
0100
1000
0010
0100
0001
0100
0001
1000
,
0100
1000
0010
0100
0001
0100
0001
1000
0100
0010
0001
1000
0001
0100
0010
1000
,
0001
1000
0010
0100
0010
1000
0100
0010
0001
1000
0010
1000
0100
0010
0001
0100
,
0001
0010
0001
1000
0010
0100
0010
1000
0001
1000
0010
0100
0010
1000
0001
0100
,
0010
1000
0100
1000
0001
0100
0001
0100
0010
1000
0100
1000
0001
0100
0001
0100
,
0010
1000
0100
1000
0001
0100
0001
0100
0010
1000
0001
0010
0100
1000
0010
0100
,
0001
0010
0001
1000
0010
1000
0100
0010
0001
1000
0010
1000
0100
0010
0001
1000
,
0010
1000
0100
0010
0001
1000
0010
0100
0001
0010
0001
0100
0010
1000
0001
1000
,
0010
1000
0100
0010
0001
1000
0001
0010
0100
1000
0010
0100
0001
1000
0100
0010
,
0200
2300
0000
0000
3000
0000
0000
0000
;
