#TITLE:960BPM SpeedCore;
#SUBTITLE:;
#ARTIST:M1DY;
#TITLETRANSLIT:;
#SUBTITLETRANSLIT:;
#ARTISTTRANSLIT:;
#CREDIT:;
#BANNER:960 bn.png;
#BACKGROUND:960 bg.png;
#LYRICSPATH:;
#CDTITLE:;
#MUSIC:960 BPM Speedcore.ogg;
#OFFSET:-0.035;
#SAMPLESTART:6.300;
#SAMPLELENGTH:15.000;
#SELECTABLE:YES;
#DISPLAYBPM:960.000;
#BPMS:0.000=960.340;
#STOPS:;
#BGCHANGES:;
// cache tags:
#FIRSTBEAT:1.000;
#LASTBEAT:2036.000;
#SONGFILENAME:Songs/SSSC Pack 2/960 bpm speedcore - [Xynn]/sm.sm;
#HASMUSIC:1;
#HASBANNER:1;
#MUSICLENGTH:105.000;
// end cache tags

//---------------dance-single - ]Xynn[----------------
#NOTES:
     dance-single:
     ]Xynn[:
     Challenge:
     16:
     1.000,1.000,0.171,1.000,0.000,1050.000,18.000,156.000,84.000,0.000:



0000
0200
0000
0000
,
0000
0000
0000
0000
,
0000
0000
0000
0000
,
0000
0000
0000
0000
,
0000
0000
0000
0000
,
0000
0000
0000
0000
,
0000
0000
0000
0000
,
0000
0000
0000
0000
,
0000
0010
0000
0000
,
0000
0000
0000
0000
,
0000
0001
0000
0000
,
0000
0000
0000
0000
,
0001
0000
0000
0000
,
0001
0000
0000
0000
,
0000
0000
0000
0000
,
0000
0000
0000
0000
,
0000
0010
0000
0000
,
0000
0000
0000
0000
,
0000
0001
0000
0000
,
0000
0000
0000
0000
,
0001
0000
0000
0000
,
0001
0000
0000
0000
,
0000
0000
0000
0000
,
0000
0000
0000
0000
,
0010
0000
0000
0000
,
0000
0000
0000
0000
,
0001
0000
0000
0000
,
0000
0000
0000
0000
,
0001
0000
0000
0000
,
0001
0000
0000
0000
,
0000
0000
0000
0000
,
0000
0000
0000
0000
,
0010
0000
0000
0000
,
0000
0000
0000
0000
,
0001
0000
0000
0000
,
0000
0000
0000
0000
,
0001
0000
0000
0000
,
0001
0000
0000
0000
,
0000
0000
0000
0000
,
0000
0000
0000
0000
,
0010
0000
0000
0000
,
0000
0000
0000
0000
,
0001
0000
0000
0000
,
0000
0000
0000
0000
,
0001
0000
0000
0000
,
0001
0000
0000
0000
,
0000
0000
0000
0000
,
0000
0000
0000
0000
,
0300
1001
0000
0000
,
0000
0000
0000
0000
,
0000
0000
0000
0000
,
0000
0110
0000
0000
,
0000
1001
0000
0000
,
0000
0000
0000
0000
,
0000
0000
0000
0000
,
0000
0110
0000
0000
,
0000
1001
0000
0000
,
0000
0000
0000
0000
,
0000
0000
0000
0000
,
0000
0110
0000
0000
,
0000
1001
0000
0000
,
0000
0000
0000
0000
,
0000
0000
0000
0000
,
0000
0110
0000
0000
,
0000
0101
0000
0000
,
0000
0000
0000
0000
,
0000
0000
1010
0000
,
0000
0000
0000
0000
,
0101
0000
0000
0000
,
0000
0000
0000
0000
,
0000
0000
1010
0000
,
0000
0000
0000
0000
,
0101
0000
0000
0000
,
0000
0000
0000
0000
,
0000
0000
1010
0000
,
0000
0000
0000
0000
,
0101
0000
0000
0000
,
0000
0000
0000
0000
,
0000
0000
1010
0000
,
0000
0000
0000
0000
,
0101
0000
0000
0000
,
0000
0000
0000
0000
,
0000
0000
0000
0000
,
0000
0000
0000
0000
,
0000
0000
0000
0000
,
0000
0000
0000
0000
,
0000
0000
0000
0000
,
0000
0000
0000
0000
,
0000
0000
0000
0000
,
0000
0000
0000
0000
,
0000
0000
0000
0000
,
0000
0000
0000
0000
,
0000
0000
0000
0000
,
0000
0000
0000
0000
,
0000
0000
0000
0000
,
0000
0000
0000
0000
,
0100
0000
0000
0000
,
0100
0000
0000
0000
,
0100
0000
0000
0000
,
0100
0000
0100
0000
,
0100
0000
0000
0000
,
0100
0000
0000
0000
,
0100
0000
0000
0000
,
0100
0000
0000
0010
,
0100
0000
0000
0000
,
0100
0000
0000
0000
,
0100
0000
0000
0000
,
0100
0000
0100
0000
,
0100
0000
0000
0000
,
0100
0000
0000
0000
,
0100
0000
0000
0000
,
0100
0000
0000
0010
,
0100
0000
0000
0000
,
0000
0000
0000
0000
,
0000
0000
0000
0000
,
0000
0000
0000
0000
,
0000
0000
0000
0000
,
0000
0000
0000
0000
,
0000
0000
0000
0000
,
0000
0000
0000
0000
,
0000
0000
0000
0000
,
0000
0000
0000
0000
,
0000
0000
0000
0000
,
0000
0000
0000
0000
,
0000
0000
0000
0000
,
0000
0000
0000
0000
,
0000
0000
0000
0000
,
0000
0000
0000
0000
,
0000
0000
0000
0000
,
0000
0000
0000
0000
,
0000
0000
0000
0000
,
0000
0000
0000
0000
,
0000
0000
0000
0000
,
0000
0000
0000
0000
,
0000
0000
0000
0000
,
0000
0000
0000
0000
,
0000
0000
0000
0000
,
0000
0000
0000
0000
,
0001
0100
0010
1000
,
0001
0100
0010
1000
,
0001
0100
0001
0100
,
0001
1000
0001
1000
,
0001
1000
0100
0010
,
0001
1000
0100
0010
,
0001
1000
0100
1000
,
0100
1000
0001
1000
,
0001
1000
0010
0100
,
0001
1000
0010
0100
,
0001
0100
0001
0100
,
0001
1000
0010
1000
,
0001
1000
0001
0010
,
0100
1000
0001
0010
,
0100
1000
0001
0010
,
0001
1000
0001
1000
,
0001
0000
0000
0000
,
0000
0000
0000
0000
,
0000
0000
0000
0000
,
0000
0000
0000
0000
,
0000
0000
0000
0000
,
0000
0000
0000
0000
,
0000
0000
0000
0000
,
0000
0000
0000
0000
,
0000
0000
0000
0000
,
0000
0000
0000
0000
,
0000
0000
0000
0000
,
0000
0000
0000
0000
,
0000
0000
0000
0000
,
0000
0000
0000
0000
,
0000
0000
0000
0000
,
0000
0000
0000
0000
,
0000
0000
0000
0000
,
0000
0000
0000
0000
,
0000
0000
0000
0000
,
0000
0000
0000
0000
,
1000
0100
0010
0001
,
1000
0100
0010
0001
,
1000
0100
1000
0100
,
0010
0001
0010
0001
,
1000
0001
1000
0010
,
0100
0001
1000
0010
,
0100
0001
0100
0010
,
0100
0001
0100
0010
,
0100
0001
1000
0010
,
0200
0310
1000
0001
,
1000
0001
0010
0001
,
2000
3100
0010
0001
,
0010
0001
1000
0001
,
0200
0310
1000
0001
,
1000
0001
0100
0001
,
0200
0310
1000
0001
,
1000
0001
1000
0100
,
0020
0031
1000
0100
,
0010
0001
1000
0100
,
2000
3001
0010
0001
,
1000
0001
1000
0010
,
2000
3010
0100
0010
,
0100
0001
0100
0010
,
2000
3001
0100
0010
,
1000
0001
0100
0001
,
0200
0310
1000
0001
,
1000
0001
1000
0100
,
0020
0031
1000
0100
,
0010
0001
1000
0001
,
2000
3010
1000
0010
,
0100
0001
0100
0001
,
2000
3001
1000
0100
,
0020
0030
0100
0000
0020
0030
0100
0000
,
0020
0030
0100
0000
0020
0030
0100
0000
,
0020
0030
0000
0000
0020
0030
0000
0000
,
0020
0030
0100
0000
0020
0030
0100
0000
,
0020
0030
0100
0000
0020
0030
0100
0000
,
0020
0030
0100
0000
0020
0030
0100
0000
,
0020
0030
0000
0000
0020
0030
0000
0000
,
0020
0030
0100
0000
0020
0030
0100
0000
,
1000
0100
1000
0100
,
0010
0001
0010
0001
,
1000
0001
1000
0001
,
1000
0010
1000
0010
,
0100
0001
0100
0001
,
1000
0001
1000
0001
,
0010
0001
0010
0001
,
0010
0100
0010
0100
,
1000
0100
1000
0100
,
0010
0001
0010
0001
,
1000
0001
1000
0001
,
0100
0001
0100
0001
,
1000
0010
1000
0010
,
0100
0010
0100
0010
,
1000
0001
1000
0001
,
1000
0100
1000
0100
,
0010
0001
0010
0001
,
1000
0001
1000
0001
,
0100
0001
0100
0001
,
1000
0010
1000
0010
,
1000
0001
1000
0001
,
0010
0001
0010
0001
,
1000
0100
1000
0100
,
0010
0100
0010
0100
,
1000
0001
1000
0001
,
0100
0001
0100
0001
,
1000
0010
1000
0010
,
0100
0010
0100
0010
,
1000
0001
1000
0001
,
1000
0100
1000
0100
,
0010
0001
0010
0001
,
1000
0001
1000
0001
,
1000
0001
1000
0001
,
1000
0001
1000
0001
,
1000
0001
1000
0001
,
1000
0001
1000
0001
,
1000
0001
1000
0001
,
1000
0001
1000
0001
,
1000
0001
1000
0001
,
1000
0001
1000
0001
,
1000
0000
0000
0000
,
0000
0000
0000
0000
,
0000
0000
0000
0000
,
0000
0000
0000
0000
,
0000
0000
0000
0000
,
0000
0000
0000
0000
,
0000
0000
0000
0000
,
0000
0000
0000
0000
,
0000
0000
0000
0000
,
0000
0000
0000
0000
,
0000
0000
0000
0000
,
0000
0000
0000
0000
,
0000
0000
0000
0000
,
0000
0000
0000
0000
,
0000
0000
0000
0000
,
0000
0000
0000
0000
,
1000
0100
0010
0001
,
1000
0100
0010
0001
,
1000
0100
0010
0001
,
1000
0100
0010
0001
,
1000
0001
1000
0001
,
1000
0010
0100
0001
,
1000
0010
0100
0001
,
1000
0010
0100
0001
,
1000
0010
0100
0001
,
0100
0010
1000
0001
,
0100
0001
0100
0010
,
1000
0010
1000
0001
,
1000
0001
1000
0100
,
1000
0100
0010
0001
,
0010
0001
1000
0001
,
1000
0010
0100
0010
,
0100
0000
0000
0000
,
0000
0000
0000
0000
,
0000
0000
0000
0000
,
0000
0000
0000
0000
,
1000
0100
1000
0100
,
0010
0001
0010
0001
,
1000
0001
0100
0001
,
0100
0010
1000
0001
,
0100
0010
1000
0001
,
0100
0010
1000
0001
,
0100
0001
1000
0001
,
1000
0100
0010
0001
,
1000
0100
0010
0001
,
1000
0100
0010
0001
,
1000
0100
1000
0100
,
0010
0001
0010
0001
,
1000
0001
0100
0001
,
0100
0010
1000
0010
,
1000
0001
0100
0001
,
1000
0001
1000
0001
,
1000
0000
0000
0000
,
0000
0000
0000
0000
,
0000
0000
0000
0000
,
0000
0000
0000
0000
,
0001
0100
0010
1000
,
0001
0100
0010
1000
,
0001
0100
0010
1000
,
0001
1000
0001
1000
,
0100
1000
0100
0010
,
0001
0010
0001
1000
,
0100
1000
0001
0010
,
0100
1000
0001
0010
,
0100
1000
0100
0010
,
0001
1000
0001
1000
,
0010
1000
0010
0100
,
0001
0100
0001
0100
,
0010
1000
0001
0100
,
0010
0100
0001
0100
,
0010
1000
0010
1000
,
0001
1000
0001
1000
,
0001
0100
0001
0100
,
0001
0100
0001
0100
,
0001
0100
0001
0100
,
0001
0100
0001
0100
,
0001
0100
0001
0100
,
0001
0100
0001
0100
,
0001
0100
0001
0100
,
0001
0100
0001
0100
,
0001
0000
0000
0000
,
0000
0000
0000
0000
,
0000
0000
0000
0000
,
0000
0000
0000
0000
,
0000
0000
0000
0000
,
0000
0000
0000
0000
,
0000
0000
0000
0000
,
0000
0000
0000
0000
,
0100
0000
0000
0000
,
0100
0000
0000
0000
,
0100
0000
0000
0000
,
0100
0000
0100
0000
,
0100
0000
0000
0000
,
0100
0000
0000
0000
,
0100
0000
0000
0000
,
0100
0000
0000
0010
,
0100
0000
0000
0000
,
0100
0000
0000
0000
,
0100
0000
0000
0000
,
0100
0000
0100
0000
,
0100
0000
0000
0000
,
0100
0000
0000
0000
,
0100
0000
0000
0000
,
0100
0000
0000
0010
,
0100
0000
0000
0000
,
0000
0000
0000
0000
,
0000
0000
0000
0000
,
0000
0000
0000
0000
,
0000
0000
0000
0000
,
0000
0000
0000
0000
,
0000
0000
0000
0000
,
0000
0000
0000
0000
,
0000
0000
0000
0000
,
0000
0000
0000
0000
,
0000
0000
0000
0000
,
0000
MMM0
M0M0
M0M0
,
MMMM
M00M
M00M
MMMM
,
0000
0000
MMMM
M000
,
M000
MMM0
M000
M000
,
MMMM
0000
0000
0MM0
,
M00M
M00M
MMMM
M00M
,
M00M
M00M
0000
0000
,
MMMM
M000
M000
MMMM
,
000M
000M
MMMM
0000
,
0000
MMMM
0MM0
0MM0
,
0MM0
0MM0
0MM0
0000
,
0000
0000
0000
0000
,
0000
0000
0000
0000
,
0000
0000
0000
0000
,
0000
0000
0000
0000
,
0000
0000
0000
0000
,
0000
0000
0000
0000
,
0000
0000
0000
0000
,
0000
0000
0000
0000
,
1000
0100
1000
0100
,
0010
0001
0010
0001
,
1000
0100
0010
0001
,
1000
0100
0010
0001
,
1000
0001
1000
0001
,
1000
0010
1000
0010
,
1000
0010
0100
0001
,
1000
0010
0100
0001
,
0100
0001
0100
0001
,
1000
0010
1000
0010
,
1000
0001
0100
0010
,
1000
0001
0100
0010
,
1000
0001
1000
0010
,
0100
0001
0100
0010
,
0100
0001
1000
0001
,
1000
0001
1000
0100
,
0020
0030
0200
0300
0020
0030
0200
0300
,
0020
0030
0002
0003
0020
0030
0002
0003
,
2000
3000
0002
0003
2000
3000
0002
0003
,
2000
3000
0020
0030
2000
3000
0020
0030
,
0200
0300
0002
0003
0200
0300
0002
0003
,
2000
3000
0002
0003
2000
3000
0002
0003
,
2000
3000
0020
0030
2000
3000
0020
0030
,
0200
0300
0002
0003
0200
0300
0002
0003
,
0200
0300
0020
0030
0200
0300
0020
0030
,
2000
3000
0002
0003
2000
3000
0002
0003
,
2000
3000
0200
0300
2000
3000
0200
0300
,
0020
0030
0002
0003
0020
0030
0002
0003
,
2000
3000
0002
0003
2000
3000
0002
0003
,
2000
3000
0020
0030
2000
3000
0020
0030
,
0200
0300
0002
0003
0200
0300
0002
0003
,
2000
3000
0200
0300
0020
0030
0002
0003
,
4000
3000
0400
0300
0040
0030
0004
0003
,
4000
3000
0400
0300
0040
0030
0004
0003
,
4000
3000
0400
0300
0040
0030
0004
0003
,
4000
3000
0004
0003
4000
3000
0004
0003
,
0400
0300
0004
0003
0400
0300
0004
0003
,
4000
3000
0040
0030
4000
3000
0040
0030
,
0400
0300
0004
0003
0400
0300
0040
0030
,
4000
3000
0004
0003
0400
0300
0040
0030
,
4000
3000
0004
0003
0400
0300
0040
0030
,
4000
3000
0004
0003
0400
0300
0004
0003
,
4000
3000
0040
0030
4000
3000
0004
0003
,
4000
3000
0004
0003
4000
3000
0004
0003
,
4000
3000
0400
0300
0040
0030
0004
0003
,
4000
3000
0400
0300
0040
0030
0004
0003
,
4000
3000
0400
0300
0040
0030
0004
0003
,
4000
3000
0004
0003
4000
3000
0004
0000
,
1003
0000
1000
0000
,
1000
0100
0010
0000
,
0001
0000
0001
1000
,
0001
0000
1000
0000
,
0010
0000
0010
0000
,
0010
0100
0001
0000
,
1000
0000
0100
1000
,
0100
0000
0010
0000
,
0001
0000
0001
0000
,
0001
0010
0100
0000
,
1000
0000
0001
1000
,
0001
0000
0100
0000
,
0010
0000
0010
0000
,
0010
1000
0001
0000
,
1000
0000
0100
1000
,
0100
0000
0010
0000
,
0001
1000
0001
1000
,
0001
0100
0010
1000
,
0001
0100
0010
1000
,
0001
0100
0010
1000
,
0001
0100
0001
1000
,
0010
0100
0010
1000
,
0001
1000
0001
1000
,
0100
0010
0100
1000
,
0100
0010
0001
1000
,
0100
0010
0001
1000
,
0100
0010
0001
0010
,
0100
0010
0001
0010
,
0100
0010
0001
1000
,
0001
1000
0001
0100
,
0001
0100
0010
1000
,
0010
1000
0001
1000
,
0001
1000
0100
1000
,
0100
0010
0001
0010
,
0001
1000
0001
0100
,
0010
0100
0010
0100
,
0010
1000
0001
1000
,
0010
0100
0001
1000
,
0010
0100
0001
1000
,
0001
1000
0100
1000
,
0100
0010
0001
0010
,
0001
1000
0001
1000
,
0001
0100
0001
0100
,
0010
1000
0010
1000
,
0001
1000
0100
0010
,
0001
1000
0100
0010
,
0100
1000
0001
0010
,
0100
1000
0001
1000
,
0002
0003
0200
0300
0002
0003
0200
0300
,
0020
0030
2000
3000
0020
0030
2000
3000
,
0002
0003
2000
3000
0002
0003
2000
3000
,
0200
0300
2000
3000
0200
0300
2000
3000
,
0002
0003
0020
0030
0002
0003
0010
0000
,
0200
0300
0020
0030
0200
0300
0020
0030
,
0002
0003
2000
3000
0002
0003
2000
3000
,
0020
0030
2000
3000
0020
0030
2000
3000
,
0002
0003
0200
0300
0002
0003
0200
0300
,
0020
0030
0200
0300
0020
0030
0200
0300
,
0002
0003
2000
3000
0002
0003
2000
3000
,
0200
0300
2000
3000
0200
0300
2000
3000
,
0002
0003
0020
0030
0002
0003
0020
0030
,
0200
0300
2000
3000
0002
0003
2000
3000
,
0002
0003
2000
3000
0020
0030
0200
0300
,
0002
0003
2000
3000
0002
0003
2000
3000
,
0001
0000
0000
0000
,
0000
0000
0000
0000
,
0000
0000
0000
0000
,
0000
0000
0000
0000
,
0000
0000
0000
0000
,
0000
0000
0000
0000
,
0000
0000
0000
0000
,
0000
0000
0000
0000
,
0000
0000
0000
0000
,
MMMM
0000
0000
0000
;
