#TITLE:Pirate Dance;
#SUBTITLE:;
#ARTIST:From Super Mario World;
#TITLETRANSLIT:;
#SUBTITLETRANSLIT:;
#ARTISTTRANSLIT:;
#CREDIT:;
#BANNER:Pirate Dance.png;
#BACKGROUND:Pirate Dance-bg.png;
#LYRICSPATH:;
#CDTITLE:Pirate Dance-cdtitle.png;
#MUSIC:08 Korogaru koin no yoo ni.mp3;
#OFFSET:-0.063;
#SAMPLESTART:52.420;
#SAMPLELENGTH:15.000;
#SELECTABLE:YES;
#DISPLAYBPM:160.000;
#BPMS:0.000=160.125;
#STOPS:;
#BGCHANGES:;
// cache tags:
#FIRSTBEAT:0.000;
#LASTBEAT:223.500;
#SONGFILENAME:Songs/toune/Pirate Dance _NOiREDiT_/Pirate Dance.sm;
#HASMUSIC:1;
#HASBANNER:1;
#MUSICLENGTH:92.150;
// end cache tags

//---------------dance-single - _NOiREDiT_----------------
#NOTES:
     dance-single:
     _NOiREDiT_:
     Challenge:
     10:
     0.882,0.940,1.000,0.543,0.684,361.000,154.000,50.000,62.000,9.000:
1000
0000
0000
0000
0001
0000
0000
1000
0100
0000
0010
0001
0000
0000
0000
0000
,
2M02
00M0
0M00
00M0
0M00
00M0
0M00
00M0
0M00
00M0
0M00
00M0
0M00
00M0
0M00
00M0
,
3003
0000
1100
0000
0110
0000
0011
0000
1100
0000
0022
MM00
0M00
0M00
0033
0000
,
2200
000M
00M0
0000
0000
00MM
00MM
00MM
0000
000M
00M0
0000
00MM
000M
00M0
000M
,
33M0
1100
0011
1001
0110
0000
1001
0000
,
1000
0000
0000
0000
0001
0000
0000
1000
0100
0000
0011
0000
0110
0000
0000
1000
,
0100
0000
1010
0000
0011
0000
1100
0000
0202
M0M0
0000
2020
0000
0000
3333
0000
,
1000
0000
0000
0000
0100
0000
0000
0010
0100
0000
1010
0000
0011
0000
0000
0010
,
0100
0000
1100
0000
1000
0001
1000
0000
2002
0000
0000
0000
0000
0000
0000
3003
,
1000
0000
0000
0000
0001
0000
0000
1000
0100
0000
1100
0000
1010
0000
0000
0001
,
0010
0000
0101
0000
0101
0000
0110
0000
0022
MM00
0000
2200
0000
0000
3333
0000
,
0001
0000
0000
0000
0100
0000
0000
1000
0100
0000
1100
0000
0101
0000
0000
0010
,
0001
0000
1001
0000
0010
1000
0100
0000
0220
0000
0000
0000
0000
0000
0000
0330
,
1001
0000
0110
0000
1100
0000
0101
0000
1010
0000
0000
0000
,
1000
0100
1000
0000
0022
0000
0000
2233
3300
0000
0000
0000
0000
0000
0000
0000
,
0110
0000
1100
0000
0011
0000
1100
0000
0011
0000
0000
0000
,
1000
0010
0100
0000
0022
0000
0000
0000
0000
0000
0000
0000
0000
0000
0000
0033
,
1000
0000
0000
0000
0001
0000
0000
0010
1000
0000
0101
0000
1001
0000
0000
0010
,
1000
0010
1000
0000
0022
0000
0000
2233
3300
0000
0000
0000
0000
0000
0000
0100
,
1000
0000
1010
0000
0011
0000
0011
0000
0110
0000
0000
0001
0010
0100
1000
0000
,
2002
0000
0000
0000
0000
0000
0000
0000
0000
0000
0000
0000
0000
0000
0000
3003
,
1100
0100
1100
0100
0011
0010
0011
0010
,
0110
0100
0110
0100
1001
0001
1001
0001
,
1100
0001
1100
0001
0011
1000
0011
1000
,
0110
0001
0110
0001
0110
1000
1111
0000
,
1000
0000
0000
0000
0001
0000
0000
1000
0010
0100
0000
0100
0000
0000
0000
0000
,
1100
0000
0000
0000
1100
0000
0000
0000
1000
0000
0000
0001
1000
0001
1000
0001
,
1100
0000
0000
0000
0011
0000
0000
1000
0100
0011
0000
0011
0000
0000
0000
0000
,
1100
0011
1100
0001
1100
1100
1100
0000
,
0001
0000
0000
0000
1000
0000
0000
0001
0100
0010
0000
0010
0000
0000
0000
0000
,
0011
0000
0000
0000
0011
0000
0000
0000
0001
0000
0000
1000
0001
1000
0001
1000
,
0101
0000
0000
0000
1010
0000
0000
0100
0001
1010
0000
1010
0000
0000
0000
0000
,
0101
1010
0101
0010
0101
0101
0101
0000
,
0001
0000
0000
0000
0010
0000
0000
0010
1000
0000
1100
0000
0101
0000
0000
0100
,
0001
0000
0101
0000
0011
0000
0011
0000
2020
0M0M
0000
0202
0000
0000
3333
0000
,
0010
0000
0000
0000
0001
0000
0000
1000
0010
0000
1010
0000
0101
0000
0000
1000
,
0100
0000
1001
0000
0100
0100
0010
0000
2002
0000
0000
0000
0000
0000
0000
3003
,
0110
0000
1001
0000
1010
0000
1100
0000
0011
0000
0000
0000
,
0010
1000
0010
0000
0202
0000
0000
2323
3030
0000
0000
0000
0000
0000
0000
0000
,
1001
0000
1010
0000
0101
0000
1010
0000
0101
0000
0000
0000
,
0010
0001
1000
0000
0202
0000
0000
0000
0000
0000
0000
0000
0000
0000
0000
0303
,
1000
0000
0000
0000
0010
0000
0000
1000
0100
0000
0101
0000
0101
0000
0000
0001
,
0100
1000
1000
0000
2200
0000
0000
3322
0033
0000
0000
0000
0000
0000
0000
0001
,
0001
0000
0011
0000
1100
0000
1010
0000
0101
0000
0000
0001
0001
0010
0100
0000
,
2002
0000
0000
0000
0000
0000
0000
0000
0000
0000
0000
0000
0000
0000
0000
3003
,
0011
1000
1001
0100
0101
0010
1100
0001
,
1010
1000
0110
0001
1001
0001
1001
0010
,
0011
0001
0110
1000
1100
1000
1100
0001
,
1010
0010
1100
0010
1001
0001
1111
0000
,
0010
1000
0001
1000
0100
0010
1000
0100
0010
0001
1000
0100
0010
0001
1000
0100
,
0010
0001
1000
0001
0100
0010
1000
0010
1000
0001
1000
0100
1001
0000
0000
0000
,
1000
0100
1000
0100
0010
1000
0100
0001
1000
0100
0010
1000
0001
0100
0010
1000
,
0100
0010
0001
1000
0100
0010
0001
1000
0100
0010
0100
1000
1001
0000
0000
0000
,
1001
0000
0000
1001
0000
0000
0000
0000
,
0000
0000
0000
0000
0000
0000
0000
0000
1001
0000
0110
0000
22M0
000M
00M0
000M
,
00M0
000M
00M0
000M
00M0
00M0
000M
00M0
000M
00M0
00M0
330M
11MM
00MM
0011
0000
;
